<?xml version="1.0" standalone="no"?>
<!DOCTYPE svg PUBLIC "-//W3C//DTD SVG 1.1//EN" "http://www.w3.org/Graphics/SVG/1.1/DTD/svg11.dtd" >
<svg xmlns="http://www.w3.org/2000/svg" xmlns:xlink="http://www.w3.org/1999/xlink" version="1.1">
<metadata>
Created by FontForge 20200427 at Thu Nov 12 19:57:59 2015
 By www
Copyright (c) 2015 by Jakob Runge, under exclusive license to TypeMates, Runge Thomsen GbR. All rights reserved.
</metadata>
<defs>
<font id="CeraCY-Bold" horiz-adv-x="560" >
  <font-face 
    font-family="CeraCY-Bold"
    font-weight="400"
    font-stretch="normal"
    units-per-em="1000"
    panose-1="2 11 8 0 0 0 0 0 0 0"
    ascent="799"
    descent="-201"
    x-height="495"
    cap-height="660"
    bbox="-119 -245 1371 910"
    underline-thickness="100"
    underline-position="-100"
    unicode-range="U+0020-F8FF"
  />
<missing-glyph horiz-adv-x="713" 
d="M638 0h-562v660h562v-660zM166 576l378 -498v498h-378z" />
    <glyph glyph-name=".notdef" horiz-adv-x="713" 
d="M638 0h-562v660h562v-660zM166 576l378 -498v498h-378z" />
    <glyph glyph-name=".null" horiz-adv-x="0" 
 />
    <glyph glyph-name="nonmarkingreturn" horiz-adv-x="333" 
 />
    <glyph glyph-name="space" unicode=" " horiz-adv-x="280" 
 />
    <glyph glyph-name="exclam" unicode="!" horiz-adv-x="347" 
d="M228 242h-110l-26 418h161zM175 174q39 0 65.5 -27t26.5 -66q0 -40 -26.5 -66.5t-65.5 -26.5q-41 0 -67.5 26.5t-26.5 66.5q0 39 26.5 66t67.5 27z" />
    <glyph glyph-name="quotedbl" unicode="&#x22;" horiz-adv-x="538" 
d="M186 382h-103l5 278h154zM423 382h-103l5 278h154z" />
    <glyph glyph-name="numbersign" unicode="#" horiz-adv-x="631" 
d="M264 494h148l22 166h110l-23 -166h83v-113h-98l-13 -102h91v-113h-106l-22 -166h-110l22 166h-148l-22 -166h-110l22 166h-83v113h98l13 102h-90v113h105l23 166h110zM234 273h148l15 114h-148z" />
    <glyph glyph-name="dollar" unicode="$" horiz-adv-x="538" 
d="M327 630q54 -11 90 -41.5t59 -72.5l-91 -68q-23 35 -51 51.5t-63 16.5q-27 0 -49.5 -11t-22.5 -40q0 -24 18.5 -37.5t48.5 -25.5l74 -26q75 -28 114 -70.5t39 -105.5q0 -36 -12.5 -65.5t-34.5 -52t-52.5 -37.5t-66.5 -21v-121h-118v123q-60 13 -105 48t-72 88l91 68
q27 -44 65 -67.5t86 -23.5q36 0 61 14.5t25 44.5q0 26 -21 40.5t-55 28.5l-68 25q-68 25 -108.5 67.5t-40.5 106.5q0 63 39.5 105t102.5 57v121h118v-119z" />
    <glyph glyph-name="percent" unicode="%" horiz-adv-x="831" 
d="M619 318q35 0 66 -12.5t54.5 -34.5t37 -52t13.5 -65t-13.5 -65.5t-37 -52.5t-54.5 -34.5t-66 -12.5t-66 12.5t-54 34.5t-36.5 52.5t-13.5 65.5t13.5 65t36.5 52t54 34.5t66 12.5zM620 225q-31 0 -49 -19.5t-18 -51.5t18 -51.5t49 -19.5q28 0 46.5 19.5t18.5 51.5
t-18.5 51.5t-46.5 19.5zM213 672q35 0 66 -12.5t54 -34.5t36.5 -52t13.5 -65t-13.5 -65.5t-36.5 -52.5t-54 -34.5t-66 -12.5q-36 0 -67 12.5t-54 34.5t-36.5 52.5t-13.5 65.5t13.5 65t36.5 52t54 34.5t67 12.5zM213 579q-30 0 -48.5 -20t-18.5 -51q0 -32 18.5 -52t48.5 -20
q28 0 47 20t19 52q0 31 -19 51t-47 20zM280 0h-108l379 660h110z" />
    <glyph glyph-name="ampersand" unicode="&#x26;" horiz-adv-x="674" 
d="M288 672q37 0 67.5 -11t52 -30t33 -46t11.5 -58q0 -53 -30 -93t-75 -77l99 -121q21 29 43.5 61.5t48.5 70.5l105 -74q-29 -42 -57 -82.5t-57 -76.5l111 -135h-158l-41 49q-38 -29 -81.5 -45t-97.5 -16q-48 0 -87.5 13.5t-68 37.5t-44.5 58t-16 75q0 32 10 58.5t27.5 50
t41.5 45.5t53 44q-27 35 -42 70t-15 74q0 35 12 64t33.5 50t52.5 32.5t69 11.5zM270 107q26 0 48.5 9.5t44.5 27.5l-113 138q-30 -24 -50 -45.5t-20 -51.5q0 -34 24.5 -56t65.5 -22zM243 513q0 -22 10.5 -39t25.5 -35q24 20 37.5 36t13.5 39q0 19 -10 31t-33 12
q-21 0 -32.5 -12t-11.5 -32z" />
    <glyph glyph-name="quotesingle" unicode="'" horiz-adv-x="301" 
d="M186 382h-103l5 278h154z" />
    <glyph glyph-name="parenleft" unicode="(" horiz-adv-x="365" 
d="M339 658q-30 -20 -58 -49t-49.5 -71t-34 -100t-12.5 -135t12.5 -134t34 -99.5t49.5 -71.5t58 -49l-54 -81q-43 19 -82 54.5t-69 88.5t-48 125.5t-18 166.5t18 167t48 126t69 88t82 55z" />
    <glyph glyph-name="parenright" unicode=")" horiz-adv-x="365" 
d="M80 739q43 -20 82 -55t69 -88t48 -126t18 -167t-18 -166.5t-48 -125.5t-69 -88.5t-82 -54.5l-54 81q30 20 58 49t49.5 71.5t34 99.5t12.5 134t-12.5 135t-34 100t-49.5 71t-58 49z" />
    <glyph glyph-name="asterisk" unicode="*" horiz-adv-x="467" 
d="M77 682l105 -46l13 113h77l12 -112l104 45l39 -67l-91 -68l91 -67l-39 -67l-103 45l-13 -112h-77l-13 112l-105 -45l-38 67l91 67l-91 68z" />
    <glyph glyph-name="plus" unicode="+" 
d="M346 263v-178h-128v178h-173v114h173v176h128v-176h170v-114h-170z" />
    <glyph glyph-name="comma" unicode="," horiz-adv-x="270" 
d="M170 -178h-107l5 301h154z" />
    <glyph glyph-name="hyphen" unicode="-" horiz-adv-x="342" 
d="M297 264h-252v113h252v-113z" />
    <glyph glyph-name="period" unicode="." horiz-adv-x="270" 
d="M136 174q39 0 65.5 -27t26.5 -66q0 -40 -26.5 -66.5t-65.5 -26.5q-41 0 -67.5 26.5t-26.5 66.5q0 39 26.5 66t67.5 27z" />
    <glyph glyph-name="slash" unicode="/" horiz-adv-x="672" 
d="M146 -121h-143l523 901h143z" />
    <glyph glyph-name="zero" unicode="0" horiz-adv-x="659" 
d="M329 549q60 0 112.5 -21.5t91.5 -59.5t62 -89.5t23 -110.5t-23 -110.5t-62 -89t-91.5 -59t-112.5 -21.5t-112 21.5t-91 59t-61.5 89t-22.5 110.5t22.5 110.5t61.5 89.5t91 59.5t112 21.5zM329 425q-33 0 -60.5 -12t-47 -33t-30.5 -49.5t-11 -62.5q0 -33 11 -61.5
t30.5 -49.5t47 -33t60.5 -12q32 0 59.5 12t47.5 33t31.5 49.5t11.5 61.5q0 34 -11.5 62.5t-31.5 49.5t-47.5 33t-59.5 12z" />
    <glyph glyph-name="one" unicode="1" horiz-adv-x="516" 
d="M346 114h131v-114h-407v114h141v302h-132v121h267v-423z" />
    <glyph glyph-name="two" unicode="2" horiz-adv-x="581" 
d="M286 549q49 0 90 -15t71 -41.5t46.5 -63t16.5 -78.5q0 -68 -41 -119.5t-107 -101.5l-22 -16h189v-114h-489v29l207 155q27 20 49.5 38t39 36t26 37.5t9.5 42.5q0 35 -23.5 61t-65.5 26q-43 0 -66 -26t-23 -62q0 -19 4 -42h-133q-4 14 -5.5 28.5t-1.5 26.5q0 37 16 73
t45.5 64t72 45t95.5 17z" />
    <glyph glyph-name="three" unicode="3" horiz-adv-x="537" 
d="M479 501l-145 -203q30 -9 58.5 -26t50.5 -43t35.5 -59.5t13.5 -75.5q0 -51 -20 -92.5t-53.5 -71.5t-79 -46.5t-96.5 -16.5q-86 0 -147 42t-93 107l94 67q28 -43 61 -67.5t81 -24.5q49 0 82 27t33 75q0 47 -35 72t-101 25h-81v35l137 191h-221v121h426v-36z" />
    <glyph glyph-name="four" unicode="4" horiz-adv-x="576" 
d="M480 114h84v-114h-84v-121h-135v121h-328v36l198 501h139l-169 -423h160v186h135v-186z" />
    <glyph glyph-name="five" unicode="5" horiz-adv-x="553" 
d="M463 416h-253v-119q36 9 75 9q41 0 81 -13.5t71.5 -40t51 -66t19.5 -91.5q0 -51 -20 -93t-54 -72t-80 -46.5t-98 -16.5q-88 0 -150.5 42t-94.5 107l94 67q27 -43 61.5 -67.5t85.5 -24.5q50 0 84 27t34 76q0 47 -34.5 71.5t-100.5 24.5h-155v347h383v-121z" />
    <glyph glyph-name="six" unicode="6" horiz-adv-x="562" 
d="M301 448h4q42 0 81 -16.5t70 -46t49.5 -70.5t18.5 -91q0 -51 -19.5 -94.5t-53 -75t-77.5 -49t-93 -17.5q-48 0 -92 17.5t-77.5 49t-53 75t-19.5 95.5q0 30 6.5 55.5t18.5 49.5t28.5 49t36.5 53l165 228h160zM281 335q-47 0 -78 -31.5t-31 -79.5q0 -24 8.5 -44.5t23 -35.5
t34.5 -23.5t43 -8.5t43 8.5t34.5 23.5t23 35.5t8.5 44.5t-8.5 44.5t-23 35t-34.5 23t-43 8.5z" />
    <glyph glyph-name="seven" unicode="7" horiz-adv-x="525" 
d="M502 501l-302 -622h-147l268 537h-283v121h464v-36z" />
    <glyph glyph-name="eight" unicode="8" horiz-adv-x="588" 
d="M294 672q45 0 85 -11.5t69 -33.5t46 -55t17 -75q0 -52 -26 -90t-73 -65q57 -23 93 -63.5t36 -102.5q0 -44 -18.5 -78.5t-51 -59t-78 -37.5t-99.5 -13t-99.5 13t-78.5 37.5t-51.5 59t-18.5 78.5q0 62 35.5 102.5t93.5 63.5q-46 27 -72.5 64t-26.5 91q0 42 17 75t46.5 55
t69 33.5t85.5 11.5zM407 181q0 40 -31.5 62.5t-81.5 41.5q-51 -19 -82 -41.5t-31 -62.5q0 -36 28.5 -59.5t85.5 -23.5t84.5 23.5t27.5 59.5zM295 563q-40 0 -66.5 -18.5t-26.5 -53.5q0 -32 25 -52t67 -40q42 20 67 40t25 53q0 34 -26.5 52.5t-64.5 18.5z" />
    <glyph glyph-name="nine" unicode="9" horiz-adv-x="562" 
d="M282 549q48 0 92 -17.5t77.5 -49t53 -75t19.5 -95.5q0 -29 -6 -54t-18 -49.5t-28.5 -49.5t-37.5 -54l-164 -226h-159l151 210h-4q-42 0 -81 16.5t-70 46t-49.5 71t-18.5 91.5q0 51 20 94.5t53.5 74.5t77.5 48.5t92 17.5zM281 425q-46 0 -77.5 -31.5t-31.5 -80.5
q0 -24 8.5 -44.5t23 -35t34.5 -23t43 -8.5q47 0 78 31.5t31 79.5q0 24 -8.5 44.5t-23 35.5t-34.5 23.5t-43 8.5z" />
    <glyph glyph-name="colon" unicode=":" horiz-adv-x="270" 
d="M136 504q39 0 65.5 -27t26.5 -66q0 -40 -26.5 -66.5t-65.5 -26.5q-41 0 -67.5 26.5t-26.5 66.5q0 39 26.5 66t67.5 27zM136 174q39 0 65.5 -27t26.5 -66q0 -40 -26.5 -66.5t-65.5 -26.5q-41 0 -67.5 26.5t-26.5 66.5q0 39 26.5 66t67.5 27z" />
    <glyph glyph-name="semicolon" unicode=";" horiz-adv-x="270" 
d="M136 504q39 0 65.5 -27t26.5 -66q0 -40 -26.5 -66.5t-65.5 -26.5q-41 0 -67.5 26.5t-26.5 66.5q0 39 26.5 66t67.5 27zM170 -178h-107l5 301h154z" />
    <glyph glyph-name="less" unicode="&#x3c;" 
d="M501 427l-249 -106l249 -106v-118l-464 205v37l464 205v-117z" />
    <glyph glyph-name="equal" unicode="=" 
d="M506 371h-451v114h451v-114zM506 156h-451v114h451v-114z" />
    <glyph glyph-name="greater" unicode="&#x3e;" 
d="M523 339v-37l-464 -205v118l248 106l-248 106v117z" />
    <glyph glyph-name="question" unicode="?" horiz-adv-x="452" 
d="M221 672q41 0 77 -12.5t62.5 -35.5t42 -55t15.5 -72q0 -49 -23 -81.5t-60 -64.5q-30 -26 -50 -45.5t-20 -42.5q0 -6 0.5 -11t1.5 -10h-114q-5 10 -8 22.5t-3 25.5q0 18 7 33.5t18.5 29.5t25.5 26l28 24q31 26 45 42t14 40q0 29 -18.5 46t-44.5 17q-55 0 -82 -76l-111 48
q22 77 74 114.5t123 37.5zM214 174q40 0 66 -27t26 -66q0 -40 -26 -66.5t-66 -26.5q-41 0 -67.5 26.5t-26.5 66.5q0 39 26.5 66t67.5 27z" />
    <glyph glyph-name="at" unicode="@" horiz-adv-x="953" 
d="M489 666q93 0 171 -30.5t134.5 -82.5t88 -122t31.5 -149q0 -65 -21.5 -112.5t-60 -78.5t-91 -46t-113.5 -15h-50v48q-22 -29 -56 -44t-76 -15q-44 0 -80.5 16.5t-63 45.5t-41.5 69t-15 87t15 86.5t41.5 68.5t63.5 45.5t81 16.5q41 0 74 -14.5t55 -42.5v48h113v-311
q54 5 85.5 39.5t31.5 108.5q0 61 -22 113t-63 89t-99 58t-129 21q-76 0 -139.5 -23.5t-109.5 -66t-71.5 -102t-25.5 -131.5q0 -74 26.5 -133t71.5 -101t105.5 -64.5t128.5 -22.5q32 0 63 4t57 11l21 -93q-35 -13 -75.5 -19t-78.5 -6q-89 0 -167 31.5t-136 87.5t-91.5 133.5
t-33.5 169.5q0 94 35.5 172.5t96.5 135.5t143.5 88.5t175.5 31.5zM472 343q-41 0 -71 -27.5t-30 -78.5q0 -50 29.5 -78t70.5 -28q18 0 35.5 6t31 19t22 33t8.5 48q0 27 -8 47t-21.5 33t-31 19.5t-35.5 6.5z" />
    <glyph glyph-name="A" unicode="A" horiz-adv-x="661" 
d="M647 0h-145l-37 86h-270l-37 -86h-145l295 672h44zM242 197h175l-87 223z" />
    <glyph glyph-name="B" unicode="B" horiz-adv-x="621" 
d="M309 660q46 0 84.5 -13.5t66 -37.5t43 -58t15.5 -75q0 -37 -13 -67t-36 -52q55 -20 86.5 -61.5t31.5 -101.5q0 -43 -16 -78.5t-44.5 -61t-69 -40t-88.5 -14.5h-293v660h233zM207 282v-166h152q45 0 69.5 22t24.5 61q0 38 -24.5 60.5t-69.5 22.5h-152zM207 544v-151h92
q42 0 64 21t22 55q0 35 -22 55t-64 20h-92z" />
    <glyph glyph-name="C" unicode="C" horiz-adv-x="720" 
d="M389 672q97 0 172.5 -44t119.5 -120l-103 -72q-33 53 -79.5 82t-109.5 29q-46 0 -84.5 -16t-67 -45t-44.5 -69t-16 -88t16 -87.5t44.5 -68t67 -44.5t84.5 -16q63 0 109.5 29t79.5 82l103 -72q-44 -76 -119.5 -120t-172.5 -44q-74 0 -138 26t-111 72t-74.5 108.5
t-27.5 135.5t27.5 135.5t74.5 108.5t111 72t138 26z" />
    <glyph glyph-name="D" unicode="D" horiz-adv-x="690" 
d="M293 660q79 0 145.5 -23.5t113.5 -66.5t73.5 -103.5t26.5 -134.5q0 -73 -26.5 -134t-73.5 -105t-113.5 -68.5t-145.5 -24.5h-217v660h217zM211 538v-416h81q50 0 91 15t70 42.5t45 66t16 86.5q0 49 -16 87t-45 64.5t-70 40.5t-91 14h-81z" />
    <glyph glyph-name="E" unicode="E" horiz-adv-x="573" 
d="M520 538h-309v-134h228v-115h-228v-167h321v-122h-456v660h444v-122z" />
    <glyph glyph-name="F" unicode="F" horiz-adv-x="535" 
d="M510 538h-299v-165h245v-122h-245v-251h-135v660h434v-122z" />
    <glyph glyph-name="G" unicode="G" horiz-adv-x="747" 
d="M391 672q89 0 159.5 -37.5t118.5 -105.5l-96 -79q-34 46 -78.5 71.5t-105.5 25.5q-48 0 -87 -16t-67 -45t-43 -69t-15 -87q0 -48 15.5 -88.5t44.5 -70t69 -46t90 -16.5q59 0 103 22t72 60v54h-182v117h317v-195q-22 -39 -54 -72t-72.5 -56.5t-88 -37t-100.5 -13.5
q-75 0 -139.5 26t-112 72t-74.5 108.5t-27 135.5t27 135.5t74.5 108.5t112 72t139.5 26z" />
    <glyph glyph-name="H" unicode="H" horiz-adv-x="713" 
d="M638 0h-135v285h-292v-285h-135v660h135v-253h292v253h135v-660z" />
    <glyph glyph-name="I" unicode="I" horiz-adv-x="286" 
d="M211 0h-135v660h135v-660z" />
    <glyph glyph-name="J" unicode="J" horiz-adv-x="389" 
d="M313 176q0 -97 -53 -142.5t-148 -45.5q-26 0 -50 3.5t-45 8.5v115q20 -2 36.5 -3t29.5 -1q48 0 71.5 17t23.5 62v470h135v-484z" />
    <glyph glyph-name="K" unicode="K" horiz-adv-x="670" 
d="M211 354l252 306h161l-254 -311l287 -349h-163l-283 344v-344h-135v660h135v-306z" />
    <glyph glyph-name="L" unicode="L" horiz-adv-x="524" 
d="M211 122h289v-122h-424v660h135v-538z" />
    <glyph glyph-name="M" unicode="M" horiz-adv-x="798" 
d="M723 0h-135v353l-167 -209h-44l-166 209v-353h-135v672h45l278 -358l280 358h44v-672z" />
    <glyph glyph-name="N" unicode="N" horiz-adv-x="713" 
d="M503 266v394h135v-672h-44l-383 408v-396h-135v672h45z" />
    <glyph glyph-name="O" unicode="O" horiz-adv-x="778" 
d="M388 672q73 0 137 -26t111.5 -72t75 -108.5t27.5 -135.5t-27.5 -135.5t-75 -108.5t-111.5 -72t-137 -26t-137 26t-111 72t-74.5 108.5t-27.5 135.5t27.5 135.5t75 108.5t111 72t136.5 26zM389 547q-47 0 -85.5 -16t-67 -45t-44 -68.5t-15.5 -87.5t15.5 -88t44 -68.5
t67 -44.5t85.5 -16q45 0 84 16t67.5 44.5t44.5 68.5t16 88t-16 87.5t-44.5 68.5t-67.5 45t-84 16z" />
    <glyph glyph-name="P" unicode="P" horiz-adv-x="594" 
d="M325 660q52 0 95.5 -15t75 -43t49 -67.5t17.5 -87.5t-17.5 -87t-49 -67.5t-75 -44t-95.5 -15.5h-114v-233h-135v660h249zM211 541v-190h113q48 0 74 26.5t26 69.5q0 42 -26 68t-74 26h-113z" />
    <glyph glyph-name="Q" unicode="Q" horiz-adv-x="778" 
d="M388 672q73 0 137 -26t111.5 -72t75 -108.5t27.5 -135.5q0 -83 -34.5 -151t-94.5 -115q67 -86 151.5 -128t203.5 -42q17 0 41 1t50 3v-106q-23 -6 -52.5 -9.5t-64.5 -3.5q-133 0 -246 55.5t-194 170.5q-54 -17 -111 -17q-73 0 -137 26t-111 72t-74.5 108.5t-27.5 135.5
t27.5 135.5t75 108.5t111 72t136.5 26zM389 547q-47 0 -85.5 -16t-67 -45t-44 -68.5t-15.5 -87.5t16 -88t44 -68.5t67 -44.5t85 -16q45 0 84 16t67.5 44.5t44.5 68.5t16 88t-16 87.5t-44.5 68.5t-67.5 45t-84 16z" />
    <glyph glyph-name="R" unicode="R" horiz-adv-x="640" 
d="M325 660q52 0 95.5 -15t75 -43t49 -67.5t17.5 -87.5q0 -65 -31 -113.5t-85 -74.5l186 -259h-152l-171 233h-98v-233h-135v660h249zM211 541v-189h113q48 0 74 26t26 69q0 42 -26 68t-74 26h-113z" />
    <glyph glyph-name="S" unicode="S" horiz-adv-x="559" 
d="M282 672q79 0 134.5 -35.5t84.5 -89.5l-92 -71q-24 36 -54.5 56t-71.5 20q-34 0 -58 -15.5t-24 -48.5q0 -29 20 -44t57 -32l75 -33q78 -35 120.5 -78.5t42.5 -114.5q0 -46 -18 -83t-49 -62.5t-73 -39t-91 -13.5q-87 0 -152.5 40t-102.5 106l93 70q13 -19 29 -36
t35.5 -30.5t43.5 -21.5t54 -8q44 0 68.5 19t24.5 54q0 32 -22 48t-62 34l-70 32q-35 16 -64.5 34.5t-50.5 41.5t-33 51t-12 63q0 43 17 77.5t46 59t69 37.5t86 13z" />
    <glyph glyph-name="T" unicode="T" horiz-adv-x="585" 
d="M572 538h-212v-538h-135v538h-211v122h558v-122z" />
    <glyph glyph-name="U" unicode="U" horiz-adv-x="700" 
d="M630 273q0 -66 -21.5 -119t-59 -90t-88.5 -56.5t-111 -19.5t-111.5 19.5t-89 56.5t-58.5 90t-21 119v387h135v-397q0 -37 11 -65t30.5 -47t46 -28.5t57.5 -9.5t57.5 9.5t46 28.5t30.5 47t11 65v397h135v-387z" />
    <glyph glyph-name="V" unicode="V" horiz-adv-x="661" 
d="M352 -12h-44l-295 672h152l165 -401l165 401h152z" />
    <glyph glyph-name="W" unicode="W" horiz-adv-x="1035" 
d="M713 271l147 389h150l-264 -672h-44l-185 413l-184 -413h-44l-264 672h150l147 -389l173 401h45z" />
    <glyph glyph-name="X" unicode="X" horiz-adv-x="614" 
d="M383 335l217 -335h-153l-141 219l-140 -219h-153l219 335l-206 325h153l127 -209l127 209h153z" />
    <glyph glyph-name="Y" unicode="Y" horiz-adv-x="624" 
d="M380 260v-260h-135v258l-228 402h150l145 -262l146 262h149z" />
    <glyph glyph-name="Z" unicode="Z" horiz-adv-x="588" 
d="M559 624l-332 -502h333v-122h-540v36l331 502h-288v122h496v-36z" />
    <glyph glyph-name="bracketleft" unicode="[" horiz-adv-x="357" 
d="M320 621h-115v-642h115v-109h-230v860h230v-109z" />
    <glyph glyph-name="backslash" unicode="\" horiz-adv-x="672" 
d="M146 780l523 -901h-143l-523 901h143z" />
    <glyph glyph-name="bracketright" unicode="]" horiz-adv-x="357" 
d="M268 -130h-230v109h114v642h-114v109h230v-860z" />
    <glyph glyph-name="asciicircum" unicode="^" horiz-adv-x="536" 
d="M486 276h-129l-90 185l-89 -185h-129l196 394h45z" />
    <glyph glyph-name="underscore" unicode="_" horiz-adv-x="502" 
d="M467 -171h-432v106h432v-106z" />
    <glyph glyph-name="grave" unicode="`" horiz-adv-x="295" 
d="M265 571h-98l-137 185v24h162z" />
    <glyph glyph-name="a" unicode="a" horiz-adv-x="545" 
d="M270 506q47 0 86 -13.5t67 -40t43.5 -66t15.5 -92.5v-294h-123v48q-26 -28 -64.5 -44t-87.5 -16q-40 0 -72 11.5t-54 31t-33.5 46.5t-11.5 59q0 68 50.5 106t137.5 38h124v22q0 41 -23 64t-70 23q-39 0 -69.5 -18t-61.5 -50l-69 83q84 102 215 102zM243 87q44 0 74.5 27
t30.5 71v6h-106q-69 0 -69 -50q0 -26 19.5 -40t50.5 -14z" />
    <glyph glyph-name="b" unicode="b" horiz-adv-x="629" 
d="M202 447q53 59 148 59q52 0 96 -19.5t76 -54t50 -82t18 -103.5t-18 -103.5t-49.5 -82t-76 -54t-96.5 -19.5q-51 0 -92 18.5t-67 53.5v-60h-124v750h135v-303zM326 384q-24 0 -46.5 -8t-40.5 -25t-28.5 -43t-10.5 -61q0 -36 11 -61.5t28.5 -42t40 -24.5t46.5 -8
q26 0 49 9.5t40.5 27.5t27.5 43t10 57q0 31 -10 56.5t-27.5 43t-40.5 27t-49 9.5z" />
    <glyph glyph-name="c" unicode="c" horiz-adv-x="552" 
d="M305 506q74 0 128.5 -33t86.5 -89l-94 -73q-22 32 -50 52t-70 20q-29 0 -52.5 -10.5t-40.5 -28.5t-26.5 -42.5t-9.5 -53.5t9.5 -54t26.5 -43t40.5 -28.5t52.5 -10.5q42 0 70 20t49 51l94 -72q-31 -56 -85.5 -89.5t-128.5 -33.5q-56 0 -104.5 20t-84.5 55t-56.5 82.5
t-20.5 102.5t20.5 102t56.5 81.5t84.5 54.5t104.5 20z" />
    <glyph glyph-name="d" unicode="d" horiz-adv-x="629" 
d="M562 0h-124v60q-26 -35 -66.5 -53.5t-92.5 -18.5q-53 0 -97 19.5t-75.5 54t-49.5 82t-18 103.5t18 103.5t50 82t76 54t96 19.5q47 0 85 -16t64 -45v305h134v-750zM303 384q-26 0 -49 -9.5t-40.5 -27t-27.5 -43t-10 -56.5q0 -32 10 -57t27 -43t40.5 -27.5t49.5 -9.5
q23 0 45.5 8t40.5 24.5t29 42t11 61.5q0 35 -11 61t-28.5 43t-40 25t-46.5 8z" />
    <glyph glyph-name="e" unicode="e" horiz-adv-x="569" 
d="M299 506q52 0 95 -18t73.5 -49t47 -73t16.5 -90q0 -21 -3 -41t-6 -33h-348q13 -48 50 -73t91 -25q40 0 73.5 13.5t64.5 36.5l55 -92q-42 -35 -91 -54.5t-106 -19.5q-59 0 -109 20t-86 55t-56.5 82t-20.5 102t20 102t55 82t82.5 55t102.5 20zM294 397q-44 0 -76 -26.5
t-44 -73.5h227q-2 48 -33 74t-74 26z" />
    <glyph glyph-name="f" unicode="f" horiz-adv-x="342" 
d="M334 381h-109v-381h-135v381h-70v114h70v81q0 95 52 140.5t139 45.5q23 0 41.5 -3t32.5 -8v-113q-24 3 -41 3q-45 0 -67 -17t-22 -60v-69h109v-114z" />
    <glyph glyph-name="g" unicode="g" horiz-adv-x="631" 
d="M279 506q54 0 94.5 -19t66.5 -54v62h124v-440q0 -63 -19 -109t-52.5 -77t-80.5 -46t-103 -15q-81 0 -141.5 27t-102.5 65l71 94q37 -29 75 -46.5t86 -17.5q57 0 95 28.5t38 88.5v28q-27 -30 -65.5 -45t-85.5 -15q-51 0 -95 18t-75.5 50t-49.5 77.5t-18 100.5q0 56 18 101
t50 77t75.5 49.5t94.5 17.5zM305 391q-26 0 -49.5 -8.5t-40.5 -25t-27 -40.5t-10 -55t10 -55.5t27.5 -42t40.5 -26.5t49 -9q24 0 46.5 8t40 24.5t28.5 42t11 59.5t-11 58.5t-29 40t-40.5 22.5t-45.5 7z" />
    <glyph glyph-name="h" unicode="h" horiz-adv-x="585" 
d="M202 453q25 25 59 39t77 14q42 0 76 -14.5t58 -40.5t37 -62.5t13 -81.5v-307h-134v288q0 44 -25 70t-67 26t-68 -26.5t-26 -69.5v-288h-135v750h135v-297z" />
    <glyph glyph-name="i" unicode="i" horiz-adv-x="269" 
d="M202 0h-135v495h135v-495zM135 759q35 0 60.5 -24t25.5 -60q0 -35 -25.5 -59t-60.5 -24q-36 0 -61.5 24t-25.5 59q0 36 25.5 60t61.5 24z" />
    <glyph glyph-name="j" unicode="j" horiz-adv-x="269" 
d="M202 -6q0 -48 -13.5 -83t-38.5 -58t-60 -34t-78 -11q-24 0 -42.5 3t-32.5 8v113q12 -2 21 -2.5t20 -0.5q45 0 67 17.5t22 59.5v489h135v-501zM135 759q35 0 60.5 -24t25.5 -60q0 -35 -25.5 -59t-60.5 -24q-36 0 -61.5 24t-25.5 59q0 36 25.5 60t61.5 24z" />
    <glyph glyph-name="k" unicode="k" 
d="M202 283l178 212h160l-186 -220l201 -275h-154l-199 273v-273h-135v750h135v-467z" />
    <glyph glyph-name="l" unicode="l" horiz-adv-x="269" 
d="M202 0h-135v750h135v-750z" />
    <glyph glyph-name="m" unicode="m" horiz-adv-x="892" 
d="M643 506q44 0 79 -14.5t59 -40.5t36.5 -62.5t12.5 -81.5v-307h-135v288q0 45 -24 70.5t-64 25.5q-41 0 -66 -25.5t-25 -67.5v-291h-135v288q0 45 -24 70.5t-65 25.5t-65.5 -25.5t-24.5 -70.5v-288h-135v495h124v-44q25 26 60 40.5t80 14.5q50 0 86.5 -18.5t59.5 -52.5
q29 32 71 51.5t95 19.5z" />
    <glyph glyph-name="n" unicode="n" horiz-adv-x="585" 
d="M335 506q43 0 78 -14.5t59 -40.5t37 -62.5t13 -81.5v-307h-134v289q0 43 -25 69.5t-67 26.5t-68 -26.5t-26 -69.5v-289h-135v495h124v-46q26 26 62 41.5t82 15.5z" />
    <glyph glyph-name="o" unicode="o" horiz-adv-x="608" 
d="M304 506q55 0 103.5 -20t84.5 -54.5t57 -81.5t21 -102t-21 -102.5t-57 -82t-84.5 -54.5t-103.5 -20t-103.5 20t-84.5 54.5t-56.5 82t-20.5 102.5t20.5 102t56.5 81.5t84 54.5t104 20zM304 383q-57 0 -92.5 -38.5t-35.5 -97.5t35.5 -96.5t92.5 -37.5q27 0 50.5 10t40.5 28
t27 42.5t10 53.5t-10 54t-27 43t-40.5 28.5t-50.5 10.5z" />
    <glyph glyph-name="p" unicode="p" horiz-adv-x="629" 
d="M350 506q52 0 96.5 -19.5t76 -54t49.5 -81.5t18 -103t-18 -103.5t-50 -82.5t-76 -54.5t-96 -19.5q-94 0 -148 59v-227h-135v675h124v-61q26 35 66.5 53.5t92.5 18.5zM326 384q-24 0 -46.5 -8t-40 -24.5t-28.5 -42t-11 -61.5q0 -35 10.5 -61t28.5 -43t40.5 -25t46.5 -8
q26 0 49 9.5t40.5 27t27.5 42.5t10 57q0 31 -10 56.5t-27.5 43.5t-40.5 27.5t-49 9.5z" />
    <glyph glyph-name="q" unicode="q" horiz-adv-x="629" 
d="M279 506q52 0 92.5 -18.5t66.5 -53.5v61h124v-675h-134v228q-26 -29 -64 -44.5t-85 -15.5q-52 0 -96 19.5t-76 54.5t-50 82.5t-18 103.5t18 103t49.5 81.5t75.5 54t97 19.5zM303 384q-26 0 -49.5 -9.5t-40.5 -27.5t-27 -43.5t-10 -56.5q0 -32 10 -57t27.5 -42.5t40.5 -27
t49 -9.5q24 0 46.5 8t40 25t28.5 43t11 61q0 36 -11 61.5t-29 42t-40.5 24.5t-45.5 8z" />
    <glyph glyph-name="r" unicode="r" horiz-adv-x="388" 
d="M327 501q25 0 43 -6v-119h-36q-58 0 -95 -31t-37 -98v-247h-135v495h124v-59q25 32 60 48.5t76 16.5z" />
    <glyph glyph-name="s" unicode="s" horiz-adv-x="455" 
d="M235 507q110 0 178 -75l-68 -83q-24 23 -52.5 35t-58.5 12q-24 0 -38.5 -8.5t-14.5 -26.5q0 -15 12.5 -24t39.5 -20l48 -20q67 -27 103 -60t36 -91q0 -38 -15 -67.5t-41 -49.5t-61.5 -30.5t-75.5 -10.5q-66 0 -119 26t-86 70l68 82q31 -31 65 -49t74 -18q26 0 44.5 10
t18.5 31q0 17 -14 26t-37 19l-53 22q-32 13 -57 27t-42 32t-26.5 40.5t-9.5 51.5q0 36 13.5 63.5t38 46.5t58 29t72.5 10z" />
    <glyph glyph-name="t" unicode="t" horiz-adv-x="416" 
d="M370 381h-141v-195q0 -43 22.5 -60t69.5 -17q12 0 28 1t36 3v-113q-21 -5 -44 -8.5t-49 -3.5q-92 0 -145 45t-53 141v207h-78v114h78v125h135v-125h141v-114z" />
    <glyph glyph-name="u" unicode="u" horiz-adv-x="580" 
d="M517 218q0 -53 -17.5 -95.5t-48 -72.5t-72 -46t-89.5 -16q-49 0 -90.5 16t-72 46t-48 72.5t-17.5 95.5v277h134v-288q0 -44 27 -69.5t67 -25.5q39 0 66 25.5t27 69.5v288h134v-277z" />
    <glyph glyph-name="v" unicode="v" horiz-adv-x="559" 
d="M302 -12h-44l-246 507h143l124 -280l126 280h142z" />
    <glyph glyph-name="w" unicode="w" horiz-adv-x="857" 
d="M588 219l115 276h143l-230 -507h-45l-143 288l-142 -288h-44l-230 507h143l117 -283l135 294h44z" />
    <glyph glyph-name="x" unicode="x" horiz-adv-x="531" 
d="M340 255l183 -255h-151l-107 158l-106 -158h-151l182 256l-170 239h151l94 -142l95 142h151z" />
    <glyph glyph-name="y" unicode="y" horiz-adv-x="559" 
d="M311 -43q-34 -77 -81 -113t-116 -36q-22 0 -45 3.5t-43 8.5v113q18 -2 32 -3t27 -1q32 0 57.5 12.5t44.5 54.5l15 33l-190 466h144l120 -326l129 326h143z" />
    <glyph glyph-name="z" unicode="z" horiz-adv-x="468" 
d="M450 459l-235 -345h237v-114h-435v36l237 345h-214v114h410v-36z" />
    <glyph glyph-name="braceleft" unicode="{" horiz-adv-x="413" 
d="M294 -130q-72 0 -113.5 32.5t-41.5 107.5q0 23 3.5 48.5t7.5 49.5t7.5 45.5t3.5 36.5q0 28 -13.5 40t-40.5 12h-62v115h62q27 0 40.5 12t13.5 40q0 15 -3.5 36.5t-7.5 46t-7.5 49.5t-3.5 48q0 75 41.5 108t113.5 33h80v-109h-57q-29 0 -46 -15.5t-17 -49.5
q0 -16 3.5 -37.5t7.5 -45t7.5 -46.5t3.5 -41q0 -38 -17 -58t-53 -29q36 -9 53 -29t17 -57q0 -18 -3.5 -41t-7.5 -46t-7.5 -45t-3.5 -38q0 -33 17 -49t46 -16h57v-108h-80z" />
    <glyph glyph-name="bar" unicode="|" horiz-adv-x="332" 
d="M222 -121h-112v901h112v-901z" />
    <glyph glyph-name="braceright" unicode="}" horiz-adv-x="413" 
d="M38 -22h57q29 0 46 16t17 49q0 16 -3.5 38t-7.5 45t-7.5 46t-3.5 41q0 37 16.5 57t53.5 29q-36 9 -53 29t-17 58q0 18 3.5 41t7.5 46.5t7.5 45t3.5 37.5q0 34 -17 49.5t-46 15.5h-57v109h81q72 0 113 -33t41 -108q0 -23 -3.5 -48t-7.5 -49.5t-7.5 -46t-3.5 -36.5
q0 -28 13.5 -40t40.5 -12h62v-115h-62q-27 0 -40.5 -12t-13.5 -40q0 -15 3.5 -36.5t7.5 -45.5t7.5 -49.5t3.5 -48.5q0 -75 -41 -107.5t-113 -32.5h-81v108z" />
    <glyph glyph-name="asciitilde" unicode="~" 
d="M158 432q20 0 42 -7t42 -19l88 -54q17 -10 30.5 -16t25.5 -6q16 0 24.5 11t8.5 27v16h103q1 -7 1.5 -16t0.5 -17q0 -32 -9.5 -58.5t-26 -45t-38.5 -29t-47 -10.5q-20 0 -42 7t-42 19l-88 53q-17 11 -30.5 17t-24.5 6q-17 0 -25.5 -11t-8.5 -28v-15h-103q-1 7 -1.5 16
t-0.5 17q0 31 9.5 57.5t26 45.5t38.5 29.5t47 10.5z" />
    <glyph glyph-name="cent" unicode="&#xa2;" horiz-adv-x="557" 
d="M338 582q60 -8 104.5 -40t71.5 -80l-94 -72q-22 31 -50 51t-70 20q-29 0 -52.5 -10.5t-40.5 -28.5t-26.5 -42.5t-9.5 -53.5t9.5 -53.5t26.5 -42.5t40.5 -28.5t52.5 -10.5q42 0 70 19.5t50 51.5l93 -72q-27 -48 -71 -80.5t-104 -40.5v-166h-118v175q-41 12 -75.5 35.5
t-59 56t-38.5 72t-14 84.5t14 84.5t38.5 71.5t59 55.5t75.5 35.5v176h118v-167z" />
    <glyph glyph-name="sterling" unicode="&#xa3;" horiz-adv-x="569" 
d="M430 227h-121v-8q0 -28 -8 -55t-25 -50h249v-114h-483v29q60 44 96 87.5t36 100.5v10h-122v114h79q-17 30 -30 63t-13 75q0 44 17 80t46 61t69 38.5t86 13.5q82 0 143 -45t86 -136l-113 -41q-15 48 -41 72.5t-66 24.5q-43 0 -66.5 -25.5t-23.5 -64.5q0 -32 14 -59.5
t30 -56.5h161v-114z" />
    <glyph glyph-name="currency" unicode="&#xa4;" horiz-adv-x="657" 
d="M325 564q34 0 65.5 -8.5t59.5 -23.5l109 110l81 -81l-107 -106q18 -27 28 -58.5t10 -66.5q0 -71 -39 -127l108 -110l-80 -80l-112 114q-56 -31 -123 -31q-33 0 -63.5 8t-57.5 22l-107 -113l-80 80l102 109q-18 27 -28 59.5t-10 68.5q0 34 10 66t28 60l-102 105l80 81
l106 -109q27 14 57.5 22.5t64.5 8.5zM326 440q-48 0 -77.5 -31t-29.5 -79t29.5 -79t77.5 -31q47 0 77 31t30 79t-30.5 79t-76.5 31z" />
    <glyph glyph-name="yen" unicode="&#xa5;" horiz-adv-x="599" 
d="M548 95h-180v-95h-135v95h-181v109h181v62h-181v109h150l-197 285h150l145 -213l145 213h150l-197 -285h150v-109h-180v-62h180v-109z" />
    <glyph glyph-name="brokenbar" unicode="&#xa6;" horiz-adv-x="332" 
d="M222 480h-112v300h112v-300zM222 -121h-112v300h112v-300z" />
    <glyph glyph-name="section" unicode="&#xa7;" horiz-adv-x="602" 
d="M330 679q66 0 116.5 -28t80.5 -79l-85 -69q-22 29 -48.5 46t-64.5 17q-28 0 -44 -11.5t-16 -36.5q0 -24 18.5 -41.5t57.5 -43.5l91 -62q71 -43 104 -82.5t33 -92.5q0 -55 -32 -91t-84 -53q1 -6 1.5 -12t0.5 -12q0 -36 -13.5 -65.5t-38 -50.5t-59 -33t-76.5 -12
q-66 0 -117 28t-81 79l85 69q22 -29 49 -46t64 -17q28 0 44 11.5t16 36.5q0 24 -18.5 41.5t-56.5 43.5l-91 62q-71 43 -104 82.5t-33 92.5q0 54 32 90.5t84 52.5q-1 6 -1.5 12t-0.5 13q0 36 13 65.5t37.5 50.5t59 33t77.5 12zM271 343q-25 16 -45.5 31.5t-36.5 32.5
q-15 -8 -24.5 -21t-9.5 -32q0 -10 3.5 -19t12.5 -18.5t24 -21.5t38 -27l90 -61q27 -17 49 -34t39 -35q16 9 25.5 22t9.5 32q0 10 -3.5 19t-12 18.5t-23.5 21.5t-38 27z" />
    <glyph glyph-name="dieresis" unicode="&#xa8;" horiz-adv-x="459" 
d="M349 754q33 0 57 -22.5t24 -56.5q0 -31 -24 -54t-57 -23q-15 0 -30 6.5t-26 17t-18 24.5t-7 29q0 34 25 56.5t56 22.5zM111 754q33 0 57 -22.5t24 -56.5q0 -31 -24 -54t-57 -23q-15 0 -30 6.5t-26 17t-18 24.5t-7 29q0 34 25 56.5t56 22.5z" />
    <glyph glyph-name="copyright" unicode="&#xa9;" horiz-adv-x="778" 
d="M388 672q71 0 134.5 -26t111.5 -72t76.5 -108.5t28.5 -135.5t-28.5 -135.5t-76.5 -108.5t-111.5 -72t-134.5 -26t-134.5 26t-111.5 71.5t-76 108t-28 135.5t28 136t76 109t111.5 72t134.5 26zM395 516q48 0 86.5 -21.5t65.5 -57.5l-70 -61q-15 20 -34.5 33t-45.5 13
q-38 0 -62.5 -26t-24.5 -66q0 -39 24.5 -65t62.5 -26q26 0 45.5 12.5t34.5 32.5l70 -61q-27 -35 -65.5 -56.5t-87.5 -21.5q-39 0 -73.5 14t-59.5 38.5t-39.5 58.5t-14.5 74t14.5 74t40 59t59.5 39t74 14zM388 592q-52 0 -99.5 -18.5t-83.5 -52.5t-57.5 -83t-21.5 -109
t21.5 -108.5t58 -82.5t84 -52t98.5 -18t99 18t85 52t59 82.5t22 108.5t-22 109t-59 83t-84.5 52.5t-99.5 18.5z" />
    <glyph glyph-name="guillemotleft" unicode="&#xab;" horiz-adv-x="597" 
d="M310 425l-135 -152l135 -153l-86 -75l-195 209v36l195 210zM567 425l-135 -152l135 -153l-86 -75l-195 209v36l195 210z" />
    <glyph glyph-name="logicalnot" unicode="&#xac;" 
d="M484 103h-126v160h-315v115h441v-275z" />
    <glyph glyph-name="uni00AD" unicode="&#xad;" horiz-adv-x="342" 
d="M297 264h-252v113h252v-113z" />
    <glyph glyph-name="registered" unicode="&#xae;" horiz-adv-x="574" 
d="M287 692q52 0 98.5 -20t80.5 -55t54 -81.5t20 -99.5t-20 -100t-54 -82t-80.5 -55t-98.5 -20q-53 0 -99 20t-80.5 55t-54.5 82t-20 100t20 99.5t54.5 81.5t80.5 55t99 20zM288 629q-40 0 -74 -15t-59.5 -41t-40 -61t-14.5 -76t14.5 -76.5t40 -61.5t59.5 -41t74 -15
q39 0 73.5 14.5t60 40.5t40 61.5t14.5 77.5q0 41 -14.5 76.5t-40 61.5t-60 40.5t-73.5 14.5zM291 561q43 0 71.5 -23t28.5 -65q0 -24 -10.5 -42t-28.5 -29l67 -92h-77l-58 75h-27v-75h-70v251h104zM257 500v-55h34q13 0 21 7.5t8 19.5q0 13 -8 20.5t-21 7.5h-34z" />
    <glyph glyph-name="macron" unicode="&#xaf;" horiz-adv-x="362" 
d="M332 622h-302v106h302v-106z" />
    <glyph glyph-name="degree" unicode="&#xb0;" horiz-adv-x="361" 
d="M181 672q33 0 61.5 -12t49.5 -33t33.5 -49t12.5 -60t-12.5 -60t-33.5 -49t-49.5 -33t-61.5 -12t-61.5 12t-49.5 33t-33.5 49t-12.5 60q0 31 12.5 59t33.5 49t49.5 33.5t61.5 12.5zM181 585q-29 0 -48 -19.5t-19 -48.5q0 -28 19 -47.5t48 -19.5q30 0 48.5 19.5t18.5 47.5
q0 29 -18.5 48.5t-48.5 19.5z" />
    <glyph glyph-name="plusminus" unicode="&#xb1;" 
d="M345 424h161v-109h-161v-141h-128v141h-162v109h162v134h128v-134zM506 0h-451v108h451v-108z" />
    <glyph glyph-name="uni00B2" unicode="&#xb2;" horiz-adv-x="385" 
d="M187 788q32 0 59 -10t47 -28t31.5 -43t11.5 -55q0 -24 -7 -45t-19 -41t-28.5 -39t-35.5 -39l-33 -34h133v-90l-313 -1v21l149 162q27 30 39.5 52.5t12.5 44.5q0 24 -13.5 38.5t-34.5 14.5t-35 -14.5t-14 -40.5q0 -6 0.5 -13t1.5 -16h-99q-2 10 -3 18.5t-1 16.5
q0 26 10.5 51.5t30 45.5t47.5 32t63 12z" />
    <glyph glyph-name="uni00B3" unicode="&#xb3;" horiz-adv-x="360" 
d="M319 753l-85 -125q17 -6 33.5 -17t29.5 -26.5t21 -36.5t8 -46q0 -32 -12.5 -58.5t-34 -46t-51 -30.5t-62.5 -11q-55 0 -95 27t-60 71l69 49q17 -27 36.5 -41t45.5 -14t43.5 14t17.5 40q0 48 -76 48h-48v25l78 115h-133v90h275v-27z" />
    <glyph glyph-name="acute" unicode="&#xb4;" horiz-adv-x="295" 
d="M265 756l-137 -185h-98l72 209h163v-24z" />
    <glyph glyph-name="uni00B5" unicode="&#xb5;" horiz-adv-x="610" 
d="M522 172q0 -61 45 -61h11t17 1v-112q-15 -5 -34.5 -7.5t-38.5 -2.5q-74 0 -106 52q-20 -25 -48.5 -39.5t-63.5 -14.5q-63 0 -102 45v-213h-135v675h135v-285q0 -46 26 -73t66 -27q41 0 67.5 27t26.5 73v285h134v-323z" />
    <glyph glyph-name="paragraph" unicode="&#xb6;" horiz-adv-x="613" 
d="M537 -3q0 -98 -52 -143.5t-146 -45.5q-26 0 -49.5 3.5t-43.5 8.5v115q20 -2 35.5 -3t28.5 -1q47 0 70 17.5t23 62.5v649h134v-663zM338 217h-58q-53 0 -98 16t-78.5 45t-52.5 70t-19 92t19 91.5t52 69t78.5 44t98.5 15.5h58v-443z" />
    <glyph glyph-name="periodcentered" unicode="&#xb7;" horiz-adv-x="270" 
d="M136 413q39 0 65.5 -27t26.5 -66q0 -40 -26.5 -66.5t-65.5 -26.5q-41 0 -67.5 26.5t-26.5 66.5q0 39 26.5 66t67.5 27z" />
    <glyph glyph-name="cedilla" unicode="&#xb8;" horiz-adv-x="289" 
d="M192 44q31 -17 49 -44.5t18 -64.5q0 -26 -10.5 -49.5t-30 -40.5t-48.5 -27t-66 -10q-20 0 -39 2.5t-35 7.5v89q20 -2 34 -2h26q28 0 45 14t17 43q0 17 -4 31t-9 27z" />
    <glyph glyph-name="uni00B9" unicode="&#xb9;" horiz-adv-x="370" 
d="M245 454h86v-90h-289v90h103v236h-94v90h194v-326z" />
    <glyph glyph-name="guillemotright" unicode="&#xbb;" horiz-adv-x="597" 
d="M312 290v-36l-195 -209l-86 75l134 153l-134 152l86 75zM569 290v-36l-195 -209l-86 75l134 153l-134 152l86 75z" />
    <glyph glyph-name="onequarter" unicode="&#xbc;" horiz-adv-x="936" 
d="M245 334h86v-90h-289v90h103v236h-94v90h194v-326zM360 0h-109l380 660h109zM877 147h49v-82h-49v-64h-92v64h-212v26l124 326h103l-104 -270h89v109h92v-109z" />
    <glyph glyph-name="onehalf" unicode="&#xbd;" horiz-adv-x="971" 
d="M245 334h86v-90h-289v90h103v236h-94v90h194v-326zM360 0h-109l380 660h109zM773 425q32 0 59 -10t47 -28t31.5 -43t11.5 -55q0 -24 -7 -45t-19 -41t-28.5 -39t-35.5 -39l-33 -34h133v-90l-313 -1v21l149 162q27 30 39.5 52.5t12.5 44.5q0 24 -13.5 38.5t-34.5 14.5
t-35 -14.5t-14 -40.5q0 -6 0.5 -13t1.5 -16h-99q-2 10 -3 18.5t-1 16.5q0 26 10.5 51.5t30 45.5t47.5 32t63 12z" />
    <glyph glyph-name="threequarters" unicode="&#xbe;" horiz-adv-x="891" 
d="M319 633l-85 -125q17 -6 33.5 -17t29.5 -26.5t21 -36.5t8 -46q0 -32 -12.5 -58.5t-34 -46t-51 -30.5t-62.5 -11q-55 0 -95 27t-60 71l69 49q17 -27 36.5 -41t45.5 -14t43.5 14t17.5 40q0 48 -76 48h-48v25l78 115h-133v90h275v-27zM315 0h-109l380 660h109zM832 147h49
v-82h-49v-64h-92v64h-212v26l124 326h103l-104 -270h89v109h92v-109z" />
    <glyph glyph-name="multiply" unicode="&#xd7;" 
d="M507 470l-147 -147l147 -147l-80 -81l-148 147l-147 -147l-80 81l147 147l-147 147l80 80l148 -147l147 147z" />
    <glyph glyph-name="divide" unicode="&#xf7;" 
d="M278 584q34 0 58 -22t24 -54q0 -33 -24 -55.5t-58 -22.5t-57.5 22.5t-23.5 55.5q0 32 23.5 54t57.5 22zM278 209q34 0 58 -22t24 -55q0 -32 -24 -54.5t-58 -22.5t-57.5 22.5t-23.5 54.5q0 33 23.5 55t57.5 22zM515 263h-471v115h471v-115z" />
    <glyph glyph-name="florin" unicode="&#x192;" horiz-adv-x="451" 
d="M401 291h-105l-29 -239q-24 -185 -197 -185q-22 0 -40 2.5t-32 7.5l-1 113q12 -1 24.5 -1.5t21.5 -0.5q42 0 63.5 17.5t27.5 58.5l27 227h-73v115h87l10 80q11 94 60.5 140t135.5 46q23 0 41 -3t32 -8v-112q-12 1 -24.5 1.5t-21.5 0.5q-42 0 -63.5 -17.5t-26.5 -59.5
l-8 -68h91v-115z" />
    <glyph glyph-name="dotlessj" unicode="&#x237;" horiz-adv-x="269" 
d="M202 -6q0 -48 -13.5 -83t-38.5 -58t-60 -34t-78 -11q-24 0 -42.5 3t-32.5 8v113q12 -2 21 -2.5t20 -0.5q45 0 67 17.5t22 59.5v489h135v-501z" />
    <glyph glyph-name="breve" unicode="&#x2d8;" horiz-adv-x="405" 
d="M375 748q0 -38 -12.5 -69.5t-35.5 -54.5t-54.5 -36t-69.5 -13t-70 13t-55 36t-35.5 54.5t-12.5 69.5h106q0 -34 19 -53.5t48 -19.5t47.5 19.5t18.5 53.5h106z" />
    <glyph glyph-name="dotaccent" unicode="&#x2d9;" horiz-adv-x="233" 
d="M117 759q35 0 60.5 -24t25.5 -60q0 -35 -25.5 -59t-60.5 -24q-36 0 -61.5 24t-25.5 59q0 36 25.5 60t61.5 24z" />
    <glyph glyph-name="hungarumlaut" unicode="&#x2dd;" horiz-adv-x="469" 
d="M438 756l-121 -185h-91l72 209h140v-24zM242 756l-121 -185h-91l72 209h140v-24z" />
    <glyph glyph-name="uni0326" unicode="&#x326;" horiz-adv-x="188" 
d="M133 -220h-103l4 174h124z" />
    <glyph glyph-name="uni0400" unicode="&#x400;" horiz-adv-x="573" 
d="M520 538h-309v-134h228v-115h-228v-167h321v-122h-456v660h444v-122zM344 724h-98l-137 162v24h162z" />
    <glyph glyph-name="uni0401" unicode="&#x401;" horiz-adv-x="573" 
d="M520 538h-309v-134h228v-115h-228v-167h321v-122h-456v660h444v-122zM424 892q33 0 57 -22.5t24 -56.5q0 -31 -24 -54t-57 -23q-15 0 -30 6.5t-26 17t-18 24.5t-7 29q0 34 25 56.5t56 22.5zM166 892q33 0 57 -22t24 -56q0 -31 -24 -54t-57 -23q-15 0 -30 6.5t-26 17
t-18 24.5t-7 29q0 34 25 56t56 22z" />
    <glyph glyph-name="uni0402" unicode="&#x402;" horiz-adv-x="768" 
d="M572 538h-212v-123h125q54 0 99 -15t77.5 -43t50.5 -67.5t18 -88.5q0 -53 -20 -91t-53.5 -63.5t-77 -39.5t-89.5 -19l-26 120q25 4 48 10t41 17.5t28.5 28.5t10.5 42q0 39 -27 64.5t-78 25.5h-127v-296h-135v538h-211v122h558v-122z" />
    <glyph glyph-name="uni0403" unicode="&#x403;" horiz-adv-x="525" 
d="M501 538h-290v-538h-135v660h425v-122zM462 886l-137 -162h-98l72 186h163v-24z" />
    <glyph glyph-name="uni0404" unicode="&#x404;" horiz-adv-x="720" 
d="M389 672q97 0 172.5 -44t119.5 -120l-103 -72q-33 53 -79.5 82t-109.5 29q-73 0 -126.5 -38.5t-74.5 -104.5h286v-115h-294q6 -40 24.5 -72.5t45.5 -55.5t62.5 -35.5t76.5 -12.5q63 0 109.5 29t79.5 82l103 -72q-44 -76 -119.5 -120t-172.5 -44q-74 0 -138 26t-111 72
t-74.5 108.5t-27.5 135.5t27.5 135.5t74.5 108.5t111 72t138 26z" />
    <glyph glyph-name="uni0405" unicode="&#x405;" horiz-adv-x="559" 
d="M282 672q79 0 134.5 -35.5t84.5 -89.5l-92 -71q-24 36 -54.5 56t-71.5 20q-34 0 -58 -15.5t-24 -48.5q0 -29 20 -44t57 -32l75 -33q78 -35 120.5 -78.5t42.5 -114.5q0 -46 -18 -83t-49 -62.5t-73 -39t-91 -13.5q-87 0 -152.5 40t-102.5 106l93 70q13 -19 29 -36
t35.5 -30.5t43.5 -21.5t54 -8q44 0 68.5 19t24.5 54q0 32 -22 48t-62 34l-70 32q-35 16 -64.5 34.5t-50.5 41.5t-33 51t-12 63q0 43 17 77.5t46 59t69 37.5t86 13z" />
    <glyph glyph-name="uni0406" unicode="&#x406;" horiz-adv-x="286" 
d="M211 0h-135v660h135v-660z" />
    <glyph glyph-name="uni0407" unicode="&#x407;" horiz-adv-x="286" 
d="M211 0h-135v660h135v-660zM273 892q33 0 57 -22.5t24 -56.5q0 -31 -24 -54t-57 -23q-15 0 -30 6.5t-26 17t-18 24.5t-7 29q0 34 25 56.5t56 22.5zM15 892q33 0 57 -22t24 -56q0 -31 -24 -54t-57 -23q-15 0 -30 6.5t-26 17t-18 24.5t-7 29q0 34 25 56t56 22z" />
    <glyph glyph-name="uni0408" unicode="&#x408;" horiz-adv-x="389" 
d="M313 176q0 -97 -53 -142.5t-148 -45.5q-26 0 -50 3.5t-45 8.5v115q20 -2 36.5 -3t29.5 -1q48 0 71.5 17t23.5 62v470h135v-484z" />
    <glyph glyph-name="uni0409" unicode="&#x409;" horiz-adv-x="1001" 
d="M586 433h135q53 0 97.5 -16t76.5 -44.5t49.5 -68t17.5 -87.5q0 -49 -17.5 -89t-49.5 -68.5t-76.5 -44t-97.5 -15.5h-270v538h-165q0 -159 -21 -262t-59 -164t-90.5 -87t-115.5 -30v127q40 5 69.5 30t49 74.5t29 126.5t9.5 185v122h429v-227zM586 315v-196h135q49 0 76 27
t27 70q0 44 -27 71.5t-76 27.5h-135z" />
    <glyph glyph-name="uni040A" unicode="&#x40a;" horiz-adv-x="1040" 
d="M626 430h135q53 0 97 -15.5t76 -44t50 -68t18 -87.5q0 -49 -18 -88.5t-50 -67.5t-76 -43.5t-97 -15.5h-270v287h-280v-287h-135v660h135v-252h280v252h135v-230zM625 311v-192h135q50 0 76.5 26.5t26.5 68.5q0 43 -27 70t-76 27h-135z" />
    <glyph glyph-name="uni040B" unicode="&#x40b;" horiz-adv-x="798" 
d="M471 414q62 0 110 -20t81 -55.5t50 -85.5t17 -110v-143h-135v138q0 75 -32 113.5t-104 38.5q-23 0 -48.5 -4t-49.5 -11v-275h-135v538h-211v122h558v-122h-212v-140q26 7 54 11.5t57 4.5z" />
    <glyph glyph-name="uni040C" unicode="&#x40c;" horiz-adv-x="670" 
d="M502 886l-137 -162h-98l72 186h163v-24zM211 354l252 306h161l-254 -311l287 -349h-163l-283 344v-344h-135v660h135v-306z" />
    <glyph glyph-name="uni040D" unicode="&#x40d;" horiz-adv-x="723" 
d="M648 0h-135v404l-392 -416h-45v672h135v-402l393 414h44v-672zM399 724h-98l-137 162v24h162z" />
    <glyph glyph-name="uni040E" unicode="&#x40e;" horiz-adv-x="631" 
d="M393 140q-65 -152 -228 -152q-22 0 -45 3.5t-43 8.5v116q36 -3 60 -3q34 0 66 12t52 45l-234 490h156l151 -340l135 340h154zM504 903q0 -38 -12.5 -69.5t-35.5 -54.5t-54.5 -36t-69.5 -13t-70 13t-55 36t-35.5 54.5t-12.5 69.5h106q0 -34 19 -53.5t48 -19.5t47.5 19.5
t18.5 53.5h106z" />
    <glyph glyph-name="uni040F" unicode="&#x40f;" horiz-adv-x="691" 
d="M616 0h-203v-141h-135v141h-202v660h135v-538h270v538h135v-660z" />
    <glyph glyph-name="uni0410" unicode="&#x410;" horiz-adv-x="661" 
d="M647 0h-145l-37 86h-270l-37 -86h-145l295 672h44zM242 197h175l-87 223z" />
    <glyph glyph-name="uni0411" unicode="&#x411;" horiz-adv-x="621" 
d="M510 538h-299v-145h159q48 0 88.5 -13.5t69 -39t44.5 -61.5t16 -80q0 -45 -16 -81.5t-44.5 -62.5t-69 -40.5t-88.5 -14.5h-294v660h434v-122zM211 282v-166h149q45 0 69.5 22t24.5 61q0 38 -24.5 60.5t-69.5 22.5h-149z" />
    <glyph glyph-name="uni0412" unicode="&#x412;" horiz-adv-x="621" 
d="M309 660q46 0 84.5 -13.5t66 -37.5t43 -58t15.5 -75q0 -37 -13 -67t-36 -52q55 -20 86.5 -61.5t31.5 -101.5q0 -43 -16 -78.5t-44.5 -61t-69 -40t-88.5 -14.5h-293v660h233zM207 282v-166h152q45 0 69.5 22t24.5 61q0 38 -24.5 60.5t-69.5 22.5h-152zM207 544v-151h92
q42 0 64 21t22 55q0 35 -22 55t-64 20h-92z" />
    <glyph glyph-name="uni0413" unicode="&#x413;" horiz-adv-x="525" 
d="M501 538h-290v-538h-135v660h425v-122z" />
    <glyph glyph-name="uni0414" unicode="&#x414;" horiz-adv-x="727" 
d="M702 -141h-135v141h-411v-141h-135v263h51q32 26 56.5 62.5t41.5 87.5t26 119.5t9 159.5v109h410v-538h87v-263zM333 538q-2 -152 -30 -252t-82 -164h259v416h-147z" />
    <glyph glyph-name="uni0415" unicode="&#x415;" horiz-adv-x="573" 
d="M520 538h-309v-134h228v-115h-228v-167h321v-122h-456v660h444v-122z" />
    <glyph glyph-name="uni0416" unicode="&#x416;" horiz-adv-x="1015" 
d="M575 354l232 306h161l-246 -311l279 -349h-163l-263 344v-344h-135v345l-264 -345h-163l279 349l-246 311h161l233 -307v307h135v-306z" />
    <glyph glyph-name="uni0417" unicode="&#x417;" horiz-adv-x="588" 
d="M287 672q48 0 89 -14.5t71.5 -40.5t48 -62t17.5 -78q0 -40 -15.5 -73t-44.5 -56q45 -22 71 -60.5t26 -92.5q0 -47 -19.5 -85t-53.5 -65t-80 -42t-99 -15q-91 0 -158 42t-102 111l94 68q64 -96 165 -96q50 0 84.5 23t34.5 66q0 34 -24.5 57t-69.5 23h-130v111h102
q42 0 63.5 22t21.5 54q0 35 -25 56.5t-67 21.5q-44 0 -80 -22.5t-63 -63.5l-95 67q34 65 96.5 104.5t141.5 39.5z" />
    <glyph glyph-name="uni0418" unicode="&#x418;" horiz-adv-x="723" 
d="M648 0h-135v404l-392 -416h-45v672h135v-402l393 414h44v-672z" />
    <glyph glyph-name="uni0419" unicode="&#x419;" horiz-adv-x="723" 
d="M648 0h-135v404l-392 -416h-45v672h135v-402l393 414h44v-672zM522 903q0 -38 -12.5 -69.5t-35.5 -54.5t-54.5 -36t-69.5 -13t-70 13t-55 36t-35.5 54.5t-12.5 69.5h106q0 -34 19 -53.5t48 -19.5t47.5 19.5t18.5 53.5h106z" />
    <glyph glyph-name="uni041A" unicode="&#x41a;" horiz-adv-x="670" 
d="M211 354l252 306h161l-254 -311l287 -349h-163l-283 344v-344h-135v660h135v-306z" />
    <glyph glyph-name="uni041B" unicode="&#x41b;" horiz-adv-x="662" 
d="M586 0h-135v538h-165q-2 -159 -23 -262t-58.5 -164t-89.5 -87t-115 -30v127q40 5 69.5 30t49 74.5t29 126.5t9.5 185v122h429v-660z" />
    <glyph glyph-name="uni041C" unicode="&#x41c;" horiz-adv-x="798" 
d="M723 0h-135v353l-167 -209h-44l-166 209v-353h-135v672h45l278 -358l280 358h44v-672z" />
    <glyph glyph-name="uni041D" unicode="&#x41d;" horiz-adv-x="713" 
d="M638 0h-135v285h-292v-285h-135v660h135v-253h292v253h135v-660z" />
    <glyph glyph-name="uni041E" unicode="&#x41e;" horiz-adv-x="778" 
d="M388 672q73 0 137 -26t111.5 -72t75 -108.5t27.5 -135.5t-27.5 -135.5t-75 -108.5t-111.5 -72t-137 -26t-137 26t-111 72t-74.5 108.5t-27.5 135.5t27.5 135.5t75 108.5t111 72t136.5 26zM389 547q-47 0 -85.5 -16t-67 -45t-44 -68.5t-15.5 -87.5t15.5 -88t44 -68.5
t67 -44.5t85.5 -16q45 0 84 16t67.5 44.5t44.5 68.5t16 88t-16 87.5t-44.5 68.5t-67.5 45t-84 16z" />
    <glyph glyph-name="uni041F" unicode="&#x41f;" horiz-adv-x="691" 
d="M616 0h-135v538h-270v-538h-135v660h540v-660z" />
    <glyph glyph-name="uni0420" unicode="&#x420;" horiz-adv-x="594" 
d="M325 660q52 0 95.5 -15t75 -43t49 -67.5t17.5 -87.5t-17.5 -87t-49 -67.5t-75 -44t-95.5 -15.5h-114v-233h-135v660h249zM211 541v-190h113q48 0 74 26.5t26 69.5q0 42 -26 68t-74 26h-113z" />
    <glyph glyph-name="uni0421" unicode="&#x421;" horiz-adv-x="720" 
d="M389 672q97 0 172.5 -44t119.5 -120l-103 -72q-33 53 -79.5 82t-109.5 29q-46 0 -84.5 -16t-67 -45t-44.5 -69t-16 -88t16 -87.5t44.5 -68t67 -44.5t84.5 -16q63 0 109.5 29t79.5 82l103 -72q-44 -76 -119.5 -120t-172.5 -44q-74 0 -138 26t-111 72t-74.5 108.5
t-27.5 135.5t27.5 135.5t74.5 108.5t111 72t138 26z" />
    <glyph glyph-name="uni0422" unicode="&#x422;" horiz-adv-x="585" 
d="M572 538h-212v-538h-135v538h-211v122h558v-122z" />
    <glyph glyph-name="uni0423" unicode="&#x423;" horiz-adv-x="631" 
d="M393 140q-65 -152 -228 -152q-22 0 -45 3.5t-43 8.5v116q36 -3 60 -3q34 0 66 12t52 45l-234 490h156l151 -340l135 340h154z" />
    <glyph glyph-name="uni0424" unicode="&#x424;" horiz-adv-x="838" 
d="M486 613q69 -1 126.5 -20t99 -54.5t64.5 -86.5t23 -116q0 -66 -23 -118t-64.5 -88.5t-99 -56t-126.5 -19.5v-86h-135v86q-68 1 -125.5 20.5t-99 55.5t-65 88t-23.5 118q0 65 23.5 116t65 86.5t99 54.5t125.5 20v80h135v-80zM667 332q0 78 -49 121.5t-132 44.5v-328
q83 0 132 42t49 120zM171 332q0 -78 48 -120t132 -42v328q-84 -1 -132 -44.5t-48 -121.5z" />
    <glyph glyph-name="uni0425" unicode="&#x425;" horiz-adv-x="614" 
d="M383 335l217 -335h-153l-141 219l-140 -219h-153l219 335l-206 325h153l127 -209l127 209h153z" />
    <glyph glyph-name="uni0426" unicode="&#x426;" horiz-adv-x="726" 
d="M613 122h88v-263h-135v141h-490v660h135v-538h267v538h135v-538z" />
    <glyph glyph-name="uni0427" unicode="&#x427;" horiz-adv-x="644" 
d="M569 0h-135v223q-26 -8 -55.5 -12t-61.5 -4q-60 0 -111.5 17t-88.5 51t-58 83.5t-21 114.5v187h135v-174q0 -77 41.5 -116t108.5 -39q25 0 54 5.5t57 15.5v308h135v-660z" />
    <glyph glyph-name="uni0428" unicode="&#x428;" horiz-adv-x="1038" 
d="M963 0h-887v660h135v-538h241v538h135v-538h241v538h135v-660z" />
    <glyph glyph-name="uni0429" unicode="&#x429;" horiz-adv-x="1075" 
d="M963 122h87v-263h-135v141h-839v660h135v-538h241v538h135v-538h241v538h135v-538z" />
    <glyph glyph-name="uni042A" unicode="&#x42a;" horiz-adv-x="647" 
d="M232 433h135q53 0 97.5 -16t76.5 -44.5t49.5 -68t17.5 -87.5q0 -49 -17.5 -89t-49.5 -68.5t-76.5 -44t-97.5 -15.5h-270v538h-107v122h242v-227zM232 315v-196h135q49 0 76 27t27 70q0 44 -27 71.5t-76 27.5h-135z" />
    <glyph glyph-name="uni042B" unicode="&#x42b;" horiz-adv-x="912" 
d="M211 433h135q53 0 97.5 -16t76.5 -44.5t50 -68t18 -87.5q0 -49 -18 -89t-50 -68.5t-76.5 -44t-97.5 -15.5h-270v660h135v-227zM211 315v-196h136q49 0 76 27t27 70q0 44 -27 71.5t-76 27.5h-136zM837 0h-135v660h135v-660z" />
    <glyph glyph-name="uni042C" unicode="&#x42c;" horiz-adv-x="626" 
d="M211 433h135q53 0 97.5 -16t76.5 -44.5t50 -68t18 -87.5q0 -49 -18 -89t-50 -68.5t-76.5 -44t-97.5 -15.5h-270v660h135v-227zM211 315v-196h136q49 0 76 27t27 70q0 44 -27 71.5t-76 27.5h-136z" />
    <glyph glyph-name="uni042D" unicode="&#x42d;" horiz-adv-x="720" 
d="M330 672q74 0 138 -26t111.5 -72t75 -108.5t27.5 -135.5t-27.5 -135.5t-74.5 -108.5t-111.5 -72t-137.5 -26q-97 0 -173 44t-119 120l102 72q33 -53 79.5 -82t109.5 -29q41 0 76.5 12.5t63 35.5t46 55.5t24.5 72.5h-294v115h285q-21 66 -74.5 104.5t-126.5 38.5
q-63 0 -109.5 -29t-79.5 -82l-102 72q44 76 119.5 120t171.5 44z" />
    <glyph glyph-name="uni042E" unicode="&#x42e;" horiz-adv-x="1058" 
d="M211 407h123q13 58 43.5 106.5t74.5 84t99 55t118 19.5q72 0 136 -26t112 -72t75.5 -108.5t27.5 -135.5t-28 -135.5t-75.5 -108.5t-111.5 -72t-136 -26q-66 0 -124.5 22t-104 62t-74.5 94t-37 119h-118v-285h-135v660h135v-253zM670 547q-45 0 -83.5 -16t-67 -45
t-44.5 -68.5t-16 -87.5t16 -87.5t44.5 -68.5t67 -45t83.5 -16t83.5 16t67 45t44.5 68.5t16 87.5t-16 87.5t-44.5 68.5t-67 45t-83.5 16z" />
    <glyph glyph-name="uni042F" unicode="&#x42f;" horiz-adv-x="638" 
d="M561 0h-135v203h-97h-20l-134 -203h-151l157 240q-50 30 -78.5 79t-28.5 113q0 51 19 93t52.5 72t80.5 46.5t103 16.5h232v-660zM327 541q-54 0 -84.5 -30.5t-30.5 -78.5t30.5 -79t84.5 -31h99v219h-99z" />
    <glyph glyph-name="uni0430" unicode="&#x430;" horiz-adv-x="545" 
d="M270 506q47 0 86 -13.5t67 -40t43.5 -66t15.5 -92.5v-294h-123v48q-26 -28 -64.5 -44t-87.5 -16q-40 0 -72 11.5t-54 31t-33.5 46.5t-11.5 59q0 68 50.5 106t137.5 38h124v22q0 41 -23 64t-70 23q-39 0 -69.5 -18t-61.5 -50l-69 83q84 102 215 102zM243 87q44 0 74.5 27
t30.5 71v6h-106q-69 0 -69 -50q0 -26 19.5 -40t50.5 -14z" />
    <glyph glyph-name="uni0431" unicode="&#x431;" horiz-adv-x="615" 
d="M533 645l-143 -36q-43 -11 -77.5 -26.5t-60 -38t-40.5 -54t-18 -73.5q26 29 63 47t85 18q49 0 91.5 -19t74 -52t50 -78t18.5 -97q0 -51 -19 -96t-53 -78.5t-82 -53t-105 -19.5q-58 0 -106 20t-83 57.5t-54.5 91.5t-19.5 123v46q0 92 19.5 158.5t57 114t93.5 77.5t129 48
l153 37zM316 359q-26 0 -48.5 -9.5t-39.5 -26t-26.5 -39t-9.5 -48.5q0 -27 9.5 -49.5t26.5 -39t39.5 -26t48.5 -9.5q25 0 47.5 9.5t39.5 26t26.5 39t9.5 49.5q0 26 -9.5 48.5t-26.5 39t-39.5 26t-47.5 9.5z" />
    <glyph glyph-name="uni0432" unicode="&#x432;" horiz-adv-x="555" 
d="M306 495q38 0 70 -9.5t55.5 -27.5t36.5 -43.5t13 -57.5q0 -29 -10.5 -52.5t-29.5 -40.5q35 -17 55 -45t20 -69q0 -33 -13 -60.5t-36.5 -47.5t-55.5 -31t-71 -11h-268v495h234zM201 208v-99h129q29 0 46 14t17 37t-17 35.5t-46 12.5h-129zM201 387v-84h102q54 0 54 43
q0 41 -54 41h-102z" />
    <glyph glyph-name="uni0433" unicode="&#x433;" horiz-adv-x="455" 
d="M440 381h-233v-381h-135v495h368v-114z" />
    <glyph glyph-name="uni0434" unicode="&#x434;" horiz-adv-x="665" 
d="M637 -141h-134v141h-340v-141h-135v255h50q22 19 39 45t29 63.5t18 88t6 118.5v66h379v-381h88v-255zM304 381q-1 -91 -17.5 -156.5t-56.5 -110.5h185v267h-111z" />
    <glyph glyph-name="uni0435" unicode="&#x435;" horiz-adv-x="569" 
d="M299 506q52 0 95 -18t73.5 -49t47 -73t16.5 -90q0 -21 -3 -41t-6 -33h-348q13 -48 50 -73t91 -25q40 0 73.5 13.5t64.5 36.5l55 -92q-42 -35 -91 -54.5t-106 -19.5q-59 0 -109 20t-86 55t-56.5 82t-20.5 102t20 102t55 82t82.5 55t102.5 20zM294 397q-44 0 -76 -26.5
t-44 -73.5h227q-2 48 -33 74t-74 26z" />
    <glyph glyph-name="uni0436" unicode="&#x436;" horiz-adv-x="845" 
d="M355 274v221h135v-221l173 221h159l-181 -227l196 -268h-153l-194 263v-263h-135v263l-194 -263h-153l196 268l-181 227h159z" />
    <glyph glyph-name="uni0437" unicode="&#x437;" horiz-adv-x="509" 
d="M248 -12q-68 0 -123 22.5t-92 70.5l76 80q21 -24 55 -40.5t84 -16.5q42 0 63.5 14t21.5 38q0 22 -18 35t-53 13h-92v100h87q26 0 40.5 11.5t14.5 31.5q0 43 -71 43q-45 0 -77 -14t-51 -36l-77 81q36 44 90 64.5t117 20.5q44 0 81 -9.5t63.5 -28t41.5 -45.5t15 -62
q0 -66 -51 -106q33 -20 52 -50.5t19 -67.5q0 -35 -16.5 -62.5t-45 -47t-68.5 -29.5t-86 -10z" />
    <glyph glyph-name="uni0438" unicode="&#x438;" horiz-adv-x="609" 
d="M537 0h-134v263l-286 -275h-45v507h135v-264l286 275h44v-506z" />
    <glyph glyph-name="uni0439" unicode="&#x439;" horiz-adv-x="609" 
d="M537 0h-134v263l-286 -275h-45v507h135v-264l286 275h44v-506zM481 748q0 -38 -12.5 -69.5t-35.5 -54.5t-54.5 -36t-69.5 -13t-70 13t-55 36t-35.5 54.5t-12.5 69.5h106q0 -34 19 -53.5t48 -19.5t47.5 19.5t18.5 53.5h106z" />
    <glyph glyph-name="uni043A" unicode="&#x43a;" horiz-adv-x="571" 
d="M207 270l186 225h155l-189 -225l204 -270h-154l-202 267v-267h-135v495h135v-225z" />
    <glyph glyph-name="uni043B" unicode="&#x43b;" horiz-adv-x="591" 
d="M519 0h-134v381h-124v-45q0 -95 -19 -159.5t-52.5 -104t-79 -57.5t-98.5 -21v119q30 4 52 20t36 49t20.5 85t6.5 129v99h392v-495z" />
    <glyph glyph-name="uni043C" unicode="&#x43c;" horiz-adv-x="697" 
d="M625 0h-134v238l-120 -135h-45l-119 134v-237h-135v506h45l232 -259l233 259h43v-506z" />
    <glyph glyph-name="uni043D" unicode="&#x43d;" horiz-adv-x="600" 
d="M528 0h-134v199h-187v-199h-135v495h135v-181h187v181h134v-495z" />
    <glyph glyph-name="uni043E" unicode="&#x43e;" horiz-adv-x="608" 
d="M304 506q55 0 103.5 -20t84.5 -54.5t57 -81.5t21 -102t-21 -102.5t-57 -82t-84.5 -54.5t-103.5 -20t-103.5 20t-84.5 54.5t-56.5 82t-20.5 102.5t20.5 102t56.5 81.5t84 54.5t104 20zM304 383q-57 0 -92.5 -38.5t-35.5 -97.5t35.5 -96.5t92.5 -37.5q27 0 50.5 10t40.5 28
t27 42.5t10 53.5t-10 54t-27 43t-40.5 28.5t-50.5 10.5z" />
    <glyph glyph-name="uni043F" unicode="&#x43f;" horiz-adv-x="593" 
d="M521 0h-135v381h-179v-381h-135v495h449v-495z" />
    <glyph glyph-name="uni0440" unicode="&#x440;" horiz-adv-x="634" 
d="M355 506q52 0 96.5 -19.5t76 -54t49.5 -81.5t18 -103t-18 -103.5t-50 -82.5t-76 -54.5t-96 -19.5q-94 0 -148 59v-227h-135v675h124v-61q26 35 66.5 53.5t92.5 18.5zM331 384q-24 0 -46.5 -8t-40 -24.5t-28.5 -42t-11 -61.5q0 -35 10.5 -61t28.5 -43t40.5 -25t46.5 -8
q26 0 49 9.5t40.5 27t27.5 42.5t10 57q0 31 -10 56.5t-27.5 43.5t-40.5 27.5t-49 9.5z" />
    <glyph glyph-name="uni0441" unicode="&#x441;" horiz-adv-x="552" 
d="M305 506q74 0 128.5 -33t86.5 -89l-94 -73q-22 32 -50 52t-70 20q-29 0 -52.5 -10.5t-40.5 -28.5t-26.5 -42.5t-9.5 -53.5t9.5 -54t26.5 -43t40.5 -28.5t52.5 -10.5q42 0 70 20t49 51l94 -72q-31 -56 -85.5 -89.5t-128.5 -33.5q-56 0 -104.5 20t-84.5 55t-56.5 82.5
t-20.5 102.5t20.5 102t56.5 81.5t84.5 54.5t104.5 20z" />
    <glyph glyph-name="uni0442" unicode="&#x442;" horiz-adv-x="469" 
d="M458 382h-157v-382h-134v382h-156v114h447v-114z" />
    <glyph glyph-name="uni0443" unicode="&#x443;" horiz-adv-x="559" 
d="M311 -43q-34 -77 -81 -113t-116 -36q-22 0 -45 3.5t-43 8.5v113q18 -2 32 -3t27 -1q32 0 57.5 12.5t44.5 54.5l15 33l-190 466h144l120 -326l129 326h143z" />
    <glyph glyph-name="uni0444" unicode="&#x444;" horiz-adv-x="786" 
d="M460 506q60 -1 112.5 -18.5t91.5 -50.5t61 -80.5t22 -108.5t-22 -109t-60.5 -81t-91 -51t-113.5 -19v-168h-135v168q-61 1 -113 19t-90.5 51.5t-60.5 81.5t-22 108q0 61 22 108.5t60.5 80.5t91 50.5t112.5 18.5v244h135v-244zM456 391v-288h2q72 0 114.5 37.5t42.5 106.5
t-42.5 106.5t-114.5 37.5h-2zM171 247q0 -69 42.5 -106.5t113.5 -37.5h2v288h-2q-71 0 -113.5 -37.5t-42.5 -106.5z" />
    <glyph glyph-name="uni0445" unicode="&#x445;" horiz-adv-x="531" 
d="M340 255l183 -255h-150l-108 158l-107 -158h-150l182 256l-170 239h150l95 -142l96 142h150z" />
    <glyph glyph-name="uni0446" unicode="&#x446;" horiz-adv-x="624" 
d="M509 114h87v-255h-134v141h-390v495h134v-381h169v381h134v-381z" />
    <glyph glyph-name="uni0447" unicode="&#x447;" horiz-adv-x="566" 
d="M494 0h-135v169q-19 -6 -40.5 -9.5t-45.5 -3.5q-50 0 -92.5 15.5t-74 45t-49.5 73t-18 99.5v106h134v-97q0 -60 30 -89t81 -29q17 0 36 3.5t39 8.5v203h135v-495z" />
    <glyph glyph-name="uni0448" unicode="&#x448;" horiz-adv-x="881" 
d="M808 0h-736v495h134v-381h167v381h134v-381h167v381h134v-495z" />
    <glyph glyph-name="uni0449" unicode="&#x449;" horiz-adv-x="924" 
d="M808 114h88v-255h-135v141h-689v495h134v-381h167v381h134v-381h167v381h134v-381z" />
    <glyph glyph-name="uni044A" unicode="&#x44a;" horiz-adv-x="582" 
d="M236 369h98q44 0 82 -12.5t65.5 -36t43.5 -58t16 -77.5q0 -44 -16 -78.5t-43.5 -58t-65.5 -36t-82 -12.5h-233v381h-101v114h236v-126zM236 254v-140h88q35 0 57.5 17.5t22.5 51.5t-22.5 52.5t-57.5 18.5h-88z" />
    <glyph glyph-name="uni044B" unicode="&#x44b;" horiz-adv-x="807" 
d="M734 0h-134v495h134v-495zM207 369h97q45 0 83 -12.5t65.5 -36t43.5 -58t16 -77.5q0 -44 -16 -78.5t-43.5 -58t-65.5 -36t-83 -12.5h-232v495h135v-126zM207 254v-140h88q35 0 57.5 17.5t22.5 51.5t-22.5 52.5t-57.5 18.5h-88z" />
    <glyph glyph-name="uni044C" unicode="&#x44c;" horiz-adv-x="553" 
d="M207 369h97q45 0 83 -12.5t65.5 -36t43.5 -58t16 -77.5q0 -44 -16 -78.5t-43.5 -58t-65.5 -36t-83 -12.5h-232v495h135v-126zM207 254v-140h88q35 0 57.5 17.5t22.5 51.5t-22.5 52.5t-57.5 18.5h-88z" />
    <glyph glyph-name="uni044D" unicode="&#x44d;" horiz-adv-x="552" 
d="M247 506q56 0 105 -20t85 -54.5t56.5 -81.5t20.5 -102t-20.5 -102.5t-56.5 -82.5t-85 -55t-105 -20q-138 0 -214 123l90 69q23 -32 52.5 -52.5t71.5 -20.5q48 0 81.5 26.5t45.5 68.5l-186 1v95h184q-14 39 -46.5 64t-78.5 25q-43 0 -72.5 -21t-51.5 -51l-90 69
q75 122 214 122z" />
    <glyph glyph-name="uni044E" unicode="&#x44e;" horiz-adv-x="864" 
d="M207 314h101q10 42 33.5 77t56.5 60.5t74 40t87 14.5q55 0 103.5 -20t85 -54.5t57.5 -81.5t21 -102t-21 -102.5t-57.5 -82.5t-85 -55t-103.5 -20q-49 0 -91.5 15.5t-76.5 43.5t-56.5 67t-30.5 85h-97v-199h-135v495h135v-181zM560 383q-28 0 -51.5 -10.5t-40.5 -28.5
t-26.5 -43t-9.5 -54t9.5 -54t27 -43t41 -28t50.5 -10t50.5 10t41 28t27 43t9.5 55q0 29 -9.5 53.5t-27 42.5t-41 28.5t-50.5 10.5z" />
    <glyph glyph-name="uni044F" unicode="&#x44f;" horiz-adv-x="577" 
d="M505 0h-134v126h-97l-107 -126h-150l128 159q-37 23 -58.5 61.5t-21.5 89.5q0 44 16 78.5t43.5 58t65.5 36t83 12.5h232v-495zM283 381q-35 0 -58 -17.5t-23 -51.5t23 -53t58 -19h87v141h-87z" />
    <glyph glyph-name="uni0450" unicode="&#x450;" horiz-adv-x="569" 
d="M299 506q52 0 95 -18t73.5 -49t47 -73t16.5 -90q0 -21 -3 -41t-6 -33h-348q13 -48 50 -73t91 -25q40 0 73.5 13.5t64.5 36.5l55 -92q-42 -35 -91 -54.5t-106 -19.5q-59 0 -109 20t-86 55t-56.5 82t-20.5 102t20 102t55 82t82.5 55t102.5 20zM294 397q-44 0 -76 -26.5
t-44 -73.5h227q-2 48 -33 74t-74 26zM348 571h-98l-137 185v24h162z" />
    <glyph glyph-name="uni0451" unicode="&#x451;" horiz-adv-x="569" 
d="M299 506q52 0 95 -18t73.5 -49t47 -73t16.5 -90q0 -21 -3 -41t-6 -33h-348q13 -48 50 -73t91 -25q40 0 73.5 13.5t64.5 36.5l55 -92q-42 -35 -91 -54.5t-106 -19.5q-59 0 -109 20t-86 55t-56.5 82t-20.5 102t20 102t55 82t82.5 55t102.5 20zM294 397q-44 0 -76 -26.5
t-44 -73.5h227q-2 48 -33 74t-74 26zM417 754q33 0 57 -22.5t24 -56.5q0 -31 -24 -54t-57 -23q-15 0 -30 6.5t-26 17t-18 24.5t-7 29q0 34 25 56.5t56 22.5zM179 754q33 0 57 -22.5t24 -56.5q0 -31 -24 -54t-57 -23q-15 0 -30 6.5t-26 17t-18 24.5t-7 29q0 34 25 56.5
t56 22.5z" />
    <glyph glyph-name="uni0452" unicode="&#x452;" horiz-adv-x="598" 
d="M400 552h-191v-129q25 25 59.5 39.5t77.5 14.5q42 0 76 -14.5t58 -40.5t37 -62.5t13 -81.5v-284q0 -48 -13.5 -83t-38.5 -58t-60 -34t-78 -11q-24 0 -42.5 3t-32.5 8v113q24 -3 41 -3q45 0 67.5 17t22.5 60v253q0 43 -25 69.5t-67 26.5t-68.5 -26.5t-26.5 -69.5v-259
h-134v552h-79v111h79v87h134v-87h191v-111z" />
    <glyph glyph-name="uni0453" unicode="&#x453;" horiz-adv-x="455" 
d="M440 381h-233v-381h-135v495h368v-114zM433 756l-137 -185h-98l72 209h163v-24z" />
    <glyph glyph-name="uni0454" unicode="&#x454;" horiz-adv-x="558" 
d="M306 506q139 0 214 -122l-90 -69q-22 30 -51.5 51t-72.5 21q-47 0 -79.5 -25t-46.5 -64h184v-95l-186 -1q13 -42 46.5 -68.5t81.5 -26.5q42 0 71 20.5t52 52.5l90 -69q-74 -123 -213 -123q-56 0 -105 20t-85 55t-56.5 82.5t-20.5 102.5t20.5 102t56.5 81.5t85 54.5
t105 20z" />
    <glyph glyph-name="uni0455" unicode="&#x455;" horiz-adv-x="455" 
d="M235 507q110 0 178 -75l-68 -83q-24 23 -52.5 35t-58.5 12q-24 0 -38.5 -8.5t-14.5 -26.5q0 -15 12.5 -24t39.5 -20l48 -20q67 -27 103 -60t36 -91q0 -38 -15 -67.5t-41 -49.5t-61.5 -30.5t-75.5 -10.5q-66 0 -119 26t-86 70l68 82q31 -31 65 -49t74 -18q26 0 44.5 10
t18.5 31q0 17 -14 26t-37 19l-53 22q-32 13 -57 27t-42 32t-26.5 40.5t-9.5 51.5q0 36 13.5 63.5t38 46.5t58 29t72.5 10z" />
    <glyph glyph-name="uni0456" unicode="&#x456;" horiz-adv-x="278" 
d="M206 0h-135v495h135v-495zM139 759q35 0 60.5 -24t25.5 -60q0 -35 -25.5 -59t-60.5 -24q-36 0 -61.5 24t-25.5 59q0 36 25.5 60t61.5 24z" />
    <glyph glyph-name="uni0457" unicode="&#x457;" horiz-adv-x="278" 
d="M206 0h-134v495h134v-495zM24 749q34 0 57.5 -22.5t23.5 -56.5q0 -31 -23.5 -54t-57.5 -23q-15 0 -30 6.5t-26 17t-18 24.5t-7 29q0 34 25 56.5t56 22.5zM254 749q34 0 57.5 -22.5t23.5 -56.5q0 -31 -23.5 -54t-57.5 -23q-15 0 -29.5 6.5t-26 17t-18 24.5t-6.5 29
q0 34 24.5 56.5t55.5 22.5z" />
    <glyph glyph-name="uni0458" unicode="&#x458;" horiz-adv-x="278" 
d="M206 -6q0 -48 -13.5 -83t-38.5 -58t-60 -34t-78 -11q-24 0 -42.5 3t-32.5 8v113q12 -2 21 -2.5t20 -0.5q45 0 67 17.5t22 59.5v489h135v-501zM139 759q35 0 60.5 -24t25.5 -60q0 -35 -25.5 -59t-60.5 -24q-36 0 -61.5 24t-25.5 59q0 36 25.5 60t61.5 24z" />
    <glyph glyph-name="uni0459" unicode="&#x459;" horiz-adv-x="865" 
d="M519 369h97q45 0 83 -12.5t66 -36t44 -58t16 -77.5q0 -44 -16 -78.5t-44 -58t-66 -36t-83 -12.5h-231v381h-124v-45q0 -95 -19 -159.5t-52.5 -104t-79 -57.5t-98.5 -21v119q30 4 52 20t36 49t20.5 85t6.5 129v99h392v-126zM519 254v-140h88q35 0 57.5 17.5t22.5 51.5
t-22.5 52.5t-57.5 18.5h-88z" />
    <glyph glyph-name="uni045A" unicode="&#x45a;" horiz-adv-x="868" 
d="M522 361h97q45 0 83 -12t65.5 -35t43.5 -56.5t16 -76.5q0 -44 -16 -77.5t-43.5 -56.5t-65.5 -35t-83 -12h-232v204h-180v-204h-135v495h135v-177h180v177h135v-134zM522 247v-133h87q35 0 58 16t23 49t-23 50.5t-58 17.5h-87z" />
    <glyph glyph-name="uni045B" unicode="&#x45b;" horiz-adv-x="598" 
d="M400 552h-191v-129q25 25 59.5 39.5t77.5 14.5q42 0 76 -14.5t58 -40.5t37 -62.5t13 -81.5v-278h-134v259q0 43 -25 69.5t-67 26.5t-68.5 -26.5t-26.5 -69.5v-259h-134v552h-79v111h79v87h134v-87h191v-111z" />
    <glyph glyph-name="uni045C" unicode="&#x45c;" horiz-adv-x="571" 
d="M207 270l186 225h155l-189 -225l204 -270h-154l-202 267v-267h-135v495h135v-225zM481 756l-137 -185h-98l72 209h163v-24z" />
    <glyph glyph-name="uni045D" unicode="&#x45d;" horiz-adv-x="609" 
d="M537 0h-134v263l-286 -275h-45v507h135v-264l286 275h44v-506zM359 571h-98l-137 185v24h162z" />
    <glyph glyph-name="uni045E" unicode="&#x45e;" horiz-adv-x="559" 
d="M311 -43q-34 -77 -81 -113t-116 -36q-22 0 -45 3.5t-43 8.5v113q18 -2 32 -3t27 -1q32 0 57.5 12.5t44.5 54.5l15 33l-190 466h144l120 -326l129 326h143zM451 748q0 -38 -12.5 -69.5t-35.5 -54.5t-54.5 -36t-69.5 -13t-70 13t-55 36t-35.5 54.5t-12.5 69.5h106
q0 -34 19 -53.5t48 -19.5t47.5 19.5t18.5 53.5h106z" />
    <glyph glyph-name="uni045F" unicode="&#x45f;" horiz-adv-x="582" 
d="M510 0h-151v-141h-135v141h-152v495h134v-381h170v381h134v-495z" />
    <glyph glyph-name="uni0462" unicode="&#x462;" horiz-adv-x="626" 
d="M211 594h263v-111h-263v-79h138q55 0 99.5 -14.5t75.5 -41.5t47.5 -64.5t16.5 -83.5t-17 -83t-48.5 -63t-76 -40t-100.5 -14h-270v483h-79v111h79v66h135v-66zM211 286v-167h138q48 0 74.5 23.5t26.5 59.5t-26.5 60t-74.5 24h-138z" />
    <glyph glyph-name="uni0463" unicode="&#x463;" horiz-adv-x="556" 
d="M209 519h199v-111h-199v-60h98q45 0 83 -12t65.5 -34t43.5 -53.5t16 -71.5q0 -41 -16 -73.5t-43.5 -55.5t-65.5 -35.5t-83 -12.5h-232v408h-79v111h79v231h134v-231zM209 240v-126h88q38 0 59.5 16.5t21.5 46.5t-21.5 46.5t-59.5 16.5h-88z" />
    <glyph glyph-name="uni0472" unicode="&#x472;" horiz-adv-x="778" 
d="M388 672q73 0 137 -26t111.5 -72t75 -108.5t27.5 -135.5t-27.5 -135.5t-75 -108.5t-111.5 -72t-137 -26t-137 26t-111 72t-74.5 108.5t-27.5 135.5t27.5 135.5t75 108.5t111 72t136.5 26zM388 113q42 0 78 13t63.5 37t45.5 57.5t24 74.5q-56 -25 -108 -25q-29 0 -54 5.5
t-48.5 12.5t-48 12.5t-52.5 5.5q-51 0 -107 -25q7 -38 25.5 -69t45.5 -53t61.5 -34t74.5 -12zM288 425q29 0 53.5 -5.5t48 -12.5t48 -12.5t53.5 -5.5q48 0 97 20q-23 63 -76 100.5t-124 37.5q-74 0 -127.5 -39.5t-73.5 -105.5q26 11 50.5 17t50.5 6z" />
    <glyph glyph-name="uni0473" unicode="&#x473;" horiz-adv-x="608" 
d="M304 506q55 0 103.5 -20t84.5 -54.5t57 -82t21 -102.5t-21 -102t-57 -82t-84.5 -55t-103.5 -20t-103.5 20t-84.5 55t-56.5 82t-20.5 102t20.5 102.5t56.5 82t84.5 54.5t103.5 20zM303 104q48 0 83 26.5t48 71.5q-15 -5 -29 -8t-29 -3q-21 0 -38.5 4t-34 8.5t-33.5 8.5
t-37 4q-30 0 -61 -12q12 -46 47 -73t84 -27zM233 310q20 0 37.5 -4t34 -9t34 -9t37.5 -4q30 0 57 10q-13 45 -47.5 70.5t-82.5 25.5q-47 0 -80.5 -24.5t-47.5 -66.5q15 5 29 8t29 3z" />
    <glyph glyph-name="uni0474" unicode="&#x474;" horiz-adv-x="680" 
d="M612 672q20 0 37 -3.5t31 -8.5v-116q-21 3 -35 3q-27 0 -44 -15.5t-31 -46.5l-218 -497h-44l-295 672h152l165 -401l120 291q25 61 63 91.5t99 30.5z" />
    <glyph glyph-name="uni0475" unicode="&#x475;" horiz-adv-x="558" 
d="M496 504q16 0 32.5 -2t30.5 -7v-113h-29q-20 0 -34 -9.5t-25 -32.5l-169 -352h-44l-246 507h143l124 -280l82 183q24 53 54.5 79.5t80.5 26.5z" />
    <glyph glyph-name="uni0490" unicode="&#x490;" horiz-adv-x="499" 
d="M475 538h-264v-538h-135v660h264v121h135v-243z" />
    <glyph glyph-name="uni0491" unicode="&#x491;" horiz-adv-x="470" 
d="M455 381h-248v-381h-135v495h248v129h135v-243z" />
    <glyph glyph-name="uni0492" unicode="&#x492;" horiz-adv-x="513" 
d="M438 251h-218v-251h-135v251h-92v122h92v287h404v-122h-269v-165h218v-122z" />
    <glyph glyph-name="uni0493" unicode="&#x493;" horiz-adv-x="480" 
d="M422 161h-213v-161h-134v161h-79v112h79v222h388v-114h-254v-108h213v-112z" />
    <glyph glyph-name="uni0496" unicode="&#x496;" horiz-adv-x="1015" 
d="M575 354l232 306h161l-246 -311l183 -228h99v-262h-135v141h-31l-263 344v-344h-135v345l-264 -345h-163l279 349l-246 311h161l233 -307v307h135v-306z" />
    <glyph glyph-name="uni0497" unicode="&#x497;" horiz-adv-x="876" 
d="M490 274l173 221h159l-181 -227l114 -154h93v-255h-135v141h-29l-194 263v-263h-135v263l-194 -263h-153l196 268l-181 227h159l173 -221v221h135v-221z" />
    <glyph glyph-name="uni0498" unicode="&#x498;" horiz-adv-x="588" 
d="M287 672q48 0 89 -14.5t71.5 -40.5t48 -62t17.5 -78q0 -40 -15.5 -73t-44.5 -56q45 -22 71 -60.5t26 -92.5q0 -47 -19.5 -85t-53.5 -65t-80 -42t-99 -15q-91 0 -158 42t-102 111l94 68q64 -96 165 -96q50 0 84.5 23t34.5 66q0 34 -24.5 57t-69.5 23h-130v111h102
q42 0 63.5 22t21.5 54q0 35 -25 56.5t-67 21.5q-44 0 -80 -22.5t-63 -63.5l-95 67q34 65 96.5 104.5t141.5 39.5zM325 44q31 -17 49 -44.5t18 -64.5q0 -26 -10.5 -49.5t-30 -40.5t-48.5 -27t-66 -10q-20 0 -39 2.5t-35 7.5v89q20 -2 34 -2h26q28 0 45 14t17 43q0 17 -4 31
t-9 27z" />
    <glyph glyph-name="uni0499" unicode="&#x499;" horiz-adv-x="509" 
d="M248 -12q-68 0 -123 22.5t-92 70.5l76 80q21 -24 55 -40.5t84 -16.5q42 0 63.5 14t21.5 38q0 22 -18 35t-53 13h-92v100h87q26 0 40.5 11.5t14.5 31.5q0 43 -71 43q-45 0 -77 -14t-51 -36l-77 81q36 44 90 64.5t117 20.5q44 0 81 -9.5t63.5 -28t41.5 -45.5t15 -62
q0 -66 -51 -106q33 -20 52 -50.5t19 -67.5q0 -35 -16.5 -62.5t-45 -47t-68.5 -29.5t-86 -10zM281 44q31 -17 49 -44.5t18 -64.5q0 -26 -10.5 -49.5t-30 -40.5t-48.5 -27t-66 -10q-20 0 -39 2.5t-35 7.5v89q20 -2 34 -2h26q28 0 45 14t17 43q0 17 -4 31t-9 27z" />
    <glyph glyph-name="uni049A" unicode="&#x49a;" horiz-adv-x="674" 
d="M211 354l252 306h161l-253 -311l187 -227h105v-263h-135v141h-34l-283 344v-344h-135v660h135v-306z" />
    <glyph glyph-name="uni049B" unicode="&#x49b;" horiz-adv-x="598" 
d="M207 272l184 223h155l-190 -224l120 -157h94v-255h-134v141h-29l-200 265v-265h-135v495h135v-223z" />
    <glyph glyph-name="uni04A0" unicode="&#x4a0;" horiz-adv-x="706" 
d="M246 354l252 306h161l-254 -311l287 -349h-163l-283 344v-344h-135v539h-111v121h246v-306z" />
    <glyph glyph-name="uni04A1" unicode="&#x4a1;" horiz-adv-x="600" 
d="M236 270l186 225h155l-189 -225l204 -270h-154l-202 267v-267h-135v381h-101v114h236v-225z" />
    <glyph glyph-name="uni04A2" unicode="&#x4a2;" horiz-adv-x="751" 
d="M638 122h88v-263h-135v141h-88v285h-292v-285h-135v660h135v-253h292v253h135v-538z" />
    <glyph glyph-name="uni04A3" unicode="&#x4a3;" horiz-adv-x="645" 
d="M528 114h89v-255h-141v141h-82v199h-187v-199h-135v495h135v-181h187v181h134v-381z" />
    <glyph glyph-name="uni04AA" unicode="&#x4aa;" horiz-adv-x="720" 
d="M415 44q31 -17 49 -44.5t18 -64.5q0 -26 -10.5 -49.5t-30 -40.5t-48.5 -27t-66 -10q-20 0 -39 2.5t-35 7.5v89q20 -2 34 -2h26q28 0 45 14t17 43q0 17 -4 31t-9 27zM389 672q97 0 172.5 -44t119.5 -120l-103 -72q-33 53 -79.5 82t-109.5 29q-46 0 -84.5 -16t-67 -45
t-44.5 -69t-16 -88t16 -87.5t44.5 -68t67 -44.5t84.5 -16q63 0 109.5 29t79.5 82l103 -72q-44 -76 -119.5 -120t-172.5 -44q-74 0 -138 26t-111 72t-74.5 108.5t-27.5 135.5t27.5 135.5t74.5 108.5t111 72t138 26z" />
    <glyph glyph-name="uni04AB" unicode="&#x4ab;" horiz-adv-x="552" 
d="M324 44q31 -17 49 -44.5t18 -64.5q0 -26 -10.5 -49.5t-30 -40.5t-48.5 -27t-66 -10q-20 0 -39 2.5t-35 7.5v89q20 -2 34 -2h26q28 0 45 14t17 43q0 17 -4 31t-9 27zM305 506q74 0 128.5 -33t86.5 -89l-94 -73q-22 32 -50 52t-70 20q-29 0 -52.5 -10.5t-40.5 -28.5
t-26.5 -42.5t-9.5 -53.5t9.5 -54t26.5 -43t40.5 -28.5t52.5 -10.5q42 0 70 20t49 51l94 -72q-31 -56 -85.5 -89.5t-128.5 -33.5q-56 0 -104.5 20t-84.5 55t-56.5 82.5t-20.5 102.5t20.5 102t56.5 81.5t84.5 54.5t104.5 20z" />
    <glyph glyph-name="uni04AE" unicode="&#x4ae;" horiz-adv-x="624" 
d="M380 260v-260h-135v258l-228 402h150l145 -262l146 262h149z" />
    <glyph glyph-name="uni04AF" unicode="&#x4af;" horiz-adv-x="556" 
d="M346 54v-234h-135v231l-201 444h143l124 -305l126 305h142z" />
    <glyph glyph-name="uni04B0" unicode="&#x4b0;" horiz-adv-x="641" 
d="M569 164h-181v-164h-135v164h-181v121h166l-213 375h150l145 -262l146 262h149l-213 -375h167v-121z" />
    <glyph glyph-name="uni04B1" unicode="&#x4b1;" horiz-adv-x="568" 
d="M501 0h-149v-180h-135v180h-150v111h123l-174 384h143l124 -305l126 305h142l-174 -384h124v-111z" />
    <glyph glyph-name="uni04B2" unicode="&#x4b2;" horiz-adv-x="623" 
d="M383 335l139 -214h90v-262h-135v141h-30l-141 219l-140 -219h-153l219 335l-206 325h153l127 -209l127 209h153z" />
    <glyph glyph-name="uni04B3" unicode="&#x4b3;" horiz-adv-x="564" 
d="M340 255l102 -141h94v-255h-134v141h-29l-108 158l-107 -158h-150l182 256l-170 239h150l95 -142l96 142h150z" />
    <glyph glyph-name="uni04B6" unicode="&#x4b6;" horiz-adv-x="682" 
d="M569 122h88v-263h-135v141h-88v223q-26 -8 -55.5 -12t-61.5 -4q-60 0 -111.5 17t-88.5 51t-58 83.5t-21 114.5v187h135v-174q0 -77 41.5 -116t108.5 -39q25 0 54 5.5t57 15.5v308h135v-538z" />
    <glyph glyph-name="uni04B7" unicode="&#x4b7;" horiz-adv-x="609" 
d="M494 114h87v-255h-135v141h-87v169q-19 -6 -40.5 -9.5t-45.5 -3.5q-50 0 -92.5 15.5t-74 45t-49.5 73t-18 99.5v106h134v-97q0 -60 30 -89t81 -29q17 0 36 3.5t39 8.5v203h135v-381z" />
    <glyph glyph-name="uni04BA" unicode="&#x4ba;" horiz-adv-x="646" 
d="M211 428q25 8 52.5 12t56.5 4q61 0 109 -20t81 -56t50 -86t17 -110v-172h-135v167q0 75 -32 113.5t-104 38.5q-23 0 -47.5 -4t-47.5 -11v-304h-135v660h135v-232z" />
    <glyph glyph-name="uni04BB" unicode="&#x4bb;" horiz-adv-x="596" 
d="M207 453q25 25 59 39t77 14q42 0 76 -14.5t58 -40.5t37 -62.5t13 -81.5v-307h-134v288q0 44 -25 70t-67 26t-68 -26.5t-26 -69.5v-288h-135v750h135v-297z" />
    <glyph glyph-name="uni04C0" unicode="&#x4c0;" horiz-adv-x="286" 
d="M211 0h-135v660h135v-660z" />
    <glyph glyph-name="uni04C1" unicode="&#x4c1;" horiz-adv-x="1015" 
d="M575 354l232 306h161l-246 -311l279 -349h-163l-263 344v-344h-135v345l-264 -345h-163l279 349l-246 311h161l233 -307v307h135v-306zM679 903q0 -38 -12.5 -69.5t-35.5 -54.5t-54.5 -36t-69.5 -13t-70 13t-55 36t-35.5 54.5t-12.5 69.5h106q0 -34 19 -53.5t48 -19.5
t47.5 19.5t18.5 53.5h106z" />
    <glyph glyph-name="uni04C2" unicode="&#x4c2;" horiz-adv-x="845" 
d="M355 274v221h135v-221l173 221h159l-181 -227l196 -268h-153l-194 263v-263h-135v263l-194 -263h-153l196 268l-181 227h159zM592 748q0 -38 -12.5 -69.5t-35.5 -54.5t-54.5 -36t-69.5 -13t-70 13t-55 36t-35.5 54.5t-12.5 69.5h106q0 -34 19 -53.5t48 -19.5t47.5 19.5
t18.5 53.5h106z" />
    <glyph glyph-name="uni04CF" unicode="&#x4cf;" horiz-adv-x="279" 
d="M207 0h-135v750h135v-750z" />
    <glyph glyph-name="uni04D0" unicode="&#x4d0;" horiz-adv-x="661" 
d="M503 903q0 -38 -12.5 -69.5t-35.5 -54.5t-54.5 -36t-69.5 -13t-70 13t-55 36t-35.5 54.5t-12.5 69.5h106q0 -34 19 -53.5t48 -19.5t47.5 19.5t18.5 53.5h106zM647 0h-145l-37 86h-270l-37 -86h-145l295 672h44zM242 197h175l-87 223z" />
    <glyph glyph-name="uni04D1" unicode="&#x4d1;" horiz-adv-x="545" 
d="M443 748q0 -38 -12.5 -69.5t-35.5 -54.5t-54.5 -36t-69.5 -13t-70 13t-55 36t-35.5 54.5t-12.5 69.5h106q0 -34 19 -53.5t48 -19.5t47.5 19.5t18.5 53.5h106zM270 506q47 0 86 -13.5t67 -40t43.5 -66t15.5 -92.5v-294h-123v48q-26 -28 -64.5 -44t-87.5 -16
q-40 0 -72 11.5t-54 31t-33.5 46.5t-11.5 59q0 68 50.5 106t137.5 38h124v22q0 41 -23 64t-70 23q-39 0 -69.5 -18t-61.5 -50l-69 83q84 102 215 102zM243 87q44 0 74.5 27t30.5 71v6h-106q-69 0 -69 -50q0 -26 19.5 -40t50.5 -14z" />
    <glyph glyph-name="uni04D4" unicode="&#x4d4;" horiz-adv-x="852" 
d="M719 289h-179l28 -167h244v-122h-355l-15 86h-247l-45 -86h-145l338 660h457v-122h-301l22 -134h198v-115zM251 197h172l-43 268z" />
    <glyph glyph-name="uni04D5" unicode="&#x4d5;" horiz-adv-x="878" 
d="M270 506q53 0 95 -18.5t68 -54.5q32 34 76.5 53.5t98.5 19.5q52 0 95 -18t73.5 -49t47 -73t16.5 -90q0 -22 -2.5 -43.5t-6.5 -35.5h-346q14 -45 50 -69t88 -24q40 0 73.5 13t63.5 37l56 -92q-42 -36 -91 -55t-105 -19q-69 0 -121.5 26.5t-86.5 72.5q-29 -49 -79 -74
t-115 -25q-45 0 -79.5 11.5t-57 32t-34 47.5t-11.5 58q0 69 50.5 109t137.5 40h124v16q0 41 -23.5 64t-68.5 23q-39 0 -70 -18t-61 -50l-69 83q84 102 214 102zM604 397q-47 0 -80.5 -30t-42.5 -81h229q0 53 -30.5 82t-75.5 29zM243 88q43 0 74 26.5t31 69.5v13h-106
q-69 0 -69 -52q0 -28 19.5 -42.5t50.5 -14.5z" />
    <glyph glyph-name="uni04D6" unicode="&#x4d6;" horiz-adv-x="573" 
d="M459 903q0 -38 -12.5 -69.5t-35.5 -54.5t-54.5 -36t-69.5 -13t-70 13t-55 36t-35.5 54.5t-12.5 69.5h106q0 -34 19 -53.5t48 -19.5t47.5 19.5t18.5 53.5h106zM520 538h-309v-134h228v-115h-228v-167h321v-122h-456v660h444v-122z" />
    <glyph glyph-name="uni04D7" unicode="&#x4d7;" horiz-adv-x="569" 
d="M457 748q0 -38 -12.5 -69.5t-35.5 -54.5t-54.5 -36t-69.5 -13t-70 13t-55 36t-35.5 54.5t-12.5 69.5h106q0 -34 19 -53.5t48 -19.5t47.5 19.5t18.5 53.5h106zM299 506q52 0 95 -18t73.5 -49t47 -73t16.5 -90q0 -21 -3 -41t-6 -33h-348q13 -48 50 -73t91 -25
q40 0 73.5 13.5t64.5 36.5l55 -92q-42 -35 -91 -54.5t-106 -19.5q-59 0 -109 20t-86 55t-56.5 82t-20.5 102t20 102t55 82t82.5 55t102.5 20zM294 397q-44 0 -76 -26.5t-44 -73.5h227q-2 48 -33 74t-74 26z" />
    <glyph glyph-name="uni04D8" unicode="&#x4d8;" horiz-adv-x="733" 
d="M351 672q72 0 134.5 -26.5t109 -72t73 -108t26.5 -134.5t-27.5 -135t-74.5 -109t-110 -72.5t-135 -26.5q-66 0 -122.5 22.5t-98 62.5t-65 95.5t-23.5 121.5q0 26 3 49.5t6 37.5h506q-7 39 -25.5 70.5t-45 54t-60 34.5t-71.5 12q-57 0 -104 -27t-82 -75l-92 79
q47 66 116.5 106.5t161.5 40.5zM349 113q36 0 68 10.5t57.5 30t44 46.5t28.5 61h-379q2 -37 18.5 -65t41.5 -46.5t56.5 -27.5t64.5 -9z" />
    <glyph glyph-name="uni04D9" unicode="&#x4d9;" horiz-adv-x="569" 
d="M271 -12q-52 0 -95 18t-73.5 49t-47 73.5t-16.5 90.5q0 21 3 41t6 33h347q-13 48 -49.5 72.5t-90.5 24.5q-40 0 -73.5 -13t-64.5 -36l-55 92q42 35 91 54t106 19q59 0 109 -20t86 -54.5t56.5 -81.5t20.5 -102t-20 -102.5t-55 -82.5t-82.5 -55t-102.5 -20zM276 98
q43 0 75.5 26t43.5 74h-226q2 -48 33 -74t74 -26z" />
    <glyph glyph-name="uni04E2" unicode="&#x4e2;" horiz-adv-x="723" 
d="M648 0h-135v404l-392 -416h-45v672h135v-402l393 414h44v-672zM511 755h-322v106h322v-106z" />
    <glyph glyph-name="uni04E3" unicode="&#x4e3;" horiz-adv-x="609" 
d="M537 0h-134v263l-286 -275h-45v507h135v-264l286 275h44v-506zM460 622h-302v106h302v-106z" />
    <glyph glyph-name="uni04E6" unicode="&#x4e6;" horiz-adv-x="778" 
d="M518 892q33 0 57 -22.5t24 -56.5q0 -31 -24 -54t-57 -23q-15 0 -30 6.5t-26 17t-18 24.5t-7 29q0 34 25 56.5t56 22.5zM260 892q33 0 57 -22t24 -56q0 -31 -24 -54t-57 -23q-15 0 -30 6.5t-26 17t-18 24.5t-7 29q0 34 25 56t56 22zM388 672q73 0 137 -26t111.5 -72
t75 -108.5t27.5 -135.5t-27.5 -135.5t-75 -108.5t-111.5 -72t-137 -26t-137 26t-111 72t-74.5 108.5t-27.5 135.5t27.5 135.5t75 108.5t111 72t136.5 26zM389 547q-47 0 -85.5 -16t-67 -45t-44 -68.5t-15.5 -87.5t15.5 -88t44 -68.5t67 -44.5t85.5 -16q45 0 84 16t67.5 44.5
t44.5 68.5t16 88t-16 87.5t-44.5 68.5t-67.5 45t-84 16z" />
    <glyph glyph-name="uni04E7" unicode="&#x4e7;" horiz-adv-x="608" 
d="M423 754q33 0 57 -22.5t24 -56.5q0 -31 -24 -54t-57 -23q-15 0 -30 6.5t-26 17t-18 24.5t-7 29q0 34 25 56.5t56 22.5zM185 754q33 0 57 -22.5t24 -56.5q0 -31 -24 -54t-57 -23q-15 0 -30 6.5t-26 17t-18 24.5t-7 29q0 34 25 56.5t56 22.5zM304 506q55 0 103.5 -20
t84.5 -54.5t57 -81.5t21 -102t-21 -102.5t-57 -82t-84.5 -54.5t-103.5 -20t-103.5 20t-84.5 54.5t-56.5 82t-20.5 102.5t20.5 102t56.5 81.5t84 54.5t104 20zM304 383q-57 0 -92.5 -38.5t-35.5 -97.5t35.5 -96.5t92.5 -37.5q27 0 50.5 10t40.5 28t27 42.5t10 53.5t-10 54
t-27 43t-40.5 28.5t-50.5 10.5z" />
    <glyph glyph-name="uni04E8" unicode="&#x4e8;" horiz-adv-x="778" 
d="M388 672q73 0 137 -26t111.5 -72t75 -108.5t27.5 -135.5t-27.5 -135.5t-75 -108.5t-111.5 -72t-137 -26t-137 26t-111 72t-74.5 108.5t-27.5 135.5t27.5 135.5t75 108.5t111 72t136.5 26zM389 113q40 0 75 12.5t62.5 35.5t46 55.5t25.5 72.5h-418q6 -40 24 -72.5
t45.5 -55.5t63 -35.5t76.5 -12.5zM389 547q-74 0 -127.5 -39t-73.5 -104h401q-21 65 -74.5 104t-125.5 39z" />
    <glyph glyph-name="uni04E9" unicode="&#x4e9;" horiz-adv-x="608" 
d="M304 506q55 0 103.5 -20t84.5 -54.5t57 -81.5t21 -102t-21 -102.5t-57 -82t-84.5 -54.5t-103.5 -20t-103.5 20t-84.5 54.5t-56.5 82t-20.5 102.5t20.5 102t56.5 81.5t84 54.5t104 20zM303 105q48 0 83.5 26t48.5 71h-262q12 -45 47 -71t83 -26zM304 391q-48 -1 -82 -26
t-48 -67h259q-14 42 -48 67t-81 26z" />
    <glyph glyph-name="uni04EE" unicode="&#x4ee;" horiz-adv-x="631" 
d="M393 140q-65 -152 -228 -152q-22 0 -45 3.5t-43 8.5v116q36 -3 60 -3q34 0 66 12t52 45l-234 490h156l151 -340l135 340h154zM493 755h-322v106h322v-106z" />
    <glyph glyph-name="uni04EF" unicode="&#x4ef;" horiz-adv-x="559" 
d="M431 622h-302v106h302v-106zM311 -43q-34 -77 -81 -113t-116 -36q-22 0 -45 3.5t-43 8.5v113q18 -2 32 -3t27 -1q32 0 57.5 12.5t44.5 54.5l15 33l-190 466h144l120 -326l129 326h143z" />
    <glyph glyph-name="uni04F2" unicode="&#x4f2;" horiz-adv-x="631" 
d="M393 140q-65 -152 -228 -152q-22 0 -45 3.5t-43 8.5v116q36 -3 60 -3q34 0 66 12t52 45l-234 490h156l151 -340l135 340h154zM601 886l-121 -162h-91l72 186h140v-24zM385 886l-121 -162h-91l72 186h140v-24z" />
    <glyph glyph-name="uni04F3" unicode="&#x4f3;" horiz-adv-x="559" 
d="M541 756l-121 -185h-91l72 209h140v-24zM345 756l-121 -185h-91l72 209h140v-24zM311 -43q-34 -77 -81 -113t-116 -36q-22 0 -45 3.5t-43 8.5v113q18 -2 32 -3t27 -1q32 0 57.5 12.5t44.5 54.5l15 33l-190 466h144l120 -326l129 326h143z" />
    <glyph glyph-name="uni2009" unicode="&#x2009;" horiz-adv-x="148" 
 />
    <glyph glyph-name="endash" unicode="&#x2013;" horiz-adv-x="502" 
d="M467 264h-432v113h432v-113z" />
    <glyph glyph-name="emdash" unicode="&#x2014;" horiz-adv-x="1000" 
d="M950 264h-900v113h900v-113z" />
    <glyph glyph-name="uni2015" unicode="&#x2015;" horiz-adv-x="1000" 
d="M950 264h-900v113h900v-113z" />
    <glyph glyph-name="quoteleft" unicode="&#x2018;" horiz-adv-x="301" 
d="M213 382h-154l56 278h103z" />
    <glyph glyph-name="quoteright" unicode="&#x2019;" horiz-adv-x="301" 
d="M186 382h-103l5 278h154z" />
    <glyph glyph-name="quotesinglbase" unicode="&#x201a;" horiz-adv-x="301" 
d="M186 -155h-103l5 278h154z" />
    <glyph glyph-name="quotedblleft" unicode="&#x201c;" horiz-adv-x="538" 
d="M213 382h-154l56 278h103zM450 382h-154l56 278h103z" />
    <glyph glyph-name="quotedblright" unicode="&#x201d;" horiz-adv-x="538" 
d="M423 382h-103l5 278h154zM186 382h-103l5 278h154z" />
    <glyph glyph-name="quotedblbase" unicode="&#x201e;" horiz-adv-x="538" 
d="M186 -155h-103l5 278h154zM423 -155h-103l5 278h154z" />
    <glyph glyph-name="dagger" unicode="&#x2020;" horiz-adv-x="483" 
d="M309 605h127v-114h-127v-243h-135v243h-127v114h127v145h135v-145z" />
    <glyph glyph-name="daggerdbl" unicode="&#x2021;" horiz-adv-x="483" 
d="M309 635h127v-114h-127v-127h127v-114h-127v-116h-135v116h-127v114h127v127h-127v114h127v115h135v-115z" />
    <glyph glyph-name="bullet" unicode="&#x2022;" horiz-adv-x="427" 
d="M214 430q34 0 63.5 -12t51.5 -33.5t34.5 -50.5t12.5 -63t-12.5 -63t-34.5 -50t-51.5 -33t-63.5 -12q-33 0 -63 12t-52 33t-35 50t-13 63t13 63t35 50.5t52 33.5t63 12z" />
    <glyph glyph-name="ellipsis" unicode="&#x2026;" horiz-adv-x="788" 
d="M395 174q39 0 65.5 -27t26.5 -66q0 -40 -26.5 -66.5t-65.5 -26.5q-41 0 -67.5 26.5t-26.5 66.5q0 39 26.5 66t67.5 27zM136 174q39 0 65.5 -27t26.5 -66q0 -40 -26.5 -66.5t-65.5 -26.5q-41 0 -67.5 26.5t-26.5 66.5q0 39 26.5 66t67.5 27zM654 174q39 0 65.5 -27
t26.5 -66q0 -40 -26.5 -66.5t-65.5 -26.5q-41 0 -67.5 26.5t-26.5 66.5q0 39 26.5 66t67.5 27z" />
    <glyph glyph-name="perthousand" unicode="&#x2030;" horiz-adv-x="1213" 
d="M1000 319q35 0 66 -12.5t54.5 -34.5t37 -52t13.5 -65t-13.5 -65.5t-37 -52.5t-54.5 -34.5t-66 -12.5t-66 12.5t-54 34.5t-36.5 52.5t-13.5 65.5t13.5 65t36.5 52t54 34.5t66 12.5zM1001 226q-30 0 -48.5 -19.5t-18.5 -51.5t18.5 -51.5t48.5 -19.5q28 0 47 19.5t19 51.5
t-19 51.5t-47 19.5zM619 318q35 0 66 -12.5t54.5 -34.5t37 -52t13.5 -65t-13.5 -65.5t-37 -52.5t-54.5 -34.5t-66 -12.5t-66 12.5t-54 34.5t-36.5 52.5t-13.5 65.5t13.5 65t36.5 52t54 34.5t66 12.5zM620 225q-31 0 -49 -19.5t-18 -51.5t18 -51.5t49 -19.5q28 0 46.5 19.5
t18.5 51.5t-18.5 51.5t-46.5 19.5zM213 672q35 0 66 -12.5t54 -34.5t36.5 -52t13.5 -65t-13.5 -65.5t-36.5 -52.5t-54 -34.5t-66 -12.5q-36 0 -67 12.5t-54 34.5t-36.5 52.5t-13.5 65.5t13.5 65t36.5 52t54 34.5t67 12.5zM213 579q-30 0 -48.5 -20t-18.5 -51q0 -32 18.5 -52
t48.5 -20q28 0 47 20t19 52q0 31 -19 51t-47 20zM280 0h-108l379 660h110z" />
    <glyph glyph-name="minute" unicode="&#x2032;" horiz-adv-x="288" 
d="M169 376h-103l36 284h154z" />
    <glyph glyph-name="second" unicode="&#x2033;" horiz-adv-x="525" 
d="M169 376h-103l36 284h154zM406 376h-103l36 284h154z" />
    <glyph glyph-name="guilsinglleft" unicode="&#x2039;" horiz-adv-x="340" 
d="M310 425l-135 -152l135 -153l-86 -75l-195 209v36l195 210z" />
    <glyph glyph-name="guilsinglright" unicode="&#x203a;" horiz-adv-x="340" 
d="M312 290v-36l-195 -209l-86 75l134 153l-134 152l86 75z" />
    <glyph glyph-name="fraction" unicode="&#x2044;" horiz-adv-x="251" 
d="M-10 0h-109l380 660h109z" />
    <glyph glyph-name="uni2070" unicode="&#x2070;" horiz-adv-x="421" 
d="M211 788q43 0 74.5 -16.5t52.5 -45t31.5 -67.5t10.5 -84t-10.5 -85t-31.5 -70t-52.5 -47t-74.5 -17t-74.5 17t-52.5 47t-31.5 70t-10.5 85t10.5 84t31.5 67.5t52.5 45t74.5 16.5zM210 696q-66 0 -66 -122q0 -61 16 -93.5t50 -32.5q35 0 51 32.5t16 93.5q0 122 -67 122z
" />
    <glyph glyph-name="uni2074" unicode="&#x2074;" horiz-adv-x="375" 
d="M316 510h49v-82h-49v-64h-92v64h-212v26l124 326h103l-104 -270h89v109h92v-109z" />
    <glyph glyph-name="uni2075" unicode="&#x2075;" horiz-adv-x="370" 
d="M311 690h-156v-59q22 5 41 5q26 0 51 -8.5t45 -25t32 -41.5t12 -57q0 -33 -12.5 -60t-34.5 -46.5t-52 -30.5t-64 -11q-56 0 -97 27t-61 71l69 49q18 -27 38 -41t47 -14t46 13.5t19 39.5q0 49 -77 49h-97v230h251v-90z" />
    <glyph glyph-name="uni2076" unicode="&#x2076;" horiz-adv-x="374" 
d="M214 652q24 -2 47 -13t41.5 -29.5t30 -44.5t11.5 -57q0 -33 -13 -61t-35 -48.5t-50.5 -31.5t-59.5 -11t-59 11.5t-49.5 31.5t-34.5 48.5t-13 62.5q0 36 15 65t42 64l103 141h117zM187 568q-24 0 -41 -17t-17 -43t17 -43t41 -17t41 17t17 43t-17 43t-41 17z" />
    <glyph glyph-name="uni2077" unicode="&#x2077;" horiz-adv-x="346" 
d="M329 753l-180 -389h-109l156 326h-163v90h296v-27z" />
    <glyph glyph-name="uni2078" unicode="&#x2078;" horiz-adv-x="388" 
d="M194 788q60 0 100.5 -29.5t40.5 -83.5q0 -32 -15 -55.5t-42 -40.5q35 -15 55 -40t20 -62q0 -29 -12 -51t-33.5 -38t-50.5 -24t-63 -8t-63 8t-50.5 24t-33.5 38t-12 51q0 36 19.5 61.5t54.5 40.5q-26 17 -41 40.5t-15 55.5q0 27 11 48t30 35.5t44.5 22t55.5 7.5zM254 481
q0 21 -16.5 33.5t-44.5 23.5q-28 -11 -44 -23.5t-16 -33.5q0 -19 14.5 -31.5t45.5 -12.5t46 12.5t15 31.5zM194 708q-20 0 -34.5 -10t-14.5 -28q0 -17 13 -28t36 -22q23 11 36.5 22t13.5 28q0 18 -14.5 28t-35.5 10z" />
    <glyph glyph-name="uni2079" unicode="&#x2079;" horiz-adv-x="374" 
d="M187 788q31 0 59.5 -11.5t50 -31.5t34.5 -48.5t13 -62.5q0 -36 -15.5 -65t-41.5 -64l-104 -141h-117l93 128q-24 1 -47 12.5t-41.5 30t-29.5 44.5t-11 57q0 33 13 61t34.5 48.5t50 31.5t59.5 11zM187 696q-24 0 -41 -17t-17 -43t17 -43t41 -17t41 17t17 43t-17 43t-41 17
z" />
    <glyph glyph-name="uni207A" unicode="&#x207a;" horiz-adv-x="427" 
d="M262 616h131v-87h-131v-135h-97v135h-131v87h131v134h97v-134z" />
    <glyph glyph-name="uni207B" unicode="&#x207b;" horiz-adv-x="427" 
d="M393 530h-359v85h359v-85z" />
    <glyph glyph-name="uni207C" unicode="&#x207c;" horiz-adv-x="427" 
d="M42 698h343v-87h-343v87zM42 535h343v-88h-343v88z" />
    <glyph glyph-name="uni207D" unicode="&#x207d;" horiz-adv-x="275" 
d="M256 843q-23 -15 -44 -37.5t-37.5 -55t-26.5 -76.5t-10 -102q0 -59 10 -103t26.5 -76.5t37.5 -54.5t44 -37l-39 -60q-33 17 -63 44t-53 67.5t-36.5 94.5t-13.5 125q0 72 13.5 127t36.5 95.5t53 67t63 41.5z" />
    <glyph glyph-name="uni207E" unicode="&#x207e;" horiz-adv-x="275" 
d="M59 903q33 -15 62.5 -41.5t52.5 -67t36.5 -95.5t13.5 -127t-13.5 -127t-36.5 -95.5t-52.5 -67t-62.5 -41.5l-40 60q23 15 44.5 37t38 54.5t26 76.5t9.5 103q0 58 -9.5 102t-26 76.5t-38 55t-44.5 37.5z" />
    <glyph glyph-name="uni2080" unicode="&#x2080;" horiz-adv-x="421" 
d="M211 305q43 0 74.5 -16.5t52.5 -45t31.5 -67.5t10.5 -84t-10.5 -85t-31.5 -70t-52.5 -47t-74.5 -17t-74.5 17t-52.5 47t-31.5 70t-10.5 85t10.5 84t31.5 67.5t52.5 45t74.5 16.5zM210 213q-66 0 -66 -122q0 -61 16 -93.5t50 -32.5q35 0 51 32.5t16 93.5q0 122 -67 122z
" />
    <glyph glyph-name="uni2081" unicode="&#x2081;" horiz-adv-x="370" 
d="M245 -29h86v-90h-289v90h103v236h-94v90h194v-326z" />
    <glyph glyph-name="uni2082" unicode="&#x2082;" horiz-adv-x="385" 
d="M187 305q32 0 59 -10t47 -28t31.5 -43t11.5 -55q0 -24 -7 -45t-19 -41t-28.5 -39t-35.5 -39l-33 -34h133v-90l-313 -1v21l149 162q27 30 39.5 52.5t12.5 44.5q0 24 -13.5 38.5t-34.5 14.5t-35 -14.5t-14 -40.5q0 -6 0.5 -13t1.5 -16h-99q-2 10 -3 18.5t-1 16.5
q0 26 10.5 51.5t30 45.5t47.5 32t63 12z" />
    <glyph glyph-name="uni2083" unicode="&#x2083;" horiz-adv-x="360" 
d="M319 270l-85 -125q17 -6 33.5 -17t29.5 -26.5t21 -36.5t8 -46q0 -32 -12.5 -58.5t-34 -46t-51 -30.5t-62.5 -11q-55 0 -95 27t-60 71l69 49q17 -27 36.5 -41t45.5 -14t43.5 14t17.5 40q0 48 -76 48h-48v25l78 115h-133v90h275v-27z" />
    <glyph glyph-name="uni2084" unicode="&#x2084;" horiz-adv-x="375" 
d="M316 27h49v-82h-49v-64h-92v64h-212v26l124 326h103l-104 -270h89v109h92v-109z" />
    <glyph glyph-name="uni2085" unicode="&#x2085;" horiz-adv-x="370" 
d="M311 207h-156v-59q22 5 41 5q26 0 51 -8.5t45 -25t32 -41.5t12 -57q0 -33 -12.5 -60t-34.5 -46.5t-52 -30.5t-64 -11q-56 0 -97 27t-61 71l69 49q18 -27 38 -41t47 -14t46 13.5t19 39.5q0 49 -77 49h-97v230h251v-90z" />
    <glyph glyph-name="uni2086" unicode="&#x2086;" horiz-adv-x="374" 
d="M214 169q24 -2 47 -13t41.5 -29.5t30 -44.5t11.5 -57q0 -33 -13 -61t-35 -48.5t-50.5 -31.5t-59.5 -11t-59 11.5t-49.5 31.5t-34.5 48.5t-13 62.5q0 36 15 65t42 64l103 141h117zM187 85q-24 0 -41 -17t-17 -43t17 -43t41 -17t41 17t17 43t-17 43t-41 17z" />
    <glyph glyph-name="uni2087" unicode="&#x2087;" horiz-adv-x="346" 
d="M329 270l-180 -389h-109l156 326h-163v90h296v-27z" />
    <glyph glyph-name="uni2088" unicode="&#x2088;" horiz-adv-x="388" 
d="M194 305q60 0 100.5 -29.5t40.5 -83.5q0 -32 -15 -55.5t-42 -40.5q35 -15 55 -40t20 -62q0 -29 -12 -51t-33.5 -38t-50.5 -24t-63 -8t-63 8t-50.5 24t-33.5 38t-12 51q0 36 19.5 61.5t54.5 40.5q-26 17 -41 40.5t-15 55.5q0 27 11 48t30 35.5t44.5 22t55.5 7.5zM254 -2
q0 21 -16.5 33.5t-44.5 23.5q-28 -11 -44 -23.5t-16 -33.5q0 -19 14.5 -31.5t45.5 -12.5t46 12.5t15 31.5zM194 225q-20 0 -34.5 -10t-14.5 -28q0 -17 13 -28t36 -22q23 11 36.5 22t13.5 28q0 18 -14.5 28t-35.5 10z" />
    <glyph glyph-name="uni2089" unicode="&#x2089;" horiz-adv-x="374" 
d="M187 305q31 0 59.5 -11.5t50 -31.5t34.5 -48.5t13 -62.5q0 -36 -15.5 -65t-41.5 -64l-104 -141h-117l93 128q-24 1 -47 12.5t-41.5 30t-29.5 44.5t-11 57q0 33 13 61t34.5 48.5t50 31.5t59.5 11zM187 213q-24 0 -41 -17t-17 -43t17 -43t41 -17t41 17t17 43t-17 43t-41 17
z" />
    <glyph glyph-name="uni208A" unicode="&#x208a;" horiz-adv-x="427" 
d="M262 132h131v-87h-131v-135h-97v135h-131v87h131v134h97v-134z" />
    <glyph glyph-name="uni208B" unicode="&#x208b;" horiz-adv-x="426" 
d="M393 46h-359v85h359v-85z" />
    <glyph glyph-name="uni208C" unicode="&#x208c;" horiz-adv-x="427" 
d="M42 214h343v-87h-343v87zM42 51h343v-88h-343v88z" />
    <glyph glyph-name="uni208D" unicode="&#x208d;" horiz-adv-x="275" 
d="M256 359q-23 -15 -44 -37.5t-37.5 -55t-26.5 -76.5t-10 -102q0 -59 10 -103t26.5 -76.5t37.5 -54.5t44 -37l-39 -60q-33 17 -63 44t-53 67.5t-36.5 94.5t-13.5 125q0 72 13.5 127t36.5 95.5t53 67t63 41.5z" />
    <glyph glyph-name="uni208E" unicode="&#x208e;" horiz-adv-x="275" 
d="M59 419q33 -15 62.5 -41.5t52.5 -67t36.5 -95.5t13.5 -127t-13.5 -127t-36.5 -95.5t-52.5 -67t-62.5 -41.5l-40 60q23 15 44.5 37t38 54.5t26 76.5t9.5 103q0 58 -9.5 102t-26 76.5t-38 55t-44.5 37.5z" />
    <glyph glyph-name="lira" unicode="&#x20a4;" horiz-adv-x="569" 
d="M411 168h-109q-10 -35 -30 -60h253v-108h-483v29q46 33 78 66.5t46 72.5h-114v91h116q-4 15 -10 30t-14 29h-92v90h48q-12 31 -12 71q0 44 17 80t46 61t69 38.5t86 13.5q82 0 143 -45t86 -136l-113 -41q-15 48 -41 72.5t-66 24.5q-43 0 -66.5 -25.5t-23.5 -64.5
q0 -27 9 -49h177v-90h-129q7 -14 12.5 -28.5t9.5 -30.5h107v-91z" />
    <glyph glyph-name="peseta" unicode="&#x20a7;" horiz-adv-x="626" 
d="M626 366h-79q-9 -42 -32 -76.5t-57 -59t-77.5 -37.5t-94.5 -13h-57v-180h-135v366h-78v109h78v185h192q51 0 94.5 -13t77.5 -37t57 -58.5t32 -76.5h79v-109zM286 293q48 0 82 19.5t46 60.5h-185v-80h57zM229 547v-79h185q-13 40 -46.5 59.5t-81.5 19.5h-57z" />
    <glyph glyph-name="Euro" unicode="&#x20ac;" horiz-adv-x="676" 
d="M412 202h-163q23 -42 61 -65.5t89 -23.5q48 0 84.5 20t59.5 52l95 -73q-34 -57 -97.5 -90.5t-145.5 -33.5q-54 0 -101 15.5t-84.5 43.5t-65 67.5t-43.5 87.5h-99v96h80q-1 8 -1 16.5v16.5v13.5t1 13.5h-79v96h96q15 49 42.5 89t65.5 68.5t85.5 44.5t102.5 16
q82 0 145.5 -33.5t97.5 -90.5l-95 -73q-23 32 -59.5 52t-84.5 20q-53 0 -91.5 -25t-60.5 -68h235l-26 -96h-235q-1 -7 -1 -14v-14v-16t1 -16h217z" />
    <glyph glyph-name="uni20AE" unicode="&#x20ae;" horiz-adv-x="585" 
d="M521 191l-161 -48v-143h-135v103l-161 -48v114l161 48v61l-161 -48v114l161 47v147h-211v122h558v-122h-212v-107l161 48v-113l-161 -48v-61l161 48v-114z" />
    <glyph glyph-name="uni20B4" unicode="&#x20b4;" horiz-adv-x="541" 
d="M532 204h-345q-2 -5 -2 -10v-10q0 -36 23.5 -53.5t65.5 -17.5t85.5 17.5t80.5 49.5l67 -89q-48 -53 -109 -78t-124 -25q-51 0 -93 13.5t-72 39t-46.5 62t-16.5 81.5v10t1 10h-38v94h523v-94zM263 672q48 0 87.5 -13t68 -37.5t44.5 -59t16 -76.5q0 -19 -6 -34h59v-95h-523
v95h322q10 15 10 32q0 34 -23.5 48.5t-55.5 14.5q-35 0 -68 -15t-61 -42l-72 88q39 50 92.5 72t109.5 22z" />
    <glyph glyph-name="uni20B8" unicode="&#x20b8;" horiz-adv-x="585" 
d="M572 357h-212v-357h-135v357h-211v121h558v-121zM572 538h-558v122h558v-122z" />
    <glyph glyph-name="uni20B9" unicode="&#x20b9;" horiz-adv-x="537" 
d="M463 403h-76q-12 -65 -55 -106t-109 -56l240 -241h-168l-233 233v102h77q85 0 107 68h-185v97h182q-12 29 -38.5 44.5t-65.5 15.5h-77v100h401v-96h-105q20 -29 27 -64h78v-97z" />
    <glyph glyph-name="uni20BA" unicode="&#x20ba;" horiz-adv-x="538" 
d="M401 343l-169 -78v-149q34 4 64 14.5t52 27t34.5 40t12.5 53.5q0 21 -3 47h111q4 -14 6 -28t2 -31q0 -66 -28.5 -113t-81.5 -78t-130 -45.5t-174 -14.5v216l-85 -39v114l85 39v61l-85 -39v114l85 38v168h135v-106l169 77v-113l-169 -78v-61l169 78v-114z" />
    <glyph glyph-name="uni20BD" unicode="&#x20bd;" horiz-adv-x="599" 
d="M347 660q46 0 85.5 -13t68 -38t44.5 -61t16 -81t-16.5 -81t-45 -61t-67.5 -38t-85 -13h-118v-63h252v-108h-252v-103h-135v103h-78v108h78v63h-78v114h78v272h253zM229 546v-158h110q37 0 61.5 20t24.5 58t-24 59t-62 21h-110z" />
    <glyph glyph-name="uni2105" unicode="&#x2105;" horiz-adv-x="832" 
d="M279 0h-108l379 660h110zM213 672q48 0 83.5 -22.5t55.5 -60.5l-73 -52q-11 18 -27 29t-39 11q-29 0 -47 -19.5t-18 -49.5q0 -31 18 -50.5t47 -19.5q23 0 38.5 11t27.5 29l73 -52q-20 -38 -55.5 -60.5t-83.5 -22.5q-36 0 -67 12.5t-54 34.5t-36.5 52.5t-13.5 65.5
t13.5 65t36.5 52t54 34.5t67 12.5zM620 317q35 0 66 -12.5t54 -34.5t36.5 -52t13.5 -65t-13.5 -65.5t-36.5 -52.5t-54 -34.5t-66 -12.5q-36 0 -67 12.5t-54 34.5t-36.5 52.5t-13.5 65.5t13.5 65t36.5 52t54 34.5t67 12.5zM620 222q-30 0 -48 -19t-18 -51q0 -30 18 -49
t48 -19q29 0 47.5 19t18.5 49q0 31 -18.5 50.5t-47.5 19.5z" />
    <glyph glyph-name="uni2113" unicode="&#x2113;" horiz-adv-x="496" 
d="M298 762q78 0 122.5 -42t44.5 -133q0 -47 -13 -90.5t-40 -85.5t-69 -83.5t-100 -86.5v-43q0 -48 24 -68.5t69 -20.5q21 0 46 3t52 7v-113q-27 -8 -59 -13t-64 -5q-88 0 -139.5 39.5t-60.5 120.5l-54 -34l-60 105l112 76v250q0 57 14 98.5t38.5 67.5t59.5 38.5t77 12.5z
M243 398q56 49 81 91.5t25 91.5q0 38 -13 52.5t-34 14.5q-26 0 -42.5 -21.5t-16.5 -75.5v-153z" />
    <glyph glyph-name="uni2116" unicode="&#x2116;" horiz-adv-x="1123" 
d="M503 266v394h135v-672h-44l-383 408v-396h-135v672h45zM914 565q35 0 66 -12.5t54.5 -34.5t37 -52t13.5 -65t-13.5 -65.5t-37 -52.5t-54.5 -34.5t-66 -12.5t-66 12.5t-54 34.5t-36.5 52.5t-13.5 65.5t13.5 65t36.5 52t54 34.5t66 12.5zM1076 84h-324v85h324v-85zM914 472
q-31 0 -49.5 -19.5t-18.5 -51.5t18.5 -51.5t49.5 -19.5q30 0 48.5 20t18.5 51q0 32 -18.5 51.5t-48.5 19.5z" />
    <glyph glyph-name="uni2117" unicode="&#x2117;" horiz-adv-x="778" 
d="M388 672q71 0 134.5 -26t111.5 -72t76.5 -108.5t28.5 -135.5t-28.5 -135.5t-76.5 -108.5t-111.5 -72t-134.5 -26t-134.5 26t-111.5 71.5t-76 108t-28 135.5t28 136t76 109t111.5 72t134.5 26zM388 592q-52 0 -99.5 -18.5t-83.5 -52.5t-57.5 -83t-21.5 -109t21.5 -108.5
t58 -82.5t84 -52t98.5 -18t99 18t85 52t59 82.5t22 108.5t-22 109t-59 83t-84.5 52.5t-99.5 18.5zM415 504q61 0 101 -33t40 -90t-40 -90t-101 -33h-54v-104h-91v350h145zM361 425v-87h54q23 0 35.5 11.5t12.5 31.5t-12.5 32t-35.5 12h-54z" />
    <glyph glyph-name="trademark" unicode="&#x2122;" horiz-adv-x="984" 
d="M915 211h-112v202l-97 -122h-36l-96 122v-202h-113v457h37l191 -237l190 237h36v-457zM396 559h-136v-348h-112v348h-137v101h385v-101z" />
    <glyph glyph-name="uni2126" unicode="&#x2126;" horiz-adv-x="788" 
d="M393 672q73 0 137 -25t111.5 -69t75 -103t27.5 -128q0 -75 -31.5 -129.5t-84.5 -95.5h106v-122h-284v122q69 32 112.5 86t43.5 132q0 46 -16 84t-44.5 65.5t-68 42.5t-85.5 15q-45 0 -83.5 -14.5t-66.5 -41.5t-44 -65t-16 -84q0 -78 41.5 -132.5t113.5 -87.5v-122h-284
v122h100q-51 42 -80.5 96.5t-29.5 128.5q0 69 27.5 128t75 103t111 69t136.5 25z" />
    <glyph glyph-name="estimated" unicode="&#x212e;" horiz-adv-x="795" 
d="M402 670q60 0 120 -20.5t107 -58.5t76.5 -91.5t29.5 -118.5q0 -11 -0.5 -20t-1.5 -17q-1 -9 -2 -17h-544v-198q34 -47 89 -75.5t130 -28.5q82 0 147.5 33.5t107.5 83.5l26 -23q-48 -60 -120 -94.5t-160 -34.5q-75 0 -138.5 26t-110 71.5t-72.5 107t-26 131.5
q0 73 27.5 135.5t74.5 109t109 73t131 26.5zM407 634q-72 0 -128.5 -28t-91.5 -76v-168h421v183q-37 43 -87.5 66t-113.5 23z" />
    <glyph glyph-name="uni2150" unicode="&#x2150;" horiz-adv-x="967" 
d="M245 334h86v-90h-289v90h103v236h-94v90h194v-326zM360 0h-109l380 660h109zM950 390l-180 -389h-109l156 326h-163v90h296v-27z" />
    <glyph glyph-name="uni2151" unicode="&#x2151;" horiz-adv-x="965" 
d="M245 334h86v-90h-289v90h103v236h-94v90h194v-326zM360 0h-109l380 660h109zM778 425q31 0 59.5 -11.5t50 -31.5t34.5 -48.5t13 -62.5q0 -36 -15.5 -65t-41.5 -64l-104 -141h-117l93 128q-24 1 -47 12.5t-41.5 30t-29.5 44.5t-11 57q0 33 13 61t34.5 48.5t50 31.5
t59.5 11zM778 333q-24 0 -41 -17t-17 -43t17 -43t41 -17t41 17t17 43t-17 43t-41 17z" />
    <glyph glyph-name="uni2152" unicode="&#x2152;" horiz-adv-x="1412" 
d="M245 334h86v-90h-289v90h103v236h-94v90h194v-326zM360 0h-109l380 660h109zM1202 425q43 0 74.5 -16.5t52.5 -45t31.5 -67.5t10.5 -84t-10.5 -85t-31.5 -70t-52.5 -47t-74.5 -17t-74.5 17t-52.5 47t-31.5 70t-10.5 85t10.5 84t31.5 67.5t52.5 45t74.5 16.5zM1201 333
q-66 0 -66 -122q0 -61 16 -93.5t50 -32.5q35 0 51 32.5t16 93.5q0 122 -67 122zM866 91h86v-90h-289v90h103v236h-94v90h194v-326z" />
    <glyph glyph-name="uni2153" unicode="&#x2153;" horiz-adv-x="981" 
d="M245 334h86v-90h-289v90h103v236h-94v90h194v-326zM360 0h-109l380 660h109zM940 390l-85 -125q17 -6 33.5 -17t29.5 -26.5t21 -36.5t8 -46q0 -32 -12.5 -58.5t-34 -46t-51 -30.5t-62.5 -11q-55 0 -95 27t-60 71l69 49q17 -27 36.5 -41t45.5 -14t43.5 14t17.5 40
q0 48 -76 48h-48v25l78 115h-133v90h275v-27z" />
    <glyph glyph-name="uni2154" unicode="&#x2154;" horiz-adv-x="996" 
d="M187 668q32 0 59 -10t47 -28t31.5 -43t11.5 -55q0 -24 -7 -45t-19 -41t-28.5 -39t-35.5 -39l-33 -34h133v-90l-313 -1v21l149 162q27 30 39.5 52.5t12.5 44.5q0 24 -13.5 38.5t-34.5 14.5t-35 -14.5t-14 -40.5q0 -6 0.5 -13t1.5 -16h-99q-2 10 -3 18.5t-1 16.5
q0 26 10.5 51.5t30 45.5t47.5 32t63 12zM375 0h-109l380 660h109zM955 390l-85 -125q17 -6 33.5 -17t29.5 -26.5t21 -36.5t8 -46q0 -32 -12.5 -58.5t-34 -46t-51 -30.5t-62.5 -11q-55 0 -95 27t-60 71l69 49q17 -27 36.5 -41t45.5 -14t43.5 14t17.5 40q0 48 -76 48h-48v25
l78 115h-133v90h275v-27z" />
    <glyph glyph-name="uni2155" unicode="&#x2155;" horiz-adv-x="983" 
d="M245 334h86v-90h-289v90h103v236h-94v90h194v-326zM360 0h-109l380 660h109zM924 327h-156v-59q22 5 41 5q26 0 51 -8.5t45 -25t32 -41.5t12 -57q0 -33 -12.5 -60t-34.5 -46.5t-52 -30.5t-64 -11q-56 0 -97 27t-61 71l69 49q18 -27 38 -41t47 -14t46 13.5t19 39.5
q0 49 -77 49h-97v230h251v-90z" />
    <glyph glyph-name="uni2156" unicode="&#x2156;" horiz-adv-x="998" 
d="M187 668q32 0 59 -10t47 -28t31.5 -43t11.5 -55q0 -24 -7 -45t-19 -41t-28.5 -39t-35.5 -39l-33 -34h133v-90l-313 -1v21l149 162q27 30 39.5 52.5t12.5 44.5q0 24 -13.5 38.5t-34.5 14.5t-35 -14.5t-14 -40.5q0 -6 0.5 -13t1.5 -16h-99q-2 10 -3 18.5t-1 16.5
q0 26 10.5 51.5t30 45.5t47.5 32t63 12zM375 0h-109l380 660h109zM939 327h-156v-59q22 5 41 5q26 0 51 -8.5t45 -25t32 -41.5t12 -57q0 -33 -12.5 -60t-34.5 -46.5t-52 -30.5t-64 -11q-56 0 -97 27t-61 71l69 49q18 -27 38 -41t47 -14t46 13.5t19 39.5q0 49 -77 49h-97v230
h251v-90z" />
    <glyph glyph-name="uni2157" unicode="&#x2157;" horiz-adv-x="938" 
d="M319 633l-85 -125q17 -6 33.5 -17t29.5 -26.5t21 -36.5t8 -46q0 -32 -12.5 -58.5t-34 -46t-51 -30.5t-62.5 -11q-55 0 -95 27t-60 71l69 49q17 -27 36.5 -41t45.5 -14t43.5 14t17.5 40q0 48 -76 48h-48v25l78 115h-133v90h275v-27zM315 0h-109l380 660h109zM879 327h-156
v-59q22 5 41 5q26 0 51 -8.5t45 -25t32 -41.5t12 -57q0 -33 -12.5 -60t-34.5 -46.5t-52 -30.5t-64 -11q-56 0 -97 27t-61 71l69 49q18 -27 38 -41t47 -14t46 13.5t19 39.5q0 49 -77 49h-97v230h251v-90z" />
    <glyph glyph-name="uni2158" unicode="&#x2158;" horiz-adv-x="998" 
d="M316 390h49v-82h-49v-64h-92v64h-212v26l124 326h103l-104 -270h89v109h92v-109zM375 0h-109l380 660h109zM939 327h-156v-59q22 5 41 5q26 0 51 -8.5t45 -25t32 -41.5t12 -57q0 -33 -12.5 -60t-34.5 -46.5t-52 -30.5t-64 -11q-56 0 -97 27t-61 71l69 49q18 -27 38 -41
t47 -14t46 13.5t19 39.5q0 49 -77 49h-97v230h251v-90z" />
    <glyph glyph-name="uni2159" unicode="&#x2159;" horiz-adv-x="915" 
d="M245 334h86v-90h-289v90h103v236h-94v90h194v-326zM360 0h-109l380 660h109zM755 289q24 -2 47 -13t41.5 -29.5t30 -44.5t11.5 -57q0 -33 -13 -61t-35 -48.5t-50.5 -31.5t-59.5 -11t-59 11.5t-49.5 31.5t-34.5 48.5t-13 62.5q0 36 15 65t42 64l103 141h117zM728 205
q-24 0 -41 -17t-17 -43t17 -43t41 -17t41 17t17 43t-17 43t-41 17z" />
    <glyph glyph-name="uni215A" unicode="&#x215a;" horiz-adv-x="880" 
d="M311 570h-156v-59q22 5 41 5q26 0 51 -8.5t45 -25t32 -41.5t12 -57q0 -33 -12.5 -60t-34.5 -46.5t-52 -30.5t-64 -11q-56 0 -97 27t-61 71l69 49q18 -27 38 -41t47 -14t46 13.5t19 39.5q0 49 -77 49h-97v230h251v-90zM325 0h-109l380 660h109zM720 289q24 -2 47 -13
t41.5 -29.5t30 -44.5t11.5 -57q0 -33 -13 -61t-35 -48.5t-50.5 -31.5t-59.5 -11t-59 11.5t-49.5 31.5t-34.5 48.5t-13 62.5q0 36 15 65t42 64l103 141h117zM693 205q-24 0 -41 -17t-17 -43t17 -43t41 -17t41 17t17 43t-17 43t-41 17z" />
    <glyph glyph-name="oneeighth" unicode="&#x215b;" horiz-adv-x="964" 
d="M245 334h86v-90h-289v90h103v236h-94v90h194v-326zM360 0h-109l380 660h109zM770 425q60 0 100.5 -29.5t40.5 -83.5q0 -32 -15 -55.5t-42 -40.5q35 -15 55 -40t20 -62q0 -29 -12 -51t-33.5 -38t-50.5 -24t-63 -8t-63 8t-50.5 24t-33.5 38t-12 51q0 36 19.5 61.5
t54.5 40.5q-26 17 -41 40.5t-15 55.5q0 27 11 48t30 35.5t44.5 22t55.5 7.5zM830 118q0 21 -16.5 33.5t-44.5 23.5q-28 -11 -44 -23.5t-16 -33.5q0 -19 14.5 -31.5t45.5 -12.5t46 12.5t15 31.5zM770 345q-20 0 -34.5 -10t-14.5 -28q0 -17 13 -28t36 -22q23 11 36.5 22
t13.5 28q0 18 -14.5 28t-35.5 10z" />
    <glyph glyph-name="threeeighths" unicode="&#x215c;" horiz-adv-x="919" 
d="M319 633l-85 -125q17 -6 33.5 -17t29.5 -26.5t21 -36.5t8 -46q0 -32 -12.5 -58.5t-34 -46t-51 -30.5t-62.5 -11q-55 0 -95 27t-60 71l69 49q17 -27 36.5 -41t45.5 -14t43.5 14t17.5 40q0 48 -76 48h-48v25l78 115h-133v90h275v-27zM315 0h-109l380 660h109zM725 425
q60 0 100.5 -29.5t40.5 -83.5q0 -32 -15 -55.5t-42 -40.5q35 -15 55 -40t20 -62q0 -29 -12 -51t-33.5 -38t-50.5 -24t-63 -8t-63 8t-50.5 24t-33.5 38t-12 51q0 36 19.5 61.5t54.5 40.5q-26 17 -41 40.5t-15 55.5q0 27 11 48t30 35.5t44.5 22t55.5 7.5zM785 118
q0 21 -16.5 33.5t-44.5 23.5q-28 -11 -44 -23.5t-16 -33.5q0 -19 14.5 -31.5t45.5 -12.5t46 12.5t15 31.5zM725 345q-20 0 -34.5 -10t-14.5 -28q0 -17 13 -28t36 -22q23 11 36.5 22t13.5 28q0 18 -14.5 28t-35.5 10z" />
    <glyph glyph-name="fiveeighths" unicode="&#x215d;" horiz-adv-x="929" 
d="M311 570h-156v-59q22 5 41 5q26 0 51 -8.5t45 -25t32 -41.5t12 -57q0 -33 -12.5 -60t-34.5 -46.5t-52 -30.5t-64 -11q-56 0 -97 27t-61 71l69 49q18 -27 38 -41t47 -14t46 13.5t19 39.5q0 49 -77 49h-97v230h251v-90zM325 0h-109l380 660h109zM735 425q60 0 100.5 -29.5
t40.5 -83.5q0 -32 -15 -55.5t-42 -40.5q35 -15 55 -40t20 -62q0 -29 -12 -51t-33.5 -38t-50.5 -24t-63 -8t-63 8t-50.5 24t-33.5 38t-12 51q0 36 19.5 61.5t54.5 40.5q-26 17 -41 40.5t-15 55.5q0 27 11 48t30 35.5t44.5 22t55.5 7.5zM795 118q0 21 -16.5 33.5t-44.5 23.5
q-28 -11 -44 -23.5t-16 -33.5q0 -19 14.5 -31.5t45.5 -12.5t46 12.5t15 31.5zM735 345q-20 0 -34.5 -10t-14.5 -28q0 -17 13 -28t36 -22q23 11 36.5 22t13.5 28q0 18 -14.5 28t-35.5 10z" />
    <glyph glyph-name="seveneighths" unicode="&#x215e;" horiz-adv-x="842" 
d="M329 633l-180 -389h-109l156 326h-163v90h296v-27zM238 0h-109l380 660h109zM648 425q60 0 100.5 -29.5t40.5 -83.5q0 -32 -15 -55.5t-42 -40.5q35 -15 55 -40t20 -62q0 -29 -12 -51t-33.5 -38t-50.5 -24t-63 -8t-63 8t-50.5 24t-33.5 38t-12 51q0 36 19.5 61.5
t54.5 40.5q-26 17 -41 40.5t-15 55.5q0 27 11 48t30 35.5t44.5 22t55.5 7.5zM708 118q0 21 -16.5 33.5t-44.5 23.5q-28 -11 -44 -23.5t-16 -33.5q0 -19 14.5 -31.5t45.5 -12.5t46 12.5t15 31.5zM648 345q-20 0 -34.5 -10t-14.5 -28q0 -17 13 -28t36 -22q23 11 36.5 22
t13.5 28q0 18 -14.5 28t-35.5 10z" />
    <glyph glyph-name="arrowleft" unicode="&#x2190;" horiz-adv-x="650" 
d="M300 264l-69 3l159 -159l-79 -79l-279 278v26l279 279l79 -80l-157 -157l67 3h305v-114h-305z" />
    <glyph glyph-name="arrowup" unicode="&#x2191;" horiz-adv-x="650" 
d="M34 324l278 278h25l278 -278l-79 -80l-153 153l3 -64v-293h-122v293l2 64l-152 -153z" />
    <glyph glyph-name="arrowright" unicode="&#x2192;" horiz-adv-x="650" 
d="M45 378h305l66 -3l-156 157l79 80l279 -279v-26l-279 -278l-79 79l159 159l-69 -3h-305v114z" />
    <glyph glyph-name="arrowdown" unicode="&#x2193;" horiz-adv-x="650" 
d="M34 318l80 79l152 -153l-2 64v294h122v-294l-3 -64l153 153l79 -79l-278 -279h-25z" />
    <glyph glyph-name="arrowboth" unicode="&#x2194;" horiz-adv-x="946" 
d="M390 532l-157 -157l67 3h347l65 -3l-156 157l79 80l279 -279v-26l-279 -278l-79 79l159 159l-68 -3h-347l-69 3l159 -159l-79 -79l-279 278v26l279 279z" />
    <glyph glyph-name="arrowupdn" unicode="&#x2195;" horiz-adv-x="642" 
d="M607 458l-79 -79l-149 149l3 -64v-268l-3 -64l149 149l79 -79l-273 -275h-26l-274 275l80 79l148 -149l-2 64v268l2 64l-148 -149l-80 79l274 275h26z" />
    <glyph glyph-name="arrowupleft" unicode="&#x2196;" horiz-adv-x="650" 
d="M106 512l18 18h404v-113h-231l48 -43l236 -237l-83 -83l-235 236l-39 42v-230h-118v410z" />
    <glyph glyph-name="arrowupright" unicode="&#x2197;" horiz-adv-x="650" 
d="M426 332l-39 -42l-235 -236l-83 83l236 237l47 43h-230v113h404l18 -18v-410h-118v230z" />
    <glyph glyph-name="arrowdownright" unicode="&#x2198;" horiz-adv-x="650" 
d="M122 205h230l-47 43l-236 237l83 83l235 -236l39 -43v231h118v-410l-18 -19h-404v114z" />
    <glyph glyph-name="arrowdownleft" unicode="&#x2199;" horiz-adv-x="650" 
d="M106 110v410h118v-231l39 43l235 236l83 -83l-236 -237l-48 -43h231v-114h-404z" />
    <glyph glyph-name="partialdiff" unicode="&#x2202;" horiz-adv-x="614" 
d="M317 672q59 0 106.5 -21.5t80.5 -61t51 -97t18 -129.5q0 -81 -22.5 -149.5t-62.5 -119t-95.5 -78.5t-122.5 -28q-44 0 -84.5 13t-71.5 38.5t-49 64t-18 88.5q0 47 17 87t49.5 68.5t78.5 44.5t105 16q37 0 71.5 -6t65.5 -15q-4 85 -34 124t-90 39q-41 0 -70 -18t-55 -51
l-86 72q32 54 86 86.5t132 32.5zM280 106q50 0 91.5 41t56.5 127q-35 8 -67.5 12.5t-56.5 4.5q-33 0 -55.5 -8t-37 -21t-20.5 -30t-6 -35q0 -40 25 -65.5t70 -25.5z" />
    <glyph glyph-name="uni2206" unicode="&#x2206;" horiz-adv-x="661" 
d="M647 0h-634l295 672h44zM211 122h240l-120 278z" />
    <glyph glyph-name="product" unicode="&#x220f;" horiz-adv-x="701" 
d="M626 -121h-135v659h-280v-659h-135v781h550v-781z" />
    <glyph glyph-name="summation" unicode="&#x2211;" horiz-adv-x="570" 
d="M517 538h-271l146 -242v-30l-150 -265h287v-122h-494v30l209 371l-209 350v30h482v-122z" />
    <glyph glyph-name="minus" unicode="&#x2212;" 
d="M515 263h-471v115h471v-115z" />
    <glyph glyph-name="uni2219" unicode="&#x2219;" horiz-adv-x="270" 
d="M136 413q39 0 65.5 -27t26.5 -66q0 -40 -26.5 -66.5t-65.5 -26.5q-41 0 -67.5 26.5t-26.5 66.5q0 39 26.5 66t67.5 27z" />
    <glyph glyph-name="radical" unicode="&#x221a;" horiz-adv-x="734" 
d="M218 -133h-45v309h-163v108h272v-96l326 562h123z" />
    <glyph glyph-name="infinity" unicode="&#x221e;" horiz-adv-x="877" 
d="M224 518q36 0 66.5 -9t57 -25t48.5 -36.5t42 -42.5q20 22 42 42.5t48.5 36.5t57 25t66.5 9q49 0 87.5 -16.5t65 -44t40.5 -63.5t14 -75t-14 -75t-40.5 -63t-65 -43.5t-86.5 -16.5q-37 0 -68 9.5t-57 25t-48 36.5t-42 44q-20 -23 -42.5 -44t-48.5 -36.5t-56.5 -25
t-67.5 -9.5q-48 0 -86.5 16.5t-64.5 43.5t-40 63t-14 75t14 75t40.5 63.5t64.5 44t87 16.5zM239 240q38 0 69 23t60 57q-29 33 -60 56t-70 23t-64 -20t-25 -58t24.5 -59.5t65.5 -21.5zM639 399q-39 0 -70 -22.5t-60 -56.5q29 -34 60.5 -57t69.5 -23q40 0 64.5 21.5
t24.5 59.5t-25 58t-64 20z" />
    <glyph glyph-name="integral" unicode="&#x222b;" horiz-adv-x="359" 
d="M276 790q23 0 43.5 -2.5t37.5 -7.5v-113q-16 1 -29 1.5t-21 0.5q-41 0 -66.5 -21.5t-25.5 -76.5q0 -24 5 -63t12.5 -85.5t16 -97.5t16 -99.5t12.5 -91.5t5 -73q0 -97 -53.5 -144.5t-144.5 -47.5q-24 0 -44.5 2.5t-37.5 7.5v113q17 -1 29.5 -1.5t20.5 -0.5q40 0 66 21
t26 77q0 24 -5 63t-12.5 86t-16 98t-16 99.5t-12.5 91t-5 72.5q0 97 53.5 144.5t145.5 47.5z" />
    <glyph glyph-name="approxequal" unicode="&#x2248;" 
d="M153 546q20 0 42 -7t42 -19l88 -54q17 -10 30.5 -16t25.5 -6q16 0 24.5 11t8.5 27v16h103q1 -7 1.5 -16t0.5 -17q0 -32 -9.5 -58.5t-26 -45t-38.5 -29t-47 -10.5q-20 0 -42 7t-42 19l-88 53q-17 11 -30.5 17t-24.5 6q-17 0 -25.5 -11t-8.5 -28v-15h-103q-1 7 -1.5 16
t-0.5 17q0 31 9.5 57.5t26 45.5t38.5 29.5t47 10.5zM153 318q20 0 42 -7t42 -19l88 -54q17 -10 30.5 -16t25.5 -6q16 0 24.5 11t8.5 27v16h103q1 -7 1.5 -16t0.5 -17q0 -32 -9.5 -58.5t-26 -45t-38.5 -29t-47 -10.5q-20 0 -42 7t-42 19l-88 53q-17 11 -30.5 17t-24.5 6
q-17 0 -25.5 -11t-8.5 -28v-15h-103q-1 7 -1.5 16t-0.5 17q0 31 9.5 57.5t26 45.5t38.5 29.5t47 10.5z" />
    <glyph glyph-name="notequal" unicode="&#x2260;" 
d="M506 156h-265l-60 -100h-118l60 100h-68v114h137l61 101h-198v114h267l59 98h118l-59 -98h66v-114h-135l-61 -101h196v-114z" />
    <glyph glyph-name="lessequal" unicode="&#x2264;" 
d="M501 444l-230 -83l230 -83v-116l-464 181v36l464 181v-116zM500 0h-451v108h451v-108z" />
    <glyph glyph-name="greaterequal" unicode="&#x2265;" 
d="M522 379v-36l-464 -181v116l229 83l-229 83v116zM509 0h-451v108h451v-108z" />
    <glyph glyph-name="uni24EA" unicode="&#x24ea;" horiz-adv-x="971" 
d="M485 762q90 0 168.5 -34t137 -92.5t92.5 -137.5t34 -168t-34 -168t-92.5 -137.5t-137 -92.5t-168.5 -34q-89 0 -167.5 34t-137 92.5t-92.5 137t-34 168.5t34 168.5t92.5 137t137 92.5t167.5 34zM485 562q46 0 81 -17.5t57.5 -48.5t34 -72.5t11.5 -90.5t-11.5 -92t-34 -75
t-57.5 -50.5t-81 -18.5q-47 0 -81 18.5t-57 50.5t-34 75t-11 92t11.5 90.5t34 72.5t57 48.5t80.5 17.5zM485 462q-71 0 -71 -130q0 -66 17.5 -100.5t53.5 -34.5q38 0 55.5 34.5t17.5 100.5q0 130 -73 130zM485 660q-68 0 -127.5 -25t-103.5 -69t-69.5 -104.5t-25.5 -131.5
t25.5 -131.5t69.5 -104.5t103.5 -69t127.5 -25t127.5 25t103.5 69t69.5 104.5t25.5 131.5t-25.5 131.5t-69.5 104.5t-103.5 69t-127.5 25z" />
    <glyph glyph-name="uni24FF" unicode="&#x24ff;" horiz-adv-x="971" 
d="M485 762q90 0 168.5 -34t137 -92.5t92.5 -137.5t34 -168t-34 -168t-92.5 -137.5t-137 -92.5t-168.5 -34q-89 0 -167.5 34t-137 92.5t-92.5 137t-34 168.5t34 168.5t92.5 137t137 92.5t167.5 34zM485 562q-46 0 -80.5 -17.5t-57.5 -48.5t-34.5 -72.5t-11.5 -90.5t11 -92
t34 -75t57.5 -50.5t81.5 -18.5q46 0 81 18.5t57.5 50.5t34 75t11.5 92t-11.5 90.5t-34 72.5t-57.5 48.5t-81 17.5zM485 460q71 0 71 -128q0 -133 -71 -133q-70 0 -70 133q0 128 70 128z" />
    <glyph glyph-name="uni25A0" unicode="&#x25a0;" horiz-adv-x="730" 
d="M640 55h-550v550h550v-550z" />
    <glyph glyph-name="uni25A1" unicode="&#x25a1;" horiz-adv-x="730" 
d="M640 55h-550v550h550v-550zM207 493v-326h316v326h-316z" />
    <glyph glyph-name="uni25AA" unicode="&#x25aa;" horiz-adv-x="541" 
d="M461 58h-381v380h381v-380z" />
    <glyph glyph-name="uni25AB" unicode="&#x25ab;" horiz-adv-x="541" 
d="M461 58h-381v380h381v-380zM189 332v-169h162v169h-162z" />
    <glyph glyph-name="uni25B2" unicode="&#x25b2;" horiz-adv-x="730" 
d="M709 71l-9 -16h-671l-9 16l336 589h18z" />
    <glyph glyph-name="uni25B3" unicode="&#x25b3;" horiz-adv-x="730" 
d="M709 71l-9 -16h-671l-9 16l336 589h18zM209 170h312l-156 272z" />
    <glyph glyph-name="uni25B4" unicode="&#x25b4;" horiz-adv-x="528" 
d="M503 74l-9 -16h-460l-9 16l230 403h18z" />
    <glyph glyph-name="uni25B5" unicode="&#x25b5;" horiz-adv-x="528" 
d="M503 74l-9 -16h-460l-9 16l230 403h18zM177 145h174l-87 153z" />
    <glyph glyph-name="uni25B6" unicode="&#x25b6;" horiz-adv-x="645" 
d="M622 339v-18l-516 -333l-16 9v666l16 9z" />
    <glyph glyph-name="uni25B7" unicode="&#x25b7;" horiz-adv-x="645" 
d="M622 339v-18l-516 -333l-16 9v666l16 9zM207 470v-281l218 140z" />
    <glyph glyph-name="uni25B8" unicode="&#x25b8;" horiz-adv-x="480" 
d="M449 257v-18l-353 -226l-16 8v454l16 9z" />
    <glyph glyph-name="uni25B9" unicode="&#x25b9;" horiz-adv-x="480" 
d="M449 257v-18l-353 -226l-16 8v454l16 9zM170 327v-157l123 78z" />
    <glyph glyph-name="uni25BA" unicode="&#x25ba;" horiz-adv-x="961" 
d="M931 339v-18l-825 -333l-16 9v666l16 9z" />
    <glyph glyph-name="uni25BB" unicode="&#x25bb;" horiz-adv-x="961" 
d="M931 339v-18l-825 -333l-16 9v666l16 9zM207 506v-353l437 177z" />
    <glyph glyph-name="uni25BC" unicode="&#x25bc;" horiz-adv-x="730" 
d="M709 589.004l-9 15.999h-671l-9 -15.999l336 -588.964h18z" />
    <glyph glyph-name="uni25BD" unicode="&#x25bd;" horiz-adv-x="730" 
d="M709 589l-335 -589h-18l-336 589l9 16h671zM365 217l156 273h-312z" />
    <glyph glyph-name="uni25BE" unicode="&#x25be;" horiz-adv-x="528" 
d="M503 422l-230 -403h-18l-230 403l9 16h460z" />
    <glyph glyph-name="uni25BF" unicode="&#x25bf;" horiz-adv-x="528" 
d="M503 422l-230 -403h-18l-230 403l9 16h460zM264 197l87 153h-174z" />
    <glyph glyph-name="uni25C0" unicode="&#x25c0;" horiz-adv-x="645" 
d="M555 663v-666l-16 -9l-516 333v18l516 333z" />
    <glyph glyph-name="uni25C1" unicode="&#x25c1;" horiz-adv-x="682" 
d="M60.0381 339v-18l515.969 -333l15.999 9v666l-15.999 9zM475.013 470v-281l-217.986 140z" />
    <glyph glyph-name="uni25C2" unicode="&#x25c2;" horiz-adv-x="480" 
d="M400 475v-454l-16 -8l-353 226v18l353 227z" />
    <glyph glyph-name="uni25C3" unicode="&#x25c3;" horiz-adv-x="480" 
d="M400 475v-454l-16 -8l-353 226v18l353 227zM310 170v157l-123 -79z" />
    <glyph glyph-name="uni25C4" unicode="&#x25c4;" horiz-adv-x="961" 
d="M871 663v-666l-16 -9l-825 333v18l825 333z" />
    <glyph glyph-name="uni25C5" unicode="&#x25c5;" horiz-adv-x="961" 
d="M871 663v-666l-16 -9l-825 333v18l825 333zM754 153v353l-438 -176z" />
    <glyph glyph-name="lozenge" unicode="&#x25ca;" horiz-adv-x="665" 
d="M97 330l213 342h45l213 -342l-213 -342h-45zM333 492l-101 -162l104 -164l98 164z" />
    <glyph glyph-name="uni25CB" unicode="&#x25cb;" horiz-adv-x="775" 
d="M389 659q67 0 127 -26t104.5 -71t70.5 -104.5t26 -126.5q0 -68 -26 -128t-70.5 -105t-104.5 -71.5t-127 -26.5t-127 26t-105.5 71t-72 105t-26.5 128q0 67 26.5 127t71.5 105t105 71t128 26zM389 546q-45 0 -84 -17t-68.5 -46t-46 -68.5t-16.5 -84.5t16.5 -84.5t45.5 -69
t68 -46.5t84 -17t83.5 17t67.5 46.5t45.5 69.5t16.5 85t-16.5 84t-45 68.5t-67.5 46t-83 16.5z" />
    <glyph glyph-name="uni25CF" unicode="&#x25cf;" horiz-adv-x="775" 
d="M389 659q67 0 127 -26t104.5 -71t70.5 -104.5t26 -126.5q0 -68 -26 -128t-70.5 -105t-104.5 -71.5t-127 -26.5t-127 26t-105.5 71t-72 105t-26.5 128q0 67 26.5 127t71.5 105t105 71t128 26z" />
    <glyph glyph-name="pointingindexleftwhite" unicode="&#x261c;" horiz-adv-x="1212" 
d="M1153 537l-52 -178l89 -74v-39l-89 -74l52 -177l-35 -24l-232 147q-95 -49 -189.5 -77.5t-168.5 -28.5q-65 0 -92.5 21t-27.5 53q0 22 13 37q-20 7 -33 21.5t-13 36.5q0 16 7 28t18 20q-16 8 -25.5 20.5t-9.5 32.5q0 19 11 33l-182 3q-83 2 -122 26t-39 78q0 31 12.5 50
t37.5 30t61 15t83 4q76 0 163 -9q1 24 10 42.5t23 30.5t31.5 18t35.5 6q17 0 38.5 -5.5t42.5 -19.5l247 -152l64 -21l236 149zM467 219q-11 -2 -11 -14q0 -14 13 -14h121v-69q-17 -2 -39 -4t-40 -2h-11q-11 -2 -11 -14q0 -6 4.5 -10.5t17.5 -4.5q27 0 68 7t88.5 20.5
t96.5 32.5t92 43v148q-57 24 -133.5 43t-165 33t-184 21.5t-189.5 7.5q-35 0 -48 -5t-13 -18t11.5 -18t41.5 -7l105 -2q98 -2 169 -4.5t118 -5.5v-69l-109 1q-6 0 -10.5 -3.5t-4.5 -9.5t4 -10.5t10 -4.5h122v-68h-113zM940 176l101 -62l-28 94l74 58l-74 57l28 94l-101 -63
v-178zM513 528q-11 0 -18.5 -6t-9.5 -20q29 -4 58 -8.5t58 -9.5l-61 35q-7 3 -13 6t-14 3z" />
    <glyph glyph-name="pointingindexrightwhite" unicode="&#x261e;" horiz-adv-x="1212" 
d="M340 411l31.5 10.5t33.5 10.5l247 152q22 14 43 19.5t38 5.5q18 0 35.5 -6t31.5 -18t23 -30.5t10 -42.5q87 9 163 9q47 0 83.5 -4t61 -15t37 -30t12.5 -50q0 -54 -39 -78t-122 -26l-182 -3q11 -14 11 -33q0 -20 -9.5 -32.5t-26.5 -20.5q11 -8 18 -20t7 -28
q0 -22 -13 -36.5t-33 -21.5q14 -14 14 -37q0 -32 -27.5 -53t-92.5 -21q-36 0 -79 7.5t-89.5 21t-94.5 33.5t-96 44l-231 -147l-35 24l51 178l-88 73v39l88 73l-51 179l35 23zM643 287h122q6 0 10 4.5t4 10.5t-4.5 9.5t-10.5 3.5l-109 -1v69q47 3 118 5.5t169 4.5l105 2
q30 2 42 7t12 18t-13.5 18t-48.5 5q-95 0 -190 -7.5t-183 -21.5t-164.5 -33t-133.5 -43v-148q43 -24 92 -43t96 -32.5t88 -20.5t68 -7q13 0 18 4.5t5 10.5q0 12 -13 14h-11q-18 0 -40 2t-39 4v69h121q13 0 13 14t-13 14h-110v68zM182 114l101 62v179l-101 62l29 -94l-75 -57
l75 -58zM622 484q29 5 57.5 9.5t57.5 8.5q-4 26 -27 26q-8 0 -14 -3t-13 -6z" />
    <glyph glyph-name="heartsuitwhite" unicode="&#x2661;" horiz-adv-x="860" 
d="M614 672q39 0 74.5 -14t61.5 -40t41.5 -62t15.5 -80q0 -25 -6 -48t-18.5 -47t-33 -50.5t-50.5 -58.5l-259 -284h-21l-260 284q-29 32 -49.5 58.5t-33.5 50.5t-18.5 47t-5.5 48q0 44 15.5 80t41.5 62t61.5 40t74.5 14q66 0 114.5 -36t69.5 -92q21 56 70 92t115 36z
M587 544q-25 0 -45 -12.5t-35 -33t-26 -48t-17 -57.5h-69q-6 30 -17 57.5t-26.5 48t-35.5 33t-45 12.5q-33 0 -55.5 -21t-22.5 -59q0 -35 19.5 -63.5t47.5 -60.5l169 -190l169 190q29 32 48.5 60.5t19.5 63.5q0 38 -23 59t-56 21z" />
    <glyph glyph-name="heartsuitblack" unicode="&#x2665;" horiz-adv-x="860" 
d="M614 672q39 0 74.5 -14t61.5 -40t41.5 -62t15.5 -80q0 -25 -6 -48t-18.5 -47t-33 -50.5t-50.5 -58.5l-259 -284h-21l-260 284q-29 32 -49.5 58.5t-33.5 50.5t-18.5 47t-5.5 48q0 44 15.5 80t41.5 62t61.5 40t74.5 14q66 0 114.5 -36t69.5 -92q21 56 70 92t115 36z" />
    <glyph glyph-name="uni275B" unicode="&#x275b;" horiz-adv-x="635" 
d="M379 670q63 0 113 -18.5t92 -51.5l-53 -86q-30 23 -66.5 36.5t-78.5 13.5q-49 0 -91.5 -18t-73.5 -49.5t-49 -75t-18 -94.5q0 -20 2.5 -39t7.5 -36q8 37 27.5 68.5t48 54.5t64 36.5t74.5 13.5q45 0 84.5 -17t69.5 -46.5t47 -69.5t17 -86q0 -44 -16 -83t-46 -69t-74 -47.5
t-99 -17.5q-67 0 -125.5 25.5t-102.5 71t-69.5 107t-25.5 133.5t25.5 134.5t70.5 109t107.5 73.5t137.5 27z" />
    <glyph glyph-name="uni275C" unicode="&#x275c;" horiz-adv-x="635" 
d="M255 -10q-63 0 -113 18.5t-92 51.5l53 86q30 -23 66.5 -36.5t78.5 -13.5q49 0 91.5 18t73.5 49.5t49 75t18 94.5q0 37 -11 75q-8 -37 -27.5 -68.5t-48 -55t-63.5 -36.5t-74 -13q-45 0 -84.5 17t-69.5 46.5t-47 69.5t-17 86q0 43 16 82.5t46 69.5t73.5 47.5t99.5 17.5
q67 0 125.5 -25.5t102.5 -71t69.5 -107t25.5 -133.5t-25.5 -134.5t-70.5 -109t-107.5 -73.5t-137.5 -27z" />
    <glyph glyph-name="uni275D" unicode="&#x275d;" horiz-adv-x="1249" 
d="M993 670q63 0 113 -18.5t92 -51.5l-53 -86q-30 23 -66.5 36.5t-78.5 13.5q-49 0 -91.5 -18t-73.5 -49.5t-49 -75t-18 -94.5q0 -20 2.5 -39t7.5 -36q8 37 27.5 68.5t48 54.5t64 36.5t74.5 13.5q45 0 84.5 -17t69.5 -46.5t47 -69.5t17 -86q0 -44 -16 -83t-46 -69t-74 -47.5
t-99 -17.5q-67 0 -125.5 25.5t-102.5 71t-69.5 107t-25.5 133.5t25.5 134.5t70.5 109t107.5 73.5t137.5 27zM379 670q63 0 113 -18.5t92 -51.5l-53 -86q-30 23 -66.5 36.5t-78.5 13.5q-49 0 -91.5 -18t-73.5 -49.5t-49 -75t-18 -94.5q0 -20 2.5 -39t7.5 -36q8 37 27.5 68.5
t48 54.5t64 36.5t74.5 13.5q45 0 84.5 -17t69.5 -46.5t47 -69.5t17 -86q0 -44 -16 -83t-46 -69t-74 -47.5t-99 -17.5q-67 0 -125.5 25.5t-102.5 71t-69.5 107t-25.5 133.5t25.5 134.5t70.5 109t107.5 73.5t137.5 27z" />
    <glyph glyph-name="uni275E" unicode="&#x275e;" horiz-adv-x="1255" 
d="M255 -10q-63 0 -113 18.5t-92 51.5l53 86q30 -23 66.5 -36.5t78.5 -13.5q49 0 91.5 18t73.5 49.5t49 75t18 94.5q0 37 -11 75q-8 -37 -27.5 -68.5t-48 -55t-63.5 -36.5t-74 -13q-45 0 -84.5 17t-69.5 46.5t-47 69.5t-17 86q0 43 16 82.5t46 69.5t73.5 47.5t99.5 17.5
q67 0 125.5 -25.5t102.5 -71t69.5 -107t25.5 -133.5t-25.5 -134.5t-70.5 -109t-107.5 -73.5t-137.5 -27zM875 -10q-63 0 -113 18.5t-92 51.5l53 86q30 -23 66.5 -36.5t78.5 -13.5q49 0 91.5 18t73.5 49.5t49 75t18 94.5q0 37 -11 75q-8 -37 -27.5 -68.5t-48 -55t-63.5 -36.5
t-74 -13q-45 0 -84.5 17t-69.5 46.5t-47 69.5t-17 86q0 43 16 82.5t46 69.5t73.5 47.5t99.5 17.5q67 0 125.5 -25.5t102.5 -71t69.5 -107t25.5 -133.5t-25.5 -134.5t-70.5 -109t-107.5 -73.5t-137.5 -27z" />
    <glyph glyph-name="uni2776" unicode="&#x2776;" horiz-adv-x="971" 
d="M485 762q90 0 168.5 -34t137 -92.5t92.5 -137.5t34 -168t-34 -168t-92.5 -137.5t-137 -92.5t-168.5 -34q-89 0 -167.5 34t-137 92.5t-92.5 137t-34 168.5t34 168.5t92.5 137t137 92.5t167.5 34zM347 554v-93h87v-263h-93v-93h289v93h-85v356h-198z" />
    <glyph glyph-name="uni2777" unicode="&#x2777;" horiz-adv-x="971" 
d="M485 762q90 0 168.5 -34t137 -92.5t92.5 -137.5t34 -168t-34 -168t-92.5 -137.5t-137 -92.5t-168.5 -34q-89 0 -167.5 34t-137 92.5t-92.5 137t-34 168.5t34 168.5t92.5 137t137 92.5t167.5 34zM482 562q-38 0 -69 -13t-52.5 -34t-33.5 -49t-12 -58q0 -19 4 -38h101
q-1 8 -1.5 15.5t-0.5 13.5q0 26 15 43.5t44 17.5q25 0 40 -14.5t15 -40.5t-16 -49t-43 -53l-156 -176v-23h341v94h-150l57 62q32 34 56.5 71t24.5 84q0 32 -12.5 59t-34.5 46.5t-52 30.5t-65 11z" />
    <glyph glyph-name="uni2778" unicode="&#x2778;" horiz-adv-x="971" 
d="M485 762q90 0 168.5 -34t137 -92.5t92.5 -137.5t34 -168t-34 -168t-92.5 -137.5t-137 -92.5t-168.5 -34q-89 0 -167.5 34t-137 92.5t-92.5 137t-34 168.5t34 168.5t92.5 137t137 92.5t167.5 34zM340 554v-100h134l-84 -122v-28h62q81 0 81 -51q0 -26 -18.5 -40t-45.5 -14
q-29 0 -48.5 14.5t-39.5 43.5l-77 -54q23 -48 66 -77t103 -29q36 0 68 11.5t55.5 32.5t37 49.5t13.5 63.5q0 54 -30 88t-71 47l94 136v29h-300z" />
    <glyph glyph-name="uni2779" unicode="&#x2779;" horiz-adv-x="971" 
d="M485 762q90 0 168.5 -34t137 -92.5t92.5 -137.5t34 -168t-34 -168t-92.5 -137.5t-137 -92.5t-168.5 -34q-89 0 -167.5 34t-137 92.5t-92.5 137t-34 168.5t34 168.5t92.5 137t137 92.5t167.5 34zM408 554l-127 -352v-30h225v-67h111v67h53v97h-53v103h-111v-103h-91
l111 285h-118z" />
    <glyph glyph-name="uni277A" unicode="&#x277a;" horiz-adv-x="971" 
d="M485 762q90 0 168.5 -34t137 -92.5t92.5 -137.5t34 -168t-34 -168t-92.5 -137.5t-137 -92.5t-168.5 -34q-89 0 -167.5 34t-137 92.5t-92.5 137t-34 168.5t34 168.5t92.5 137t137 92.5t167.5 34zM355 554v-250h106q81 0 81 -50q0 -27 -19.5 -41.5t-48.5 -14.5t-50 15
t-41 44l-77 -54q23 -48 67 -77t106 -29q37 0 69.5 11.5t56.5 32.5t37.5 50t13.5 64t-13.5 62t-35 45t-48.5 27.5t-54 9.5q-25 0 -45 -4v59h169v100h-274z" />
    <glyph glyph-name="uni277B" unicode="&#x277b;" horiz-adv-x="971" 
d="M485 762q90 0 168.5 -34t137 -92.5t92.5 -137.5t34 -168t-34 -168t-92.5 -137.5t-137 -92.5t-168.5 -34q-89 0 -167.5 34t-137 92.5t-92.5 137t-34 168.5t34 168.5t92.5 137t137 92.5t167.5 34zM474 324q26 0 44 -17.5t18 -44.5t-18 -45t-43 -18q-26 0 -43.5 18.5
t-17.5 45.5q0 26 17 43.5t43 17.5zM477 554l-112 -151q-29 -40 -45 -70.5t-16 -70.5q0 -36 14 -66.5t37.5 -52.5t54.5 -34t64 -12q34 0 65 12t55 34t38 52t14 66q0 52 -28 89.5t-68 51.5q-25 9 -47 8l106 144h-132z" />
    <glyph glyph-name="uni277C" unicode="&#x277c;" horiz-adv-x="971" 
d="M485 762q90 0 168.5 -34t137 -92.5t92.5 -137.5t34 -168t-34 -168t-92.5 -137.5t-137 -92.5t-168.5 -34q-89 0 -167.5 34t-137 92.5t-92.5 137t-34 168.5t34 168.5t92.5 137t137 92.5t167.5 34zM334 554v-101h176l-169 -348h121l195 420v29h-323z" />
    <glyph glyph-name="uni277D" unicode="&#x277d;" horiz-adv-x="971" 
d="M485 762q90 0 168.5 -34t137 -92.5t92.5 -137.5t34 -168t-34 -168t-92.5 -137.5t-137 -92.5t-168.5 -34q-89 0 -167.5 34t-137 92.5t-92.5 137t-34 168.5t34 168.5t92.5 137t137 92.5t167.5 34zM486 299q28 -11 46 -24.5t18 -39.5q0 -22 -15.5 -36.5t-47.5 -14.5
q-33 0 -49 14.5t-16 37.5q0 25 18 38.5t46 24.5zM486 562q-33 0 -61 -8t-48.5 -23.5t-32.5 -38.5t-12 -53q0 -34 17 -59t46 -43q-38 -16 -60.5 -42.5t-22.5 -66.5q0 -31 13.5 -55t36.5 -41t55 -26t69 -9t68.5 9t55 26t36.5 41t13 55q0 40 -22 67t-60 43q30 18 46.5 43
t16.5 59q0 30 -12 52.5t-32.5 38t-48.5 23.5t-61 8zM486 475q22 0 36.5 -11t14.5 -32q0 -20 -14.5 -31.5t-37.5 -21.5q-23 10 -36 21.5t-13 31.5t14 31.5t36 11.5z" />
    <glyph glyph-name="uni277E" unicode="&#x277e;" horiz-adv-x="971" 
d="M486 762q89 0 167.5 -34t137 -92.5t92.5 -137t34 -168.5t-34 -168.5t-92.5 -137t-137 -92.5t-167.5 -34q-90 0 -168.5 34t-137 92.5t-92.5 137.5t-34 168t34 168t92.5 137.5t137 92.5t168.5 34zM496 563q-34 0 -65 -12t-55 -34t-38 -52t-14 -66q0 -52 28 -89.5t69 -51.5
q24 -9 47 -8l-107 -144h132l112 151q29 40 45 70.5t16 70.5q0 36 -14 66.5t-37.5 52.5t-54 34t-64.5 12zM495 461q26 0 43.5 -18.5t17.5 -45.5q0 -26 -17 -43.5t-43 -17.5t-44 17.5t-18 44.5t18 45t43 18z" />
    <glyph glyph-name="uni2780" unicode="&#x2780;" horiz-adv-x="971" 
d="M485 762q90 0 168.5 -34t137 -92.5t92.5 -137.5t34 -168t-34 -168t-92.5 -137.5t-137 -92.5t-168.5 -34q-89 0 -167.5 34t-137 92.5t-92.5 137t-34 168.5t34 168.5t92.5 137t137 92.5t167.5 34zM486 657q-68 0 -127 -24.5t-103 -68t-69 -103.5t-25 -131t25 -131
t69 -103.5t103 -68t127 -24.5t127 24.5t102.5 68.5t68.5 103.5t25 130.5q0 70 -25 130t-68.5 104t-102.5 68.5t-127 24.5zM545 198h85v-93h-289v93h93v263h-87v93h198v-356z" />
    <glyph glyph-name="uni2781" unicode="&#x2781;" horiz-adv-x="971" 
d="M485 762q90 0 168.5 -34t137 -92.5t92.5 -137.5t34 -168t-34 -168t-92.5 -137.5t-137 -92.5t-168.5 -34q-89 0 -167.5 34t-137 92.5t-92.5 137t-34 168.5t34 168.5t92.5 137t137 92.5t167.5 34zM486 657q-68 0 -127 -24.5t-103 -68t-69 -103.5t-25 -131t25 -131
t69 -103.5t103 -68t127 -24.5t127 24.5t102.5 68.5t68.5 103.5t25 130.5q0 70 -25 130t-68.5 104t-102.5 68.5t-127 24.5zM482 562q35 0 65 -11t52 -30.5t34.5 -46.5t12.5 -59q0 -47 -24.5 -84t-56.5 -71l-57 -62h150v-94h-341v23l156 176q27 30 43 53t16 49t-15 40.5
t-40 14.5q-29 0 -44 -17.5t-15 -43.5q0 -6 0.5 -13.5t1.5 -15.5h-101q-4 19 -4 38q0 30 12 58t33.5 49t52.5 34t69 13z" />
    <glyph glyph-name="uni2782" unicode="&#x2782;" horiz-adv-x="971" 
d="M485 762q90 0 168.5 -34t137 -92.5t92.5 -137.5t34 -168t-34 -168t-92.5 -137.5t-137 -92.5t-168.5 -34q-89 0 -167.5 34t-137 92.5t-92.5 137t-34 168.5t34 168.5t92.5 137t137 92.5t167.5 34zM640 525l-94 -136q41 -13 71 -47t30 -88q0 -35 -13.5 -63.5t-37 -49.5
t-55.5 -32.5t-68 -11.5q-60 0 -103 29t-66 77l77 54q20 -29 39.5 -43.5t48.5 -14.5q27 0 45.5 14t18.5 40q0 51 -81 51h-62v28l84 122h-134v100h300v-29zM486 657q-68 0 -127 -24.5t-103 -68t-69 -103.5t-25 -131t25 -131t69 -103.5t103 -68t127 -24.5t127 24.5t102.5 68.5
t68.5 103.5t25 130.5q0 70 -25 130t-68.5 104t-102.5 68.5t-127 24.5z" />
    <glyph glyph-name="uni2783" unicode="&#x2783;" horiz-adv-x="971" 
d="M485 762q90 0 168.5 -34t137 -92.5t92.5 -137.5t34 -168t-34 -168t-92.5 -137.5t-137 -92.5t-168.5 -34q-89 0 -167.5 34t-137 92.5t-92.5 137t-34 168.5t34 168.5t92.5 137t137 92.5t167.5 34zM415 269h91v103h111v-103h53v-97h-53v-67h-111v67h-225v30l127 352h118z
M486 657q-68 0 -127 -24.5t-103 -68t-69 -103.5t-25 -131t25 -131t69 -103.5t103 -68t127 -24.5t127 24.5t102.5 68.5t68.5 103.5t25 130.5q0 70 -25 130t-68.5 104t-102.5 68.5t-127 24.5z" />
    <glyph glyph-name="uni2784" unicode="&#x2784;" horiz-adv-x="971" 
d="M485 762q90 0 168.5 -34t137 -92.5t92.5 -137.5t34 -168t-34 -168t-92.5 -137.5t-137 -92.5t-168.5 -34q-89 0 -167.5 34t-137 92.5t-92.5 137t-34 168.5t34 168.5t92.5 137t137 92.5t167.5 34zM629 454h-168v-59q20 4 44 4q27 0 54.5 -9.5t49 -27.5t35 -45t13.5 -62
t-14 -64t-38 -50t-56.5 -32.5t-69.5 -11.5q-62 0 -106 29t-67 77l77 54q20 -29 41 -44t50 -15t48.5 14.5t19.5 41.5q0 50 -80 50h-107v250h274v-100zM486 657q-68 0 -127 -24.5t-103 -68t-69 -103.5t-25 -131t25 -131t69 -103.5t103 -68t127 -24.5t127 24.5t102.5 68.5
t68.5 103.5t25 130.5q0 70 -25 130t-68.5 104t-102.5 68.5t-127 24.5z" />
    <glyph glyph-name="uni2785" unicode="&#x2785;" horiz-adv-x="971" 
d="M485 762q90 0 168.5 -34t137 -92.5t92.5 -137.5t34 -168t-34 -168t-92.5 -137.5t-137 -92.5t-168.5 -34q-89 0 -167.5 34t-137 92.5t-92.5 137t-34 168.5t34 168.5t92.5 137t137 92.5t167.5 34zM474 324q-26 0 -43 -17.5t-17 -43.5q0 -27 17.5 -45.5t43.5 -18.5
q25 0 43 18t18 45t-18 44.5t-44 17.5zM503 410q22 1 47 -8q40 -14 68 -51.5t28 -89.5q0 -36 -14 -66t-38 -52t-55 -34t-65 -12q-33 0 -64 12t-54.5 34t-37.5 52.5t-14 66.5q0 40 16 70.5t45 70.5l112 151h132zM486 657q-68 0 -127 -24.5t-103 -68t-69 -103.5t-25 -131
t25 -131t69 -103.5t103 -68t127 -24.5t127 24.5t102.5 68.5t68.5 103.5t25 130.5q0 70 -25 130t-68.5 104t-102.5 68.5t-127 24.5z" />
    <glyph glyph-name="uni2786" unicode="&#x2786;" horiz-adv-x="971" 
d="M485 762q90 0 168.5 -34t137 -92.5t92.5 -137.5t34 -168t-34 -168t-92.5 -137.5t-137 -92.5t-168.5 -34q-89 0 -167.5 34t-137 92.5t-92.5 137t-34 168.5t34 168.5t92.5 137t137 92.5t167.5 34zM486 657q-68 0 -127 -24.5t-103 -68t-69 -103.5t-25 -131t25 -131
t69 -103.5t103 -68t127 -24.5t127 24.5t102.5 68.5t68.5 103.5t25 130.5q0 70 -25 130t-68.5 104t-102.5 68.5t-127 24.5zM657 525l-195 -420h-121l169 348h-176v101h323v-29z" />
    <glyph glyph-name="uni2787" unicode="&#x2787;" horiz-adv-x="971" 
d="M485 762q90 0 168.5 -34t137 -92.5t92.5 -137.5t34 -168t-34 -168t-92.5 -137.5t-137 -92.5t-168.5 -34q-89 0 -167.5 34t-137 92.5t-92.5 137t-34 168.5t34 168.5t92.5 137t137 92.5t167.5 34zM486 299q-28 -11 -46 -24.5t-18 -38.5q0 -23 16 -37.5t49 -14.5
q32 0 47.5 14.5t15.5 36.5q0 26 -18 39.5t-46 24.5zM486 562q33 0 61 -8t48.5 -23.5t32.5 -38t12 -52.5q0 -34 -16.5 -59t-46.5 -43q38 -16 60 -43t22 -67q0 -31 -13 -55t-36.5 -41t-55 -26t-68.5 -9t-69 9t-55 26t-36.5 41t-13.5 55q0 40 22.5 66.5t60.5 42.5
q-29 18 -46 43t-17 59q0 30 12 53t32.5 38.5t48.5 23.5t61 8zM486 657q-68 0 -127 -24.5t-103 -68t-69 -103.5t-25 -131t25 -131t69 -103.5t103 -68t127 -24.5t127 24.5t102.5 68.5t68.5 103.5t25 130.5q0 70 -25 130t-68.5 104t-102.5 68.5t-127 24.5zM486 475
q-22 0 -36 -11.5t-14 -31.5t13 -31.5t36 -21.5q23 10 37.5 21.5t14.5 31.5q0 21 -14.5 32t-36.5 11z" />
    <glyph glyph-name="uni2788" unicode="&#x2788;" horiz-adv-x="971" 
d="M486 762q89 0 167.5 -34t137 -92.5t92.5 -137t34 -168.5t-34 -168.5t-92.5 -137t-137 -92.5t-167.5 -34q-90 0 -168.5 34t-137 92.5t-92.5 137.5t-34 168t34 168t92.5 137.5t137 92.5t168.5 34zM486 657q-68 0 -127 -24.5t-103 -68.5t-69 -104t-25 -130q0 -71 25 -130.5
t69 -103.5t103 -68.5t127 -24.5t127 24.5t102.5 68t68.5 103.5t25 131t-25 131t-68.5 103.5t-102.5 68t-127 24.5zM496 563q34 0 64.5 -12t54 -34t37.5 -52.5t14 -66.5q0 -40 -16 -70.5t-45 -70.5l-112 -151h-132l107 144q-23 -1 -47 8q-41 14 -69 51.5t-28 89.5q0 36 14 66
t38 52t55 34t65 12zM495 461q-25 0 -43 -18t-18 -45t18 -44.5t44 -17.5t43 17.5t17 43.5q0 27 -17.5 45.5t-43.5 18.5z" />
    <glyph glyph-name="uni27F5" unicode="&#x27f5;" horiz-adv-x="1216" 
d="M1171 264h-863l-69 3l159 -159l-79 -79l-279 278v26l279 279l79 -80l-157 -157l67 3h863v-114z" />
    <glyph glyph-name="uni27F6" unicode="&#x27f6;" horiz-adv-x="1216" 
d="M1176 333v-26l-279 -278l-79 79l159 159l-69 -3h-863v114h863l66 -3l-156 157l79 80z" />
    <glyph glyph-name="uniF8FF" unicode="&#xf8ff;" horiz-adv-x="722" 
d="M99 660h524v-660h-524v660zM231 202q-2 26 -2 45v36q0 50 6 87.5t17 69.5q24 13 51 20q-24 -62 -40.5 -126.5t-24.5 -131.5h-7zM458 123q37 0 58.5 23t21.5 53q0 26 -16.5 55t-45.5 46l-24 -25q21 -20 33 -38t12 -38q0 -17 -9.5 -28t-27.5 -11q-11 0 -21 6t-21.5 21
t-24.5 40t-30 63q43 25 70 44t42.5 35.5t21 31t5.5 29.5q0 40 -27.5 61t-74.5 21q-8 0 -16.5 -0.5t-16.5 -1.5l26 55l-41 7l-33 -71q-26 -5 -52.5 -15t-50.5 -21q-14 -38 -18.5 -80t-4.5 -81q0 -51 6 -90t14 -68l42 -8q11 55 21 99.5t21 83.5t23.5 75t29.5 76q11 2 21.5 3
t19.5 1q70 0 70 -50q0 -12 -5 -22.5t-20 -24t-42.5 -31.5t-72.5 -44l-1 -6q18 -45 33 -78t31 -54.5t33.5 -32t40.5 -10.5z" />
    <glyph glyph-name="uni0414.loclBGR" horiz-adv-x="770" 
d="M747 -141h-135v141h-454v-141h-135v263h95l245 550h45l245 -550h94v-263zM262 122h247l-123 281z" />
    <glyph glyph-name="uni041B.loclBGR" horiz-adv-x="661" 
d="M647 0h-145l-172 400l-172 -400h-145l295 672h44z" />
    <glyph glyph-name="uni0410.ordn" horiz-adv-x="429" 
d="M419 244h-111l-17 45h-153l-16 -45h-112l188 424h34zM167 366h95l-48 116z" />
    <glyph glyph-name="uni0413.ordn" horiz-adv-x="349" 
d="M333 566h-173v-322h-104v416h277v-94z" />
    <glyph glyph-name="uni0415.ordn" horiz-adv-x="380" 
d="M341 566h-181v-65h137v-81h-137v-83h189v-93h-293v416h285v-94z" />
    <glyph glyph-name="uni0419.ordn" horiz-adv-x="486" 
d="M429 244h-103v225l-236 -233h-34v424h104v-222l235 230h34v-424zM352 817q0 -51 -32.5 -83.5t-83.5 -32.5q-52 0 -84 32.5t-32 83.5h80q0 -19 9.5 -29.5t26.5 -10.5q15 0 24.5 10.5t9.5 29.5h82z" />
    <glyph glyph-name="uni041C.ordn" horiz-adv-x="531" 
d="M475 244h-104v182l-89 -106h-33l-89 106v-182h-104v424h34l175 -218l176 218h34v-424z" />
    <glyph glyph-name="uni041E.ordn" horiz-adv-x="504" 
d="M251 668q46 0 87 -16.5t71.5 -45.5t48 -68.5t17.5 -85.5t-17.5 -85.5t-48 -68.5t-71.5 -45.5t-87 -16.5t-86.5 16.5t-70.5 45.5t-47.5 68.5t-17.5 85.5t17.5 85.5t47.5 68.5t70.5 45.5t86.5 16.5zM252 572q-52 0 -84.5 -33t-32.5 -87t32.5 -87t84.5 -33q25 0 46.5 8.5
t37.5 24.5t25 38t9 49q0 54 -34 87t-84 33z" />
    <glyph glyph-name="uni0423.ordn" horiz-adv-x="417" 
d="M270 339q-43 -103 -155 -103q-15 0 -30 2.5t-29 5.5v89q11 -1 19.5 -1h16.5q18 0 36.5 5t31.5 20l-146 303h119l84 -190l73 190h116z" />
    <glyph glyph-name="uni0425.ordn" horiz-adv-x="389" 
d="M251 455l135 -211h-114l-78 122l-77 -122h-115l137 211l-129 205h115l69 -118l69 118h114z" />
    <glyph glyph-name="uni042B.ordn" horiz-adv-x="605" 
d="M349 528h69q34 0 63 -10.5t50 -29t33 -45t12 -58.5q0 -33 -12 -59t-33 -44t-50 -28t-63 -10h-173v416h104v-132zM160 244h-104v416h104v-416zM349 437v-102h70q24 0 38 14t14 37t-14 37t-38 14h-70z" />
    <glyph glyph-name="uni042E.ordn" horiz-adv-x="684" 
d="M160 507h59q9 35 28.5 64.5t47.5 51t62.5 33.5t73.5 12q46 0 87 -16.5t71.5 -45.5t48 -68.5t17.5 -85.5t-17.5 -85.5t-48 -68.5t-71.5 -45.5t-87 -16.5q-41 0 -77 13t-64.5 36.5t-47.5 56t-26 71.5h-56v-169h-104v416h104v-153zM433 572q-25 0 -46.5 -8.5t-37.5 -24.5
t-25 -38t-9 -49t9 -49t25 -38t37.5 -24.5t46.5 -8.5t46 8.5t37 24.5t25 38t9 49t-9 49t-25 38t-37 24.5t-46 8.5z" />
    <glyph glyph-name="uni042F.ordn" horiz-adv-x="425" 
d="M368 244h-103v113h-47h-12l-73 -113h-116l93 145q-29 20 -45 50.5t-16 69.5q0 34 13 62t35.5 48t53.5 30.5t67 10.5h150v-416zM216 569q-29 0 -45.5 -17t-16.5 -43q0 -27 16.5 -44.5t45.5 -17.5h48v122h-48z" />
    <glyph glyph-name="uni0409.ss01" horiz-adv-x="964" 
d="M457 433h227q53 0 97.5 -16t76.5 -44.5t49.5 -68t17.5 -87.5q0 -49 -17.5 -89t-49.5 -68.5t-76.5 -44t-97.5 -15.5h-182l-172 400l-172 -400h-145l295 672h44zM508 315l86 -196h90q49 0 76 27t27 70q0 44 -27 71.5t-76 27.5h-176z" />
    <glyph glyph-name="uni0432.loclBGR" horiz-adv-x="598" 
d="M302 762q55 0 94.5 -17t65 -45t37 -63.5t11.5 -71.5q0 -50 -20 -89t-58 -65q56 -23 91.5 -71.5t35.5 -122.5q0 -53 -19 -95.5t-52.5 -72t-78.5 -45.5t-97 -16q-54 0 -98.5 16.5t-77 48t-50.5 76t-18 100.5v301q0 53 16.5 96t47.5 73t74 46.5t96 16.5zM203 342v-108
q0 -64 30.5 -94t77.5 -30q50 0 81 30t31 81q0 54 -36 87.5t-99 33.5h-85zM203 452h62q51 0 80 25.5t29 73.5q0 42 -22.5 65.5t-60.5 23.5q-40 0 -64 -27t-24 -83v-78z" />
    <glyph glyph-name="uni0433.loclBGR" horiz-adv-x="455" 
d="M221 507q39 0 72 -9.5t57.5 -27.5t38 -45t13.5 -63q0 -58 -36 -93.5t-99 -61.5l-53 -22q-23 -10 -37 -19.5t-14 -26.5q0 -21 18.5 -30.5t44.5 -9.5q41 0 75 18t64 49l68 -82q-33 -44 -86 -70t-120 -26q-40 0 -75 10t-61 29t-41 47.5t-15 65.5q0 58 37.5 94t102.5 63
l48 20q26 11 38.5 20t12.5 25q0 18 -14.5 26t-37.5 8q-61 0 -110 -46l-70 82q67 75 179 75z" />
    <glyph glyph-name="uni0453.loclBGR" horiz-adv-x="455" 
d="M221 507q39 0 72 -9.5t57.5 -27.5t38 -45t13.5 -63q0 -58 -36 -93.5t-99 -61.5l-53 -22q-23 -10 -37 -19.5t-14 -26.5q0 -21 18.5 -30.5t44.5 -9.5q41 0 75 18t64 49l68 -82q-33 -44 -86 -70t-120 -26q-40 0 -75 10t-61 29t-41 47.5t-15 65.5q0 58 37.5 94t102.5 63
l48 20q26 11 38.5 20t12.5 25q0 18 -14.5 26t-37.5 8q-61 0 -110 -46l-70 82q67 75 179 75zM409 756l-137 -185h-98l72 209h163v-24z" />
    <glyph glyph-name="uni0491.loclBGR" horiz-adv-x="455" 
d="M227 -12q-40 0 -75 10t-61 29t-41 47.5t-15 65.5q0 58 37.5 94t102.5 63l48 20q26 11 38.5 20t12.5 25q0 18 -14.5 26t-37.5 8q-61 0 -110 -46l-70 82q47 53 116 68v124h135v-127q49 -14 79 -47.5t30 -87.5q0 -58 -36 -93.5t-99 -61.5l-53 -22q-23 -10 -37 -19.5
t-14 -26.5q0 -21 18.5 -30.5t44.5 -9.5q41 0 75 18t64 49l68 -82q-33 -44 -86 -70t-120 -26z" />
    <glyph glyph-name="uni0434.loclBGR" horiz-adv-x="634" 
d="M278 506q54 0 94.5 -19t66.5 -54v62h124v-440q0 -63 -19 -109t-52.5 -77t-80.5 -46t-103 -15q-81 0 -141.5 27t-102.5 65l71 94q37 -29 75 -46.5t86 -17.5q57 0 95 28.5t38 88.5v28q-27 -30 -65.5 -45t-85.5 -15q-51 0 -95 18t-75.5 50t-49.5 77.5t-18 100.5q0 56 18 101
t50 77t75.5 49.5t94.5 17.5zM304 391q-26 0 -49.5 -8.5t-40.5 -25t-27 -40.5t-10 -55t10 -55.5t27.5 -42t40.5 -26.5t49 -9q24 0 46.5 8t40 24.5t28.5 42t11 59.5t-11 58.5t-29 40t-40.5 22.5t-45.5 7z" />
    <glyph glyph-name="uni0436.loclBGR" horiz-adv-x="845" 
d="M355 274v476h135v-476l173 221h159l-181 -227l196 -268h-153l-194 263v-263h-135v263l-194 -263h-153l196 268l-181 227h159z" />
    <glyph glyph-name="uni0437.loclBGR" horiz-adv-x="510" 
d="M231 506q51 0 89.5 -15t65 -41t39.5 -60.5t13 -73.5q0 -41 -15 -75.5t-44 -60.5q41 -26 64 -67.5t23 -96.5q0 -42 -13.5 -79.5t-41 -66t-68.5 -45.5t-96 -17q-58 0 -114 22.5t-98 72.5l70 89q28 -27 60.5 -45t70.5 -18q48 0 73.5 27.5t25.5 69.5q0 43 -28.5 68t-79.5 25
h-92v114h82q45 0 67 21t22 54q0 35 -21.5 56.5t-61.5 21.5q-36 0 -67 -16t-53 -36l-69 89q37 42 88 62.5t109 20.5z" />
    <glyph glyph-name="uni0438.loclBGR" horiz-adv-x="592" 
d="M523 218q0 -53 -17.5 -95.5t-48 -72.5t-72 -46t-89.5 -16q-49 0 -90.5 16t-72 46t-48 72.5t-17.5 95.5v277h135v-288q0 -44 26.5 -69.5t66.5 -25.5q39 0 66 25.5t27 69.5v288h134v-277z" />
    <glyph glyph-name="uni0439.loclBGR" horiz-adv-x="580" 
d="M517 218q0 -53 -17.5 -95.5t-48 -72.5t-72 -46t-89.5 -16q-49 0 -90.5 16t-72 46t-48 72.5t-17.5 95.5v277h134v-288q0 -44 27 -69.5t67 -25.5q39 0 66 25.5t27 69.5v288h134v-277zM462 748q0 -38 -12.5 -69.5t-35.5 -54.5t-54.5 -36t-69.5 -13t-70 13t-55 36t-35.5 54.5
t-12.5 69.5h106q0 -34 19 -53.5t48 -19.5t47.5 19.5t18.5 53.5h106z" />
    <glyph glyph-name="uni045D.loclBGR" horiz-adv-x="592" 
d="M523 218q0 -53 -17.5 -95.5t-48 -72.5t-72 -46t-89.5 -16q-49 0 -90.5 16t-72 46t-48 72.5t-17.5 95.5v277h135v-288q0 -44 26.5 -69.5t66.5 -25.5q39 0 66 25.5t27 69.5v288h134v-277zM346 571h-98l-137 185v24h162z" />
    <glyph glyph-name="uni043A.loclBGR" horiz-adv-x="568" 
d="M207 283l178 212h160l-186 -220l201 -275h-154l-199 273v-273h-135v750h135v-467z" />
    <glyph glyph-name="uni045C.loclBGR" horiz-adv-x="568" 
d="M524 756l-137 -185h-98l72 209h163v-24zM207 283l178 212h160l-186 -220l201 -275h-154l-199 273v-273h-135v750h135v-467z" />
    <glyph glyph-name="uni043B.loclBGR" horiz-adv-x="559" 
d="M547 0h-142l-126 280l-124 -280h-143l246 506h44z" />
    <glyph glyph-name="uni043F.loclBGR" horiz-adv-x="596" 
d="M340 506q43 0 78 -14.5t59 -40.5t37 -62.5t13 -81.5v-307h-134v289q0 43 -25 69.5t-67 26.5t-68 -26.5t-26 -69.5v-289h-135v495h124v-46q26 26 62 41.5t82 15.5z" />
    <glyph glyph-name="uni0442.loclBGR" horiz-adv-x="903" 
d="M648 506q44 0 79 -14.5t59 -40.5t36.5 -62.5t12.5 -81.5v-307h-135v288q0 45 -24 70.5t-64 25.5q-41 0 -66 -25.5t-25 -67.5v-291h-135v288q0 45 -24 70.5t-65 25.5t-65.5 -25.5t-24.5 -70.5v-288h-135v495h124v-44q25 26 60 40.5t80 14.5q50 0 86.5 -18.5t59.5 -52.5
q29 32 71 51.5t95 19.5z" />
    <glyph glyph-name="uni0447.loclBGR" horiz-adv-x="566" 
d="M494 0h-135v136q-19 -5 -40.5 -8.5t-45.5 -3.5q-50 0 -92.5 15.5t-74 45t-49.5 72.5t-18 99v139h134v-130q0 -60 30 -89t81 -29q17 0 36 3.5t39 9.5v235h135v-495z" />
    <glyph glyph-name="uni0446.loclBGR" horiz-adv-x="639" 
d="M523 171q0 -28 15 -43t41 -15h32v-254h-135v149q-43 16 -65 50q-26 -32 -65.5 -51t-90.5 -19q-44 0 -78.5 14.5t-58.5 41t-37 64t-13 82.5v305h135v-286q0 -45 25 -72t67 -27q41 0 67.5 26.5t26.5 69.5v289h134v-324z" />
    <glyph glyph-name="uni0448.loclBGR" horiz-adv-x="903" 
d="M831 0h-124v43q-26 -26 -60.5 -40.5t-79.5 -14.5q-51 0 -87.5 18.5t-59.5 52.5q-28 -32 -70 -51.5t-95 -19.5q-44 0 -79 14.5t-59 41t-36.5 63t-12.5 81.5v307h135v-288q0 -45 23.5 -71t64.5 -26t66 26t25 68v291h135v-288q0 -45 24 -71t64 -26q41 0 66 26t25 71v288h135
v-495z" />
    <glyph glyph-name="uni0449.loclBGR" horiz-adv-x="946" 
d="M831 171q0 -28 14.5 -43t40.5 -15h32v-254h-135v149q-41 15 -64 49q-25 -32 -63.5 -50.5t-88.5 -18.5q-51 0 -87.5 18.5t-59.5 52.5q-28 -32 -70 -51.5t-95 -19.5q-44 0 -79 14.5t-59 41t-36.5 63t-12.5 81.5v307h135v-288q0 -45 23.5 -71t64.5 -26t66 26t25 68v291h135
v-288q0 -45 24 -71t64 -26q41 0 66 26t25 71v288h135v-324z" />
    <glyph glyph-name="uni044C.loclBGR" horiz-adv-x="547" 
d="M203 369h87q47 0 87 -11.5t68.5 -34.5t44.5 -58t16 -81q0 -47 -16.5 -83.5t-45 -61.5t-67.5 -38t-85 -13q-48 0 -89 14.5t-71 42.5t-47 67.5t-17 90.5v292h135v-126zM203 255v-66q0 -40 24 -63t62 -23q35 0 57.5 19.5t22.5 56.5q0 38 -24.5 57t-64.5 19h-77z" />
    <glyph glyph-name="uni044A.loclBGR" horiz-adv-x="580" 
d="M236 369h88q47 0 86.5 -11.5t68 -34.5t44.5 -58t16 -81q0 -47 -16.5 -83.5t-45 -61.5t-67.5 -38t-84 -13q-48 0 -89 14.5t-71 42.5t-47 67.5t-17 90.5v178h-102v114h236v-126zM236 254v-65q0 -40 24.5 -63t62.5 -23q35 0 57 19.5t22 56.5q0 38 -24.5 56.5t-63.5 18.5h-78
z" />
    <glyph glyph-name="uni044B.loclBGR" horiz-adv-x="803" 
d="M203 369h87q47 0 87 -11.5t68.5 -34.5t44.5 -58t16 -81q0 -47 -16.5 -83.5t-45 -61.5t-67.5 -38t-85 -13q-48 0 -89 14.5t-71 42.5t-47 67.5t-17 90.5v292h135v-126zM731 0h-135v495h135v-495zM203 255v-66q0 -40 24 -63t62 -23q35 0 57.5 19.5t22.5 56.5q0 38 -24.5 57
t-64.5 19h-77z" />
    <glyph glyph-name="uni044E.loclBGR" horiz-adv-x="864" 
d="M207 314h95q11 42 35 77t58 60.5t75.5 40t88.5 14.5q55 0 103.5 -20t84.5 -54.5t57 -82t21 -102.5t-21 -102t-57 -82t-84.5 -55t-103.5 -20q-49 0 -93 16t-78.5 44t-57.5 66.5t-32 84.5h-91v-199h-135v750h135v-436zM561 383q-57 0 -92.5 -38.5t-35.5 -97.5t35.5 -97
t92.5 -38q27 0 50 10t40.5 28t27 43t9.5 54t-9.5 54t-27 43t-40.5 28.5t-50 10.5z" />
    <glyph glyph-name="uni0431.loclSRB" horiz-adv-x="586" 
d="M484 636h-231q-18 0 -18 -13q0 -8 4.5 -13.5t14.5 -13.5l176 -144q59 -47 88.5 -99t29.5 -118q0 -55 -20.5 -100.5t-55.5 -77.5t-81 -50t-98 -18q-54 0 -100 19t-80.5 52t-54 77t-19.5 95q0 44 15 83t41 69t61.5 50t76.5 28l-70 57q-70 59 -70 121q0 49 34.5 79.5
t88.5 30.5h268v-114zM295 349q-25 0 -46.5 -8.5t-37.5 -24.5t-25.5 -37.5t-9.5 -47.5t9.5 -47.5t25.5 -37.5t37.5 -25t46.5 -9t46.5 9t37.5 25t25.5 37.5t9.5 47.5t-9.5 47.5t-25.5 37.5t-37.5 24.5t-46.5 8.5z" />
    <glyph glyph-name="uni0438.loclSRB" horiz-adv-x="599" 
d="M528 0h-135v252l-186 -172v-80h-135v495h135v-255l186 171v84h135v-495z" />
    <glyph glyph-name="uni0430.ordn" horiz-adv-x="371" 
d="M183 565q65 0 103 -34t38 -103v-184h-94v24q-17 -15 -39 -23.5t-51 -8.5q-54 0 -81 29t-27 69q0 45 32.5 68.5t89.5 23.5h67v11q0 19 -11.5 30.5t-38.5 11.5q-23 0 -42 -9t-41 -24l-42 67q58 52 137 52zM172 310q20 0 34.5 12.5t14.5 35.5v9h-49q-17 0 -26 -8t-9 -21
q0 -28 35 -28z" />
    <glyph glyph-name="uni0433.ordn" horiz-adv-x="303" 
d="M291 472h-138v-228h-103v315h241v-87z" />
    <glyph glyph-name="uni0435.ordn" horiz-adv-x="377" 
d="M197 565q34 0 62 -12t47.5 -32t30 -46.5t10.5 -56.5q0 -14 -2 -26t-5 -21h-210q8 -26 28 -38t48 -12q20 0 39.5 6.5t39.5 21.5l47 -66q-25 -21 -57 -34t-70 -13t-70.5 12.5t-55.5 35t-36 52.5t-13 65t13 65t35.5 52t53 34.5t65.5 12.5zM192 486q-23 0 -40 -13t-23 -39
h122q-2 26 -19 39t-40 13z" />
    <glyph glyph-name="uni0439.ordn" horiz-adv-x="408" 
d="M357 244h-103v141l-171 -149h-33v322h103v-142l172 149h32v-321zM322 715q0 -50 -32 -82.5t-83 -32.5t-83 32.5t-32 82.5h79q0 -18 10 -29t26 -11t26 11t10 29h79z" />
    <glyph glyph-name="uni043C.ordn" horiz-adv-x="462" 
d="M411 244h-103v119l-61 -66h-34l-60 65v-118h-103v321h34l146 -159l149 159h32v-321z" />
    <glyph glyph-name="uni043E.ordn" horiz-adv-x="401" 
d="M200 565q35 0 66 -12.5t54.5 -34.5t37 -52t13.5 -65t-13.5 -65.5t-37 -52.5t-54.5 -34.5t-66 -12.5t-66 12.5t-54 34.5t-36.5 52.5t-13.5 65.5t13.5 65t36.5 52t54 34.5t66 12.5zM201 472q-31 0 -49.5 -19.5t-18.5 -51.5t18.5 -51.5t49.5 -19.5q30 0 48.5 20t18.5 51
q0 32 -18.5 51.5t-48.5 19.5z" />
    <glyph glyph-name="uni0443.ordn" horiz-adv-x="367" 
d="M212 225q-23 -52 -54.5 -77t-79.5 -25q-30 0 -59 8v87q11 -1 19.5 -1.5t16.5 -0.5q19 0 35 6.5t27 31.5l5 12l-114 293h110l62 -183l70 183h109z" />
    <glyph glyph-name="uni0445.ordn" horiz-adv-x="356" 
d="M233 405l116 -161h-115l-57 87l-57 -87h-114l114 161l-107 153h113l51 -78l50 78h114z" />
    <glyph glyph-name="uni044B.ordn" horiz-adv-x="538" 
d="M153 488h49q29 0 54 -8t44 -23.5t29.5 -38t10.5 -52.5t-10.5 -52.5t-29.5 -38t-44 -23.5t-54 -8h-152v314h103v-70zM154 404v-76h36q21 0 34.5 8.5t13.5 29.5q0 20 -13.5 29t-34.5 9h-36zM487 244h-103v314h103v-314z" />
    <glyph glyph-name="uni044E.ordn" horiz-adv-x="564" 
d="M153 449h50q15 51 59 83.5t101 32.5q35 0 66 -12.5t54.5 -34.5t37 -52t13.5 -65t-13.5 -65.5t-37 -52.5t-54.5 -34.5t-66 -12.5q-60 0 -104.5 34.5t-57.5 90.5h-48v-117h-103v314h103v-109zM361 471q-29 0 -48 -19.5t-19 -50.5t19 -50.5t48 -19.5q28 0 48.5 19t20.5 51
t-20 51t-49 19z" />
    <glyph glyph-name="uni044F.ordn" horiz-adv-x="386" 
d="M336 244h-104v69h-45l-57 -69h-115l76 97q-21 16 -33 39.5t-12 54.5q0 30 11 53.5t29.5 39t43.5 23.5t54 8h152v-315zM196 475q-22 0 -35.5 -9.5t-13.5 -30.5t13.5 -29.5t35.5 -8.5h36v78h-36z" />
    <glyph glyph-name="uni0433.loclBGR.ordn" horiz-adv-x="303" 
d="M149 566q52 0 85.5 -26t33.5 -73q0 -38 -23.5 -59.5t-65.5 -37.5l-32 -12q-11 -5 -17 -9t-6 -13q0 -19 28 -19q20 0 44 11t44 28l47 -58q-23 -29 -58 -45.5t-76 -16.5q-27 0 -50 7t-40 20.5t-27 33t-10 44.5q0 40 24.5 59.5t65.5 34.5l32 12q11 5 17 9t6 12q0 17 -25 17
q-17 0 -35.5 -7.5t-33.5 -21.5l-48 60q22 24 53 37t67 13z" />
    <glyph glyph-name="uni0439.loclBGR.ordn" horiz-adv-x="404" 
d="M354 388q0 -35 -11.5 -63t-32 -47.5t-48.5 -30.5t-60 -11t-60 11t-48.5 30.5t-32 47.5t-11.5 63v170h103v-176q0 -23 14 -37t35 -14t34.5 14t13.5 37v176h104v-170zM317 715q0 -50 -32 -82.5t-83 -32.5t-83 32.5t-32 82.5h79q0 -18 9.5 -29t26.5 -11q16 0 25.5 11t9.5 29
h80z" />
    <glyph glyph-name="uni044E.loclBGR.ordn" horiz-adv-x="564" 
d="M153 449h51q15 51 58.5 83.5t100.5 32.5q35 0 66 -12.5t54.5 -34.5t37 -52t13.5 -65t-13.5 -65.5t-37 -52.5t-54.5 -34.5t-66 -12.5q-60 0 -104 34.5t-58 90.5h-48v-117h-103v473h103v-268zM361 471q-29 0 -48 -19.5t-19 -50.5t18.5 -50.5t47.5 -19.5t49 19.5t20 50.5
t-20 50.5t-48 19.5z" />
    <glyph glyph-name="uni0430.ss01.ordn" horiz-adv-x="418" 
d="M181 565q30 0 53.5 -10.5t39.5 -29.5v34h93v-315h-93v32q-33 -39 -92 -39q-34 0 -62 12.5t-48 34t-31 51.5t-11 66t11 66t31.5 51.5t48 34t60.5 12.5zM200 472q-26 0 -46 -17.5t-20 -52.5t19.5 -53.5t47.5 -18.5q24 0 45 16.5t21 54.5t-20.5 54.5t-46.5 16.5z" />
    <glyph glyph-name="uni0443.ss01.ordn" horiz-adv-x="408" 
d="M357 287q0 -78 -43.5 -121t-117.5 -43q-47 0 -83 16.5t-63 40.5l52 72q22 -17 42.5 -26.5t45.5 -9.5q28 0 46 14.5t18 51.5v16q-33 -28 -80 -28q-53 0 -85.5 35.5t-32.5 93.5v160h103v-145q0 -23 13.5 -37t34.5 -14t34 14t13 36v146h103v-272z" />
    <glyph glyph-name="uni0430.ss01" horiz-adv-x="634" 
d="M279 506q51 0 92 -18.5t67 -53.5v61h124v-495h-126v57q-26 -33 -66.5 -51t-90.5 -18q-52 0 -96 19.5t-76 54t-50 82t-18 103.5t18 103.5t49.5 82t75.5 54t97 19.5zM303 384q-26 0 -49 -9.5t-40.5 -27.5t-27.5 -43.5t-10 -56.5q0 -32 10 -57t27 -42.5t40.5 -27t49.5 -9.5
q23 0 45.5 8t40.5 24.5t29 42t11 61.5q0 35 -11 61t-28.5 43t-40 25t-46.5 8z" />
    <glyph glyph-name="uni0434.ss01" horiz-adv-x="650" 
d="M628 -141h-135v141h-335v-141h-135v255h78l203 392h44l202 -392h78v-255zM241 114h170l-85 180z" />
    <glyph glyph-name="uni0443.ss01" horiz-adv-x="596" 
d="M529 50q0 -57 -17 -102t-48 -76t-74.5 -47.5t-97.5 -16.5q-69 0 -128.5 25.5t-101.5 66.5l71 94q35 -30 68.5 -47t76.5 -17q24 0 45.5 6t37 19t24.5 34t9 50v30q-26 -25 -60.5 -38.5t-76.5 -13.5t-76 14.5t-58 41t-37 63t-13 81.5v278h135v-259q0 -44 25 -70.5t67 -26.5
t68 26t26 70v260h135v-445z" />
    <glyph glyph-name="uni045E.ss01" horiz-adv-x="596" 
d="M529 50q0 -57 -17 -102t-48 -76t-74.5 -47.5t-97.5 -16.5q-69 0 -128.5 25.5t-101.5 66.5l71 94q35 -30 68.5 -47t76.5 -17q24 0 45.5 6t37 19t24.5 34t9 50v30q-26 -25 -60.5 -38.5t-76.5 -13.5t-76 14.5t-58 41t-37 63t-13 81.5v278h135v-259q0 -44 25 -70.5t67 -26.5
t68 26t26 70v260h135v-445zM473 748q0 -38 -12.5 -69.5t-35.5 -54.5t-54.5 -36t-69.5 -13t-70 13t-55 36t-35.5 54.5t-12.5 69.5h106q0 -34 19 -53.5t48 -19.5t47.5 19.5t18.5 53.5h106z" />
    <glyph glyph-name="uni0444.ss01" horiz-adv-x="989" 
d="M562 446q26 29 63.5 44.5t84.5 15.5q52 0 96.5 -19.5t76.5 -54t50 -81.5t18 -103t-18 -103.5t-50 -82.5t-76.5 -54.5t-96.5 -19.5q-46 0 -84 15.5t-64 44.5v-228h-134v228q-26 -29 -64 -44.5t-85 -15.5q-52 0 -96 19.5t-76 54.5t-50 82.5t-18 103.5t18 103t49.5 81.5
t75.5 54t97 19.5q95 0 149 -60v304h134v-304zM686 384q-24 0 -46.5 -8t-40 -24.5t-28.5 -42t-11 -61.5q0 -35 10.5 -61t28.5 -43t40.5 -25t46.5 -8q26 0 49 9.5t40.5 27t27.5 42.5t10 57q0 31 -10 56.5t-27.5 43.5t-40.5 27.5t-49 9.5zM303 384q-26 0 -49.5 -9.5
t-40.5 -27.5t-27 -43.5t-10 -56.5q0 -32 10 -57t27.5 -42.5t40.5 -27t49 -9.5q24 0 46.5 8t40 25t28.5 43t11 61q0 36 -11 61.5t-29 42t-40.5 24.5t-45.5 8z" />
    <glyph glyph-name="uni0459.ss01" horiz-adv-x="799" 
d="M367 369h183q45 0 83 -12.5t66 -36t44 -58t16 -77.5q0 -44 -16 -78.5t-44 -58t-66 -36t-83 -12.5h-149l-122 279l-124 -279h-143l246 506h44zM422 254l67 -140h52q35 0 57.5 17.5t22.5 51.5t-22.5 52.5t-57.5 18.5h-119z" />
    <glyph glyph-name="uni04EF.ss01" horiz-adv-x="596" 
d="M529 50q0 -57 -17 -102t-48 -76t-74.5 -47.5t-97.5 -16.5q-69 0 -128.5 25.5t-101.5 66.5l71 94q35 -30 68.5 -47t76.5 -17q24 0 45.5 6t37 19t24.5 34t9 50v30q-26 -25 -60.5 -38.5t-76.5 -13.5t-76 14.5t-58 41t-37 63t-13 81.5v278h135v-259q0 -44 25 -70.5t67 -26.5
t68 26t26 70v260h135v-445zM452 622h-302v106h302v-106z" />
    <glyph glyph-name="uni04F3.ss01" horiz-adv-x="596" 
d="M529 50q0 -57 -17 -102t-48 -76t-74.5 -47.5t-97.5 -16.5q-69 0 -128.5 25.5t-101.5 66.5l71 94q35 -30 68.5 -47t76.5 -17q24 0 45.5 6t37 19t24.5 34t9 50v30q-26 -25 -60.5 -38.5t-76.5 -13.5t-76 14.5t-58 41t-37 63t-13 81.5v278h135v-259q0 -44 25 -70.5t67 -26.5
t68 26t26 70v260h135v-445zM562 756l-121 -185h-91l72 209h140v-24zM366 756l-121 -185h-91l72 209h140v-24z" />
    <glyph glyph-name="zero.lf" horiz-adv-x="635" 
d="M317 672q67 0 116 -25.5t81 -71t48 -107t16 -133.5q0 -71 -15.5 -134.5t-48 -110.5t-81.5 -74.5t-116 -27.5t-116 27.5t-81.5 74.5t-48 110.5t-15.5 134.5q0 72 16 133.5t48 107t81.5 71t115.5 25.5zM318 547q-66 0 -94.5 -55t-28.5 -158q0 -104 29 -162.5t94 -58.5
t93.5 58.5t28.5 162.5q0 103 -28.5 158t-93.5 55z" />
    <glyph glyph-name="one.lf" horiz-adv-x="401" 
d="M310 0h-135v500l-125 -40l-32 119l247 81h45v-660z" />
    <glyph glyph-name="two.lf" horiz-adv-x="584" 
d="M285 672q49 0 91 -16t72.5 -44t47.5 -67t17 -84q0 -36 -11 -69t-30 -64t-45 -61.5t-55 -61.5l-86 -90h246v-115l-487 -1v29l236 256q47 50 70.5 88t23.5 78q0 42 -25 69.5t-67 27.5q-43 0 -68 -28t-25 -73q0 -9 1 -21.5t4 -26.5h-137q-4 14 -5.5 29t-1.5 27q0 41 16 80
t46 70t73.5 49.5t98.5 18.5z" />
    <glyph glyph-name="three.lf" horiz-adv-x="549" 
d="M491 624l-146 -206q31 -8 60 -25.5t51 -43t35 -59t13 -74.5q0 -51 -19.5 -93t-53.5 -72t-79.5 -46.5t-96.5 -16.5q-43 0 -80 11.5t-67 31.5t-53.5 47.5t-39.5 59.5l94 66q28 -42 61 -66.5t81 -24.5q49 0 81.5 27t32.5 75q0 46 -34.5 70.5t-100.5 24.5h-82v35l138 193
h-221v122h426v-36z" />
    <glyph glyph-name="four.lf" horiz-adv-x="577" 
d="M479 222h84v-114h-84v-108h-135v108h-328v36l205 516h138l-175 -438h160v185h135v-185z" />
    <glyph glyph-name="five.lf" horiz-adv-x="564" 
d="M473 538h-253v-120q38 8 75 8q41 0 81 -13.5t71.5 -39.5t51 -65t19.5 -91q0 -51 -20 -93.5t-54 -72.5t-80 -46.5t-98 -16.5q-44 0 -81.5 11.5t-68.5 31.5t-55 47.5t-40 59.5l94 66q28 -43 62 -67t85 -24q50 0 84 26.5t34 75.5q0 48 -34.5 71.5t-100.5 23.5h-154v350h382
v-122z" />
    <glyph glyph-name="six.lf" horiz-adv-x="562" 
d="M301 448h4q42 0 81 -16.5t70 -46t49.5 -70.5t18.5 -91q0 -51 -19.5 -94.5t-53 -75t-77.5 -49t-93 -17.5q-48 0 -92 17.5t-77.5 49t-53 75t-19.5 95.5q0 30 6.5 55.5t18.5 49.5t28.5 49t36.5 53l165 228h160zM281 335q-47 0 -78 -31.5t-31 -79.5q0 -24 8.5 -44.5t23 -35.5
t34.5 -23.5t43 -8.5t43 8.5t34.5 23.5t23 35.5t8.5 44.5t-8.5 44.5t-23 35t-34.5 23t-43 8.5z" />
    <glyph glyph-name="seven.lf" horiz-adv-x="525" 
d="M502 624l-302 -624h-147l268 538h-283v122h464v-36z" />
    <glyph glyph-name="eight.lf" horiz-adv-x="588" 
d="M294 672q45 0 85 -11.5t69 -33.5t46 -55t17 -75q0 -52 -26 -90t-73 -65q57 -23 93 -63.5t36 -102.5q0 -44 -18.5 -78.5t-51 -59t-78 -37.5t-99.5 -13t-99.5 13t-78.5 37.5t-51.5 59t-18.5 78.5q0 62 35.5 102.5t93.5 63.5q-46 27 -72.5 64t-26.5 91q0 42 17 75t46.5 55
t69 33.5t85.5 11.5zM407 181q0 40 -31.5 62.5t-81.5 41.5q-51 -19 -82 -41.5t-31 -62.5q0 -36 28.5 -59.5t85.5 -23.5t84.5 23.5t27.5 59.5zM295 563q-40 0 -66.5 -18.5t-26.5 -53.5q0 -32 25 -52t67 -40q42 20 67 40t25 53q0 34 -26.5 52.5t-64.5 18.5z" />
    <glyph glyph-name="nine.lf" horiz-adv-x="562" 
d="M282 672q48 0 92 -17.5t77.5 -49t53 -75t19.5 -95.5q0 -30 -6.5 -55.5t-18.5 -49.5t-28.5 -49t-36.5 -53l-165 -228h-159l152 212h-4q-42 0 -81 16.5t-70 46t-49.5 70.5t-18.5 91q0 51 20 94.5t53.5 75t77.5 49t92 17.5zM281 548q-23 0 -43 -8.5t-34.5 -23.5t-23 -35.5
t-8.5 -44.5t8.5 -44.5t23 -35t34.5 -23t43 -8.5q47 0 78 31.5t31 79.5q0 24 -8.5 44.5t-23 35.5t-34.5 23.5t-43 8.5z" />
    <glyph glyph-name="zero.slash.lf" horiz-adv-x="635" 
d="M317 672q67 0 116 -25.5t81 -71t48 -107t16 -133.5q0 -71 -15.5 -134.5t-48 -110.5t-81.5 -74.5t-116 -27.5t-116 27.5t-81.5 74.5t-48 110.5t-15.5 134.5q0 72 16 133.5t48 107t81.5 71t115.5 25.5zM318 555q-68 0 -99.5 -57.5t-31.5 -163.5q0 -31 3 -59l226 224
q-34 56 -98 56zM449 334q0 28 -3 52l-225 -225q34 -56 97 -56q67 0 99 62t32 167z" />
    <glyph glyph-name="zero.slash" horiz-adv-x="659" 
d="M329 548q60 0 112.5 -21.5t91.5 -59t62 -89t23 -110.5t-23 -110.5t-62 -89.5t-91.5 -59.5t-112.5 -21.5t-112 21.5t-91 59.5t-61.5 89.5t-22.5 110.5t22.5 110.5t61.5 89t91 59t112 21.5zM486 268q0 42 -17 76l-219 -219q35 -20 79 -20q33 0 61.5 12t50 33.5t33.5 51.5
t12 66zM329 431q-34 0 -62.5 -12t-49.5 -34t-32.5 -51.5t-11.5 -65.5q0 -39 14 -72l217 217q-17 8 -36 13t-39 5z" />
    <glyph glyph-name="zero.tf" 
d="M280 672q62 0 108 -24.5t76 -69t44.5 -106.5t14.5 -137q0 -74 -14.5 -137.5t-44.5 -110t-75.5 -73t-108.5 -26.5t-108.5 26.5t-75.5 73t-44.5 110t-14.5 137.5q0 75 14.5 137t44.5 106.5t76 69t108 24.5zM280 547q-56 0 -80 -53t-24 -160t24 -164t80 -57t80.5 57
t24.5 164t-24 160t-81 53z" />
    <glyph glyph-name="one.tf" 
d="M531 0h-468v115h176v388l-157 -43l-32 119l280 81h44v-545h157v-115z" />
    <glyph glyph-name="two.tf" 
d="M279 672q49 0 91 -16t72.5 -44t47.5 -67t17 -84q0 -36 -11 -69t-30 -64t-45 -61.5t-55 -61.5l-86 -90h246v-115l-487 -1v29l236 256q47 50 70.5 88t23.5 78q0 42 -25 69.5t-67 27.5q-43 0 -68 -28t-25 -73q0 -9 1 -21.5t4 -26.5h-137q-4 14 -5.5 29t-1.5 27q0 41 16 80
t46 70t73.5 49.5t98.5 18.5z" />
    <glyph glyph-name="three.tf" 
d="M491 624l-146 -206q31 -8 59.5 -25.5t50.5 -43t35.5 -59t13.5 -75.5q0 -50 -19.5 -92t-53 -72t-79 -46.5t-96.5 -16.5q-43 0 -80 11.5t-67.5 31.5t-54 47.5t-39.5 59.5l94 66q28 -42 61 -66.5t81 -24.5q50 0 82.5 27t32.5 75q0 46 -34.5 70.5t-101.5 24.5h-82v35l138 193
h-221v122h426v-36z" />
    <glyph glyph-name="four.tf" 
d="M469 222h69v-114h-69v-108h-135v108h-321v36l175 516h140l-148 -438h154v185h135v-185z" />
    <glyph glyph-name="five.tf" 
d="M475 538h-253v-121q18 4 36.5 6.5t38.5 2.5q41 0 81 -13.5t71.5 -39.5t51 -65t19.5 -91q0 -51 -20 -93.5t-54 -72.5t-80 -46.5t-98 -16.5q-44 0 -81.5 11.5t-68.5 31.5t-55 47.5t-40 59.5l94 66q27 -43 61.5 -67t85.5 -24q50 0 84 26.5t34 75.5q0 95 -136 95h-154v350
h383v-122z" />
    <glyph glyph-name="six.tf" 
d="M299 448h5q42 0 81 -16.5t69.5 -46t49 -70.5t18.5 -91q0 -51 -19.5 -94.5t-53 -75t-77.5 -49t-92 -17.5q-49 0 -93 17.5t-77.5 49t-53 75t-19.5 95.5q0 30 6.5 55.5t18.5 49.5t28.5 49t37.5 53l164 228h160zM280 335q-47 0 -78 -31.5t-31 -79.5q0 -24 8.5 -44.5t23 -35.5
t34.5 -23.5t43 -8.5t43 8.5t34.5 23.5t23 35.5t8.5 44.5t-8.5 44.5t-23 35t-34.5 23t-43 8.5z" />
    <glyph glyph-name="seven.tf" 
d="M526 624l-303 -624h-146l268 538h-283v122h464v-36z" />
    <glyph glyph-name="eight.tf" 
d="M280 672q45 0 85 -11.5t69 -33.5t46 -55t17 -75q0 -52 -25.5 -89.5t-73.5 -65.5q57 -23 92.5 -63.5t35.5 -102.5q0 -44 -18.5 -78.5t-51 -59t-77.5 -37.5t-99 -13t-99.5 13t-78.5 37.5t-51.5 59t-18.5 78.5q0 61 35 101.5t94 64.5q-47 27 -73 64t-26 91q0 42 17 75t46 55
t69 33.5t86 11.5zM393 181q0 39 -31.5 62t-82.5 42q-50 -18 -81 -41t-31 -63q0 -35 28 -59t85 -24t85 24t28 59zM280 563q-39 0 -65.5 -18.5t-26.5 -53.5q0 -32 25 -52t67 -40q42 20 67 40t25 53t-26.5 52t-65.5 19z" />
    <glyph glyph-name="nine.tf" 
d="M280 672q48 0 92 -17.5t77.5 -49t53 -75t19.5 -95.5q0 -30 -6.5 -55.5t-18.5 -49.5t-28.5 -49t-36.5 -53l-165 -228h-159l152 212h-4q-42 0 -81 16.5t-70 46t-49.5 70.5t-18.5 91q0 51 20 94.5t53.5 75t77.5 49t92 17.5zM280 548q-23 0 -43 -8.5t-34.5 -23.5t-23 -35.5
t-8.5 -44.5t8.5 -44.5t23 -35t34.5 -23t43 -8.5t43 8.5t34.5 23.5t23 35t8.5 44t-8.5 44.5t-23 35.5t-34.5 23.5t-43 8.5z" />
    <glyph glyph-name="zero.slash.tf" 
d="M280 672q62 0 108 -24.5t76 -69t44.5 -106.5t14.5 -137q0 -74 -14.5 -137.5t-44.5 -110t-75.5 -73t-108.5 -26.5t-108.5 26.5t-75.5 73t-44.5 110t-14.5 137.5q0 75 14.5 137t44.5 106.5t76 69t108 24.5zM280 557q-60 0 -87.5 -56.5t-27.5 -166.5v-23.5t1 -22.5l204 205
q-29 64 -90 64zM394 334v18t-1 17l-202 -202q27 -64 89 -64q60 0 87 60.5t27 170.5z" />
    <glyph glyph-name="zero.tosf" 
d="M279 548q54 0 101.5 -20.5t82 -57.5t54.5 -88.5t20 -113.5t-20 -113.5t-54.5 -89t-82 -58t-101.5 -20.5t-101 20.5t-81.5 58t-54.5 89t-20 113.5t20 113.5t54.5 88.5t81.5 57.5t101 20.5zM280 424q-55 0 -87 -41t-32 -115t32 -115.5t86 -41.5q55 0 87.5 42t32.5 115
t-32.5 114.5t-86.5 41.5z" />
    <glyph glyph-name="one.tosf" 
d="M369 114h163v-114h-475v114h177v302h-165v121h300v-423z" />
    <glyph glyph-name="two.tosf" 
d="M276 549q49 0 90 -15t71 -41.5t46.5 -62.5t16.5 -78q0 -34 -11 -63t-30.5 -56t-47.5 -52t-62 -51l-21 -16h191v-114h-489v29l207 156q27 20 50 38.5t39.5 37t26 38t9.5 42.5q0 35 -23.5 59.5t-65.5 24.5q-44 0 -67 -25.5t-23 -63.5q0 -8 1 -18t3 -23h-133
q-4 14 -5.5 28.5t-1.5 26.5q0 37 16 73t45.5 64t72 45t95.5 17z" />
    <glyph glyph-name="three.tosf" 
d="M491 501l-145 -203q31 -9 59.5 -26t50.5 -43t35 -59.5t13 -75.5q0 -51 -19.5 -92.5t-53.5 -71.5t-79 -46.5t-96 -16.5q-86 0 -147.5 42t-93.5 107l94 67q28 -43 61 -67.5t81 -24.5q50 0 82.5 27t32.5 75q0 47 -34.5 72t-101.5 25h-80v35l136 191h-221v121h426v-36z" />
    <glyph glyph-name="four.tosf" 
d="M468 114h69v-114h-69v-121h-135v121h-321v36l169 501h141l-143 -423h154v186h135v-186z" />
    <glyph glyph-name="five.tosf" 
d="M476 416h-253v-119q36 9 75 9q41 0 81 -13.5t71.5 -40t51 -66t19.5 -91.5q0 -51 -20 -93t-54 -72t-80 -46.5t-98 -16.5q-88 0 -151 42t-94 107l93 67q28 -43 62.5 -67.5t85.5 -24.5q50 0 84 27t34 76q0 47 -34.5 71.5t-101.5 24.5h-154v347h383v-121z" />
    <glyph glyph-name="six.tosf" 
d="M299 448h5q42 0 81 -16.5t69.5 -46t49 -70.5t18.5 -91q0 -51 -19.5 -94.5t-53 -75t-77.5 -49t-92 -17.5q-49 0 -93 17.5t-77.5 49t-53 75t-19.5 95.5q0 30 6.5 55.5t18.5 49.5t28.5 49t37.5 53l164 228h160zM280 335q-47 0 -78 -31.5t-31 -79.5q0 -24 8.5 -44.5t23 -35.5
t34.5 -23.5t43 -8.5t43 8.5t34.5 23.5t23 35.5t8.5 44.5t-8.5 44.5t-23 35t-34.5 23t-43 8.5z" />
    <glyph glyph-name="seven.tosf" 
d="M526 501l-302 -622h-147l268 537h-283v121h464v-36z" />
    <glyph glyph-name="eight.tosf" 
d="M280 672q45 0 85 -11.5t69 -33.5t46 -55t17 -75q0 -52 -25.5 -89.5t-73.5 -65.5q57 -23 92.5 -63.5t35.5 -102.5q0 -44 -18.5 -78.5t-51 -59t-77.5 -37.5t-99 -13t-99.5 13t-78.5 37.5t-51.5 59t-18.5 78.5q0 61 35 101.5t94 64.5q-47 27 -73 64t-26 91q0 42 17 75t46 55
t69 33.5t86 11.5zM393 181q0 39 -31.5 62t-82.5 42q-50 -18 -81 -41t-31 -63q0 -35 28 -59t85 -24t85 24t28 59zM280 563q-39 0 -65.5 -18.5t-26.5 -53.5q0 -32 25 -52t67 -40q42 20 67 40t25 53t-26.5 52t-65.5 19z" />
    <glyph glyph-name="nine.tosf" 
d="M280 549q48 0 92 -17.5t77.5 -49t53 -75t19.5 -95.5q0 -29 -6 -54t-18 -49.5t-28.5 -49.5t-37.5 -54l-163 -226h-160l151 210h-4q-42 0 -81 16.5t-70 46t-49.5 71t-18.5 91.5q0 51 20 94.5t53.5 74.5t77.5 48.5t92 17.5zM280 425q-46 0 -77.5 -31.5t-31.5 -80.5
q0 -24 8.5 -44.5t23 -35t34.5 -23t43 -8.5t43 8.5t34.5 23.5t23 35t8.5 44t-8.5 44.5t-23 35.5t-34.5 23.5t-43 8.5z" />
    <glyph glyph-name="zero.slash.tosf" 
d="M279 548q54 0 101.5 -20.5t82 -57.5t54.5 -88.5t20 -113.5t-20 -113.5t-54.5 -89t-82 -58t-101.5 -20.5t-101 20.5t-81.5 58t-54.5 89t-20 113.5t20 113.5t54.5 88.5t81.5 57.5t101 20.5zM410 268q0 17 -2 32t-5 29l-201 -201q33 -27 78 -27q60 0 95 46t35 121zM280 434
q-60 0 -95 -45.5t-35 -120.5q0 -30 6 -55l197 197q-32 24 -73 24z" />
    <glyph glyph-name="zero.dnom" horiz-adv-x="421" 
d="M211 425q43 0 74.5 -16.5t52.5 -45t31.5 -67.5t10.5 -84t-10.5 -85t-31.5 -70t-52.5 -47t-74.5 -17t-74.5 17t-52.5 47t-31.5 70t-10.5 85t10.5 84t31.5 67.5t52.5 45t74.5 16.5zM210 333q-66 0 -66 -122q0 -61 16 -93.5t50 -32.5q35 0 51 32.5t16 93.5q0 122 -67 122z
" />
    <glyph glyph-name="one.dnom" horiz-adv-x="370" 
d="M245 91h86v-90h-289v90h103v236h-94v90h194v-326z" />
    <glyph glyph-name="two.dnom" horiz-adv-x="385" 
d="M187 425q32 0 59 -10t47 -28t31.5 -43t11.5 -55q0 -24 -7 -45t-19 -41t-28.5 -39t-35.5 -39l-33 -34h133v-90l-313 -1v21l149 162q27 30 39.5 52.5t12.5 44.5q0 24 -13.5 38.5t-34.5 14.5t-35 -14.5t-14 -40.5q0 -6 0.5 -13t1.5 -16h-99q-2 10 -3 18.5t-1 16.5
q0 26 10.5 51.5t30 45.5t47.5 32t63 12z" />
    <glyph glyph-name="three.dnom" horiz-adv-x="360" 
d="M319 390l-85 -125q17 -6 33.5 -17t29.5 -26.5t21 -36.5t8 -46q0 -32 -12.5 -58.5t-34 -46t-51 -30.5t-62.5 -11q-55 0 -95 27t-60 71l69 49q17 -27 36.5 -41t45.5 -14t43.5 14t17.5 40q0 48 -76 48h-48v25l78 115h-133v90h275v-27z" />
    <glyph glyph-name="four.dnom" horiz-adv-x="375" 
d="M316 147h49v-82h-49v-64h-92v64h-212v26l124 326h103l-104 -270h89v109h92v-109z" />
    <glyph glyph-name="five.dnom" horiz-adv-x="370" 
d="M311 327h-156v-59q22 5 41 5q26 0 51 -8.5t45 -25t32 -41.5t12 -57q0 -33 -12.5 -60t-34.5 -46.5t-52 -30.5t-64 -11q-56 0 -97 27t-61 71l69 49q18 -27 38 -41t47 -14t46 13.5t19 39.5q0 49 -77 49h-97v230h251v-90z" />
    <glyph glyph-name="six.dnom" horiz-adv-x="374" 
d="M214 289q24 -2 47 -13t41.5 -29.5t30 -44.5t11.5 -57q0 -33 -13 -61t-35 -48.5t-50.5 -31.5t-59.5 -11t-59 11.5t-49.5 31.5t-34.5 48.5t-13 62.5q0 36 15 65t42 64l103 141h117zM187 205q-24 0 -41 -17t-17 -43t17 -43t41 -17t41 17t17 43t-17 43t-41 17z" />
    <glyph glyph-name="seven.dnom" horiz-adv-x="346" 
d="M329 390l-180 -389h-109l156 326h-163v90h296v-27z" />
    <glyph glyph-name="eight.dnom" horiz-adv-x="388" 
d="M194 425q60 0 100.5 -29.5t40.5 -83.5q0 -32 -15 -55.5t-42 -40.5q35 -15 55 -40t20 -62q0 -29 -12 -51t-33.5 -38t-50.5 -24t-63 -8t-63 8t-50.5 24t-33.5 38t-12 51q0 36 19.5 61.5t54.5 40.5q-26 17 -41 40.5t-15 55.5q0 27 11 48t30 35.5t44.5 22t55.5 7.5zM254 118
q0 21 -16.5 33.5t-44.5 23.5q-28 -11 -44 -23.5t-16 -33.5q0 -19 14.5 -31.5t45.5 -12.5t46 12.5t15 31.5zM194 345q-20 0 -34.5 -10t-14.5 -28q0 -17 13 -28t36 -22q23 11 36.5 22t13.5 28q0 18 -14.5 28t-35.5 10z" />
    <glyph glyph-name="nine.dnom" horiz-adv-x="374" 
d="M187 425q31 0 59.5 -11.5t50 -31.5t34.5 -48.5t13 -62.5q0 -36 -15.5 -65t-41.5 -64l-104 -141h-117l93 128q-24 1 -47 12.5t-41.5 30t-29.5 44.5t-11 57q0 33 13 61t34.5 48.5t50 31.5t59.5 11zM187 333q-24 0 -41 -17t-17 -43t17 -43t41 -17t41 17t17 43t-17 43t-41 17
z" />
    <glyph glyph-name="zero.numr" horiz-adv-x="421" 
d="M211 668q43 0 74.5 -16.5t52.5 -45t31.5 -67.5t10.5 -84t-10.5 -85t-31.5 -70t-52.5 -47t-74.5 -17t-74.5 17t-52.5 47t-31.5 70t-10.5 85t10.5 84t31.5 67.5t52.5 45t74.5 16.5zM210 576q-66 0 -66 -122q0 -61 16 -93.5t50 -32.5q35 0 51 32.5t16 93.5q0 122 -67 122z
" />
    <glyph glyph-name="one.numr" horiz-adv-x="370" 
d="M245 334h86v-90h-289v90h103v236h-94v90h194v-326z" />
    <glyph glyph-name="two.numr" horiz-adv-x="385" 
d="M187 668q32 0 59 -10t47 -28t31.5 -43t11.5 -55q0 -24 -7 -45t-19 -41t-28.5 -39t-35.5 -39l-33 -34h133v-90l-313 -1v21l149 162q27 30 39.5 52.5t12.5 44.5q0 24 -13.5 38.5t-34.5 14.5t-35 -14.5t-14 -40.5q0 -6 0.5 -13t1.5 -16h-99q-2 10 -3 18.5t-1 16.5
q0 26 10.5 51.5t30 45.5t47.5 32t63 12z" />
    <glyph glyph-name="three.numr" horiz-adv-x="360" 
d="M319 633l-85 -125q17 -6 33.5 -17t29.5 -26.5t21 -36.5t8 -46q0 -32 -12.5 -58.5t-34 -46t-51 -30.5t-62.5 -11q-55 0 -95 27t-60 71l69 49q17 -27 36.5 -41t45.5 -14t43.5 14t17.5 40q0 48 -76 48h-48v25l78 115h-133v90h275v-27z" />
    <glyph glyph-name="four.numr" horiz-adv-x="375" 
d="M316 390h49v-82h-49v-64h-92v64h-212v26l124 326h103l-104 -270h89v109h92v-109z" />
    <glyph glyph-name="five.numr" horiz-adv-x="370" 
d="M311 570h-156v-59q22 5 41 5q26 0 51 -8.5t45 -25t32 -41.5t12 -57q0 -33 -12.5 -60t-34.5 -46.5t-52 -30.5t-64 -11q-56 0 -97 27t-61 71l69 49q18 -27 38 -41t47 -14t46 13.5t19 39.5q0 49 -77 49h-97v230h251v-90z" />
    <glyph glyph-name="six.numr" horiz-adv-x="374" 
d="M214 532q24 -2 47 -13t41.5 -29.5t30 -44.5t11.5 -57q0 -33 -13 -61t-35 -48.5t-50.5 -31.5t-59.5 -11t-59 11.5t-49.5 31.5t-34.5 48.5t-13 62.5q0 36 15 65t42 64l103 141h117zM187 448q-24 0 -41 -17t-17 -43t17 -43t41 -17t41 17t17 43t-17 43t-41 17z" />
    <glyph glyph-name="seven.numr" horiz-adv-x="346" 
d="M329 633l-180 -389h-109l156 326h-163v90h296v-27z" />
    <glyph glyph-name="eight.numr" horiz-adv-x="388" 
d="M194 668q60 0 100.5 -29.5t40.5 -83.5q0 -32 -15 -55.5t-42 -40.5q35 -15 55 -40t20 -62q0 -29 -12 -51t-33.5 -38t-50.5 -24t-63 -8t-63 8t-50.5 24t-33.5 38t-12 51q0 36 19.5 61.5t54.5 40.5q-26 17 -41 40.5t-15 55.5q0 27 11 48t30 35.5t44.5 22t55.5 7.5zM254 361
q0 21 -16.5 33.5t-44.5 23.5q-28 -11 -44 -23.5t-16 -33.5q0 -19 14.5 -31.5t45.5 -12.5t46 12.5t15 31.5zM194 588q-20 0 -34.5 -10t-14.5 -28q0 -17 13 -28t36 -22q23 11 36.5 22t13.5 28q0 18 -14.5 28t-35.5 10z" />
    <glyph glyph-name="nine.numr" horiz-adv-x="374" 
d="M187 668q31 0 59.5 -11.5t50 -31.5t34.5 -48.5t13 -62.5q0 -36 -15.5 -65t-41.5 -64l-104 -141h-117l93 128q-24 1 -47 12.5t-41.5 30t-29.5 44.5t-11 57q0 33 13 61t34.5 48.5t50 31.5t59.5 11zM187 576q-24 0 -41 -17t-17 -43t17 -43t41 -17t41 17t17 43t-17 43t-41 17
z" />
    <glyph glyph-name="backslash.case" horiz-adv-x="648" 
d="M146 761l500 -861h-143l-500 861h143z" />
    <glyph glyph-name="periodcentered.case" horiz-adv-x="270" 
d="M136 441q39 0 65.5 -27t26.5 -66q0 -40 -26.5 -66.5t-65.5 -26.5q-41 0 -67.5 26.5t-26.5 66.5q0 39 26.5 66t67.5 27z" />
    <glyph glyph-name="bullet.case" horiz-adv-x="427" 
d="M214 458q34 0 63.5 -12t51.5 -33.5t34.5 -50.5t12.5 -63t-12.5 -63t-34.5 -50t-51.5 -33t-63.5 -12q-33 0 -63 12t-52 33t-35 50t-13 63t13 63t35 50.5t52 33.5t63 12z" />
    <glyph glyph-name="slash.case" horiz-adv-x="648" 
d="M146 -100h-143l500 861h143z" />
    <glyph glyph-name="comma.subs" horiz-adv-x="205" 
d="M127 -245h-82l3 229h118z" />
    <glyph glyph-name="period.subs" horiz-adv-x="205" 
d="M103 12q29 0 49 -20.5t20 -49.5q0 -31 -20 -51t-49 -20q-32 0 -52 20t-20 51q0 29 20 49.5t52 20.5z" />
    <glyph glyph-name="braceleft.case" horiz-adv-x="413" 
d="M294 -100q-72 0 -113.5 32.5t-41.5 107.5q0 23 3.5 48.5t7.5 49.5t7.5 45.5t3.5 36.5q0 28 -13.5 40t-40.5 12h-62v115h62q27 0 40.5 12t13.5 40q0 15 -3.5 36.5t-7.5 46t-7.5 49.5t-3.5 48q0 75 41.5 108t113.5 33h80v-109h-57q-29 0 -46 -15.5t-17 -49.5
q0 -16 3.5 -37.5t7.5 -45t7.5 -46.5t3.5 -41q0 -38 -17 -58t-53 -29q36 -9 53 -29t17 -57q0 -18 -3.5 -41t-7.5 -46t-7.5 -45t-3.5 -38q0 -33 17 -49t46 -16h57v-108h-80z" />
    <glyph glyph-name="braceright.case" horiz-adv-x="413" 
d="M38 8h57q29 0 46 16t17 49q0 16 -3.5 38t-7.5 45t-7.5 46t-3.5 41q0 37 16.5 57t53.5 29q-36 9 -53 29t-17 58q0 18 3.5 41t7.5 46.5t7.5 45t3.5 37.5q0 34 -17 49.5t-46 15.5h-57v109h81q72 0 113 -33t41 -108q0 -23 -3.5 -48t-7.5 -49.5t-7.5 -46t-3.5 -36.5
q0 -28 13.5 -40t40.5 -12h62v-115h-62q-27 0 -40.5 -12t-13.5 -40q0 -15 3.5 -36.5t7.5 -45.5t7.5 -49.5t3.5 -48.5q0 -75 -41 -107.5t-113 -32.5h-81v108z" />
    <glyph glyph-name="bracketleft.case" horiz-adv-x="357" 
d="M320 651h-115v-642h115v-109h-230v860h230v-109z" />
    <glyph glyph-name="bracketright.case" horiz-adv-x="357" 
d="M268 -100h-230v109h114v642h-114v109h230v-860z" />
    <glyph glyph-name="parenleft.case" horiz-adv-x="365" 
d="M339 685q-30 -20 -58 -49t-49.5 -71t-34 -100t-12.5 -135t12.5 -134t34 -99.5t49.5 -71.5t58 -49l-54 -81q-43 19 -82 54.5t-69 88.5t-48 125.5t-18 166.5t18 167t48 126t69 88t82 55z" />
    <glyph glyph-name="parenright.case" horiz-adv-x="365" 
d="M80 766q43 -20 82 -55t69 -88t48 -126t18 -167t-18 -166.5t-48 -125.5t-69 -88.5t-82 -54.5l-54 81q30 20 58 49t49.5 71.5t34 99.5t12.5 134t-12.5 135t-34 100t-49.5 71t-58 49z" />
    <glyph glyph-name="emdash.case" horiz-adv-x="1000" 
d="M950 292h-900v113h900v-113z" />
    <glyph glyph-name="endash.case" horiz-adv-x="502" 
d="M467 292h-432v113h432v-113z" />
    <glyph glyph-name="uni2015.case" horiz-adv-x="1000" 
d="M950 292h-900v113h900v-113z" />
    <glyph glyph-name="hyphen.case" horiz-adv-x="342" 
d="M297 292h-252v113h252v-113z" />
    <glyph glyph-name="uni00AD.case" horiz-adv-x="342" 
d="M297 292h-252v113h252v-113z" />
    <glyph glyph-name="guillemotleft.case" horiz-adv-x="597" 
d="M310 459l-135 -152l135 -153l-86 -75l-195 209v36l195 210zM567 459l-135 -152l135 -153l-86 -75l-195 209v36l195 210z" />
    <glyph glyph-name="guillemotright.case" horiz-adv-x="597" 
d="M312 324v-36l-195 -209l-86 75l134 153l-134 152l86 75zM569 324v-36l-195 -209l-86 75l134 153l-134 152l86 75z" />
    <glyph glyph-name="guilsinglleft.case" horiz-adv-x="340" 
d="M310 459l-135 -152l135 -153l-86 -75l-195 209v36l195 210z" />
    <glyph glyph-name="guilsinglright.case" horiz-adv-x="340" 
d="M312 324v-36l-195 -209l-86 75l134 153l-134 152l86 75z" />
    <glyph glyph-name="comma.sups" horiz-adv-x="205" 
d="M127 239h-82l3 229h118z" />
    <glyph glyph-name="period.sups" horiz-adv-x="205" 
d="M103 496q29 0 49 -20.5t20 -49.5q0 -31 -20 -51t-49 -20q-32 0 -52 20t-20 51q0 29 20 49.5t52 20.5z" />
    <glyph glyph-name="cent.tf" 
d="M344 582q60 -8 104.5 -40t71.5 -80l-94 -72q-22 31 -50 51t-70 20q-29 0 -52.5 -10.5t-40.5 -28.5t-26.5 -42.5t-9.5 -53.5t9.5 -53.5t26.5 -42.5t40.5 -28.5t52.5 -10.5q42 0 70 19.5t50 51.5l93 -72q-27 -48 -71 -80.5t-104 -40.5v-166h-118v175q-41 12 -75.5 35.5
t-59 56t-38.5 72t-14 84.5t14 84.5t38.5 71.5t59 55.5t75.5 35.5v176h118v-167z" />
    <glyph glyph-name="dollar.tf" 
d="M333 630q54 -11 90 -41.5t59 -72.5l-91 -68q-23 35 -51 51.5t-63 16.5q-27 0 -49.5 -11t-22.5 -40q0 -24 18.5 -37.5t48.5 -25.5l74 -26q75 -28 114 -70.5t39 -105.5q0 -36 -12.5 -65.5t-34.5 -52t-52.5 -37.5t-66.5 -21v-121h-118v123q-60 13 -105 48t-72 88l91 68
q27 -44 65 -67.5t86 -23.5q36 0 61 14.5t25 44.5q0 26 -21 40.5t-55 28.5l-68 25q-68 25 -108.5 67.5t-40.5 106.5q0 63 39.5 105t102.5 57v121h118v-119z" />
    <glyph glyph-name="uni20B4.tf" 
d="M542 204h-345q-2 -5 -2 -10v-10q0 -36 23.5 -53.5t65.5 -17.5t85.5 17.5t80.5 49.5l67 -89q-48 -53 -109 -78t-124 -25q-51 0 -93 13.5t-72 39t-46.5 62t-16.5 81.5v10t1 10h-38v94h523v-94zM273 672q48 0 87.5 -13t68 -37.5t44.5 -59t16 -76.5q0 -19 -6 -34h59v-95h-523
v95h322q10 15 10 32q0 34 -23.5 48.5t-55.5 14.5q-35 0 -68 -15t-61 -42l-72 88q39 50 92.5 72t109.5 22z" />
    <glyph glyph-name="currency.tf" 
d="M184 508q43 19 91 19q51 0 97 -22l89 89l79 -80l-82 -82q30 -47 30 -103q0 -29 -8 -54.5t-22 -47.5l83 -85l-80 -80l-88 90q-46 -22 -98 -22t-92 18l-82 -86l-80 81l74 78q-32 46 -32 107q0 59 34 108l-76 78l80 80zM275 403q-35 0 -55 -21t-20 -54t20.5 -53.5
t55.5 -20.5q32 0 53 20t21 54t-21 54.5t-54 20.5z" />
    <glyph glyph-name="Euro.tf" 
d="M427 202h-174q23 -42 62 -65.5t94 -23.5q53 0 107 21l34 -115q-33 -16 -71 -23.5t-76 -7.5q-56 0 -103.5 15.5t-85 43.5t-65 67.5t-43.5 87.5h-89v96h70q-1 8 -1 16.5v16.5v13.5t1 13.5h-69v96h86q15 49 42.5 89t65.5 68.5t86 44.5t104 16q38 0 76 -7.5t71 -23.5
l-33 -115q-53 21 -107 21q-57 0 -96.5 -25t-62.5 -68h246l-26 -96h-245q-1 -7 -1 -14v-14v-16t1 -16h228z" />
    <glyph glyph-name="florin.tf" 
d="M459 291h-130l-29 -239q-13 -99 -65.5 -142t-140.5 -43q-25 0 -46 2.5t-36 7.5l-1 113q14 -1 29 -1.5t26 -0.5q47 0 71 16t30 60l27 227h-96v115h110l10 80q13 100 65 143t141 43q26 0 47 -3t36 -8v-112q-14 1 -29 1.5t-26 0.5q-42 0 -68.5 -15.5t-32.5 -61.5l-8 -68h116
v-115z" />
    <glyph glyph-name="lira.tf" 
d="M414 168h-115q-10 -35 -30 -60h259v-108h-489v29q46 33 78.5 66.5t46.5 72.5h-115v91h117q-4 15 -10.5 30t-14.5 29h-92v90h47q-11 31 -11 68q0 45 17 81t47 61.5t70.5 39.5t87.5 14q82 0 143 -45t86 -136l-113 -41q-15 48 -41 72.5t-66 24.5q-45 0 -69.5 -26.5
t-24.5 -67.5q0 -23 8 -45h184v-90h-135q7 -14 12.5 -28.5t9.5 -30.5h113v-91z" />
    <glyph glyph-name="uni20BA.tf" 
d="M425 346l-175 -80v-151q36 4 67.5 14.5t54 27t35.5 40t13 54.5q0 11 -0.5 22.5t-1.5 24.5h111q7 -25 7 -59q0 -66 -28 -113t-82 -78t-132.5 -45.5t-178.5 -14.5v216l-85 -38v113l85 39v61l-85 -38v113l85 38v168h135v-106l175 80v-113l-175 -80v-61l175 80v-114z" />
    <glyph glyph-name="peseta.tf" 
d="M556 366h-69q-9 -42 -32 -76.5t-56.5 -59t-75.5 -37.5t-90 -13h-33v-180h-128v366h-64v109h64v185h161q48 0 90.5 -13t76 -37t56 -58.5t31.5 -76.5h69v-109zM233 293q48 0 81.5 19t45.5 61h-160v-80h33zM200 548v-80h160q-13 40 -46.5 60t-80.5 20h-33z" />
    <glyph glyph-name="uni20BD.tf" 
d="M318 660q46 0 85 -13t67.5 -38t44.5 -61t16 -81t-16.5 -81t-45 -61t-67.5 -38t-84 -13h-81v-63h222v-108h-222v-103h-129v103h-78v108h78v63h-78v114h78v272h210zM237 546v-158h78q38 0 62 20t24 58t-24 59t-62 21h-78z" />
    <glyph glyph-name="uni20B9.tf" 
d="M504 403h-77q-14 -66 -62 -107t-119 -56l258 -240h-168l-256 233v102h86q41 0 68.5 17.5t38.5 50.5h-194v96h191q-25 61 -104 61h-86v100h424v-96h-108q21 -29 30 -65h78v-96z" />
    <glyph glyph-name="sterling.tf" 
d="M432 228h-126v-9q0 -28 -8 -55t-25 -50h255v-114h-489v29q60 44 96.5 88t36.5 100q0 7 -1 11h-122v114h78q-16 29 -29 61t-13 74q0 44 17 80t47 61.5t70.5 39.5t87.5 14q82 0 143 -45t86 -136l-113 -41q-15 48 -41 72.5t-67 24.5q-44 0 -68.5 -26.5t-24.5 -67.5
q0 -31 13 -57.5t30 -53.5h167v-114z" />
    <glyph glyph-name="uni20B8.tf" 
d="M499 191l-152 -48v-143h-135v101l-150 -46v114l150 46v61l-150 -46v114l150 46v148h-186v122h509v-122h-188v-106l152 47v-113l-152 -48v-61l152 48v-114z" />
    <glyph glyph-name="uni20AE.tf" 
d="M34 478h493v-121h-180v-357h-135v357h-178v121zM527 538h-493v122h493v-122z" />
    <glyph glyph-name="yen.tf" 
d="M514 95h-166v-95h-135v95h-165v108h165v63h-165v108h144l-177 286h149l116 -210l118 210h148l-177 -286h145v-108h-166v-63h166v-108z" />
    <glyph glyph-name="section.case" horiz-adv-x="602" 
d="M330 736q66 0 116.5 -28t80.5 -79l-85 -69q-22 29 -48.5 46t-64.5 17q-28 0 -44 -11.5t-16 -36.5q0 -24 18.5 -41.5t57.5 -43.5l91 -62q71 -43 104 -82.5t33 -92.5q0 -55 -32 -91t-84 -53q1 -6 1.5 -12t0.5 -12q0 -36 -13.5 -65.5t-38 -50.5t-59 -33t-76.5 -12
q-66 0 -117 28t-81 79l85 69q22 -29 49 -46t64 -17q28 0 44 11.5t16 36.5q0 24 -18.5 41.5t-56.5 43.5l-91 62q-71 43 -104 82.5t-33 92.5q0 54 32 90.5t84 52.5q-1 6 -1.5 12t-0.5 13q0 36 13 65.5t37.5 50.5t59 33t77.5 12zM271 400q-25 16 -45.5 31.5t-36.5 32.5
q-15 -8 -24.5 -21t-9.5 -32q0 -10 3.5 -19t12.5 -18.5t24 -21.5t38 -27l90 -61q27 -17 49 -34t39 -35q16 9 25.5 22t9.5 32q0 10 -3.5 19t-12 18.5t-23.5 21.5t-38 27z" />
    <glyph glyph-name="acute.case" horiz-adv-x="295" 
d="M265 886l-137 -162h-98l72 186h163v-24z" />
    <glyph glyph-name="breve.case" horiz-adv-x="405" 
d="M375 903q0 -38 -12.5 -69.5t-35.5 -54.5t-54.5 -36t-69.5 -13t-70 13t-55 36t-35.5 54.5t-12.5 69.5h106q0 -34 19 -53.5t48 -19.5t47.5 19.5t18.5 53.5h106z" />
    <glyph glyph-name="dieresis.case" horiz-adv-x="479" 
d="M369 892q33 0 57 -22.5t24 -56.5q0 -31 -24 -54t-57 -23q-15 0 -30 6.5t-26 17t-18 24.5t-7 29q0 34 25 56.5t56 22.5zM111 892q33 0 57 -22t24 -56q0 -31 -24 -54t-57 -23q-15 0 -30 6.5t-26 17t-18 24.5t-7 29q0 34 25 56t56 22z" />
    <glyph glyph-name="grave.case" horiz-adv-x="288" 
d="M258 724h-98l-137 162v24h162z" />
    <glyph glyph-name="hungarumlaut.case" horiz-adv-x="489" 
d="M458 886l-121 -162h-91l72 186h140v-24zM242 886l-121 -162h-91l72 186h140v-24z" />
    <glyph glyph-name="acute.loclPLK.case" horiz-adv-x="255" 
d="M62 910h163v-24l-97 -162h-98z" />
    <glyph glyph-name="macron.case" horiz-adv-x="382" 
d="M352 755h-322v106h322v-106z" />
    <glyph glyph-name="dieresis.i" horiz-adv-x="441" 
d="M331 754q33 0 57 -22.5t24 -56.5q0 -31 -24 -54t-57 -23q-15 0 -30 6.5t-26 17t-18 24.5t-7 29q0 34 25 56.5t56 22.5zM111 754q33 0 57 -22.5t24 -56.5q0 -31 -24 -54t-57 -23q-16 0 -30.5 6.5t-26 17t-18 24.5t-6.5 29q0 34 24.5 56.5t56.5 22.5z" />
    <glyph glyph-name="commaaccentup" horiz-adv-x="193" 
d="M157 571h-127l34 209h99z" />
    </font>
</defs>
</svg>
