<?xml version="1.0" standalone="no"?>
<!DOCTYPE svg PUBLIC "-//W3C//DTD SVG 1.1//EN" "http://www.w3.org/Graphics/SVG/1.1/DTD/svg11.dtd" >
<svg xmlns="http://www.w3.org/2000/svg" xmlns:xlink="http://www.w3.org/1999/xlink" version="1.1">
<metadata>
Created by FontForge 20200427 at Thu Nov 12 19:58:10 2015
 By www
Copyright (c) 2015 by Jakob Runge, under exclusive license to TypeMates, Runge Thomsen GbR. All rights reserved.
</metadata>
<defs>
<font id="CeraCY-Regular" horiz-adv-x="560" >
  <font-face 
    font-family="CeraCY-Regular"
    font-weight="400"
    font-stretch="normal"
    units-per-em="1000"
    panose-1="2 11 5 0 0 0 0 0 0 0"
    ascent="799"
    descent="-201"
    x-height="487"
    cap-height="660"
    bbox="-105 -241 1304 910"
    underline-thickness="65"
    underline-position="-100"
    unicode-range="U+0020-F8FF"
  />
<missing-glyph horiz-adv-x="707" 
d="M617 0h-526v660h526v-660zM147 607l412 -557v557h-412z" />
    <glyph glyph-name=".notdef" horiz-adv-x="707" 
d="M617 0h-526v660h526v-660zM147 607l412 -557v557h-412z" />
    <glyph glyph-name=".null" horiz-adv-x="0" 
 />
    <glyph glyph-name="nonmarkingreturn" horiz-adv-x="333" 
 />
    <glyph glyph-name="space" unicode=" " horiz-adv-x="280" 
 />
    <glyph glyph-name="exclam" unicode="!" horiz-adv-x="305" 
d="M184 209h-64l-15 451h93zM152 115q26 0 44.5 -17.5t18.5 -45.5t-18.5 -45.5t-44.5 -17.5t-44.5 17.5t-18.5 45.5t18.5 45.5t44.5 17.5z" />
    <glyph glyph-name="quotedbl" unicode="&#x22;" horiz-adv-x="463" 
d="M155 403h-61l13 257h90zM338 403h-61l13 257h90z" />
    <glyph glyph-name="numbersign" unicode="#" horiz-adv-x="597" 
d="M221 467h191l26 193h66l-26 -193h90v-66h-99l-20 -142h98v-66h-107l-26 -193h-64l25 193h-192l-26 -193h-64l25 193h-89v66h98l19 142h-95v66h104l26 193h66zM192 259h192l19 142h-191z" />
    <glyph glyph-name="dollar" unicode="$" horiz-adv-x="536" 
d="M306 633q54 -8 91.5 -36.5t62.5 -70.5l-54 -41q-22 32 -46 51t-54 25v-200l21 -8q65 -27 105.5 -66t40.5 -101q0 -34 -12.5 -62.5t-35 -49.5t-53 -34t-66.5 -17v-117h-77v118q-64 10 -111.5 46t-77.5 91l56 40q24 -41 56.5 -69t76.5 -38v223l-6 3q-27 11 -52.5 25.5
t-45 33.5t-31 44t-11.5 58q0 31 11 56t30.5 44.5t46.5 32t58 17.5v119h77v-117zM395 185q0 37 -25 59t-64 40v-191q38 7 63.5 30.5t25.5 61.5zM161 482q0 -34 19.5 -53t48.5 -34v164q-28 -7 -48 -25.5t-20 -51.5z" />
    <glyph glyph-name="percent" unicode="%" horiz-adv-x="810" 
d="M596 312q34 0 63.5 -12.5t52 -34t35.5 -51t13 -63.5t-13 -63.5t-35.5 -51t-52 -34t-63.5 -12.5t-63.5 12.5t-51.5 34t-35 51t-13 63.5t13 63.5t35 51t51.5 34t63.5 12.5zM597 255q-44 0 -71.5 -29.5t-27.5 -74.5t27.5 -74t71.5 -29q42 0 70 29t28 74t-28 74.5t-70 29.5z
M214 671q34 0 63.5 -12.5t51.5 -34t35 -51t13 -63.5t-13 -63.5t-35 -51t-51.5 -34t-63.5 -12.5t-64 12.5t-52 34t-35 51t-13 63.5t13 63.5t35 51t52 34t64 12.5zM214 614q-43 0 -71 -29.5t-28 -74.5t28 -74.5t71 -29.5t71 29.5t28 74.5t-28 74.5t-71 29.5zM250 0h-68
l377 660h70z" />
    <glyph glyph-name="ampersand" unicode="&#x26;" horiz-adv-x="625" 
d="M274 671q34 0 61 -10.5t46 -29t29 -43.5t10 -53q0 -52 -32.5 -94.5t-85.5 -83.5l139 -167q23 32 47 68t50 76l63 -42q-29 -45 -55.5 -86t-54.5 -76l108 -130h-93l-63 75q-40 -40 -86 -63t-105 -23q-42 0 -79 12t-64 34.5t-43 54.5t-16 71q0 34 11.5 62t32 52.5t47.5 47
t58 44.5q-32 40 -51.5 77.5t-19.5 81.5q0 30 10 56.5t28.5 46t45.5 31t62 11.5zM254 61q42 0 75.5 19t65.5 52l-152 182q-25 -19 -45.5 -36t-35 -34t-22.5 -35.5t-8 -40.5q0 -24 9.5 -43.5t26 -34t38.5 -22t48 -7.5zM204 526q0 -33 15.5 -60.5t39.5 -56.5q41 31 63 59.5
t22 63.5q0 29 -16.5 48.5t-53.5 19.5t-53.5 -21t-16.5 -53z" />
    <glyph glyph-name="quotesingle" unicode="'" horiz-adv-x="280" 
d="M155 403h-61l13 257h90z" />
    <glyph glyph-name="parenleft" unicode="(" horiz-adv-x="333" 
d="M305 681q-28 -18 -55 -47t-48.5 -74t-34.5 -108.5t-13 -150.5t13 -150.5t34.5 -108.5t48.5 -74t55 -46l-33 -53q-36 18 -71 50t-62.5 84t-44 125.5t-16.5 172.5q0 100 16.5 173.5t44 125t62.5 84t71 50.5z" />
    <glyph glyph-name="parenright" unicode=")" horiz-adv-x="333" 
d="M62 734q36 -18 70.5 -50.5t62 -84t44 -125t16.5 -173.5q0 -99 -16.5 -172.5t-44 -125.5t-62 -84t-70.5 -50l-34 53q28 17 55 46t48.5 74t35 108.5t13.5 150.5t-13.5 150.5t-35 108.5t-48.5 74t-55 47z" />
    <glyph glyph-name="asterisk" unicode="*" horiz-adv-x="410" 
d="M70 686l102 -50l9 114h48l8 -114l102 50l25 -42l-95 -64l95 -64l-25 -41l-102 49l-8 -113h-48l-9 114l-102 -50l-24 41l94 64l-94 64z" />
    <glyph glyph-name="plus" unicode="+" 
d="M320 281v-193h-76v193h-188v68h188v190h76v-190h182v-68h-182z" />
    <glyph glyph-name="comma" unicode="," horiz-adv-x="270" 
d="M148 -179h-63l13 269h91z" />
    <glyph glyph-name="hyphen" unicode="-" horiz-adv-x="346" 
d="M292 282h-239v65h239v-65z" />
    <glyph glyph-name="period" unicode="." horiz-adv-x="270" 
d="M135 115q26 0 44.5 -17.5t18.5 -45.5t-18.5 -45.5t-44.5 -17.5t-44.5 17.5t-18.5 45.5t18.5 45.5t44.5 17.5z" />
    <glyph glyph-name="slash" unicode="/" horiz-adv-x="628" 
d="M97 -121h-90l523 901h90z" />
    <glyph glyph-name="zero" unicode="0" horiz-adv-x="663" 
d="M331 544q58 0 109.5 -21.5t90 -59t60.5 -88.5t22 -109t-22 -109t-60.5 -88.5t-90 -59t-110.5 -21.5t-110 21.5t-88.5 59t-59.5 88.5t-22 109t22 109t60 88.5t89 59t110 21.5zM331 473q-44 0 -81 -16t-63.5 -43.5t-41.5 -65.5t-15 -82t15 -81.5t41.5 -65.5t63.5 -44
t81 -16q43 0 80 16t64 44t42.5 65.5t15.5 81.5t-15.5 82t-42.5 65.5t-64 43.5t-80 16z" />
    <glyph glyph-name="one" unicode="1" horiz-adv-x="492" 
d="M307 68h142v-68h-371v68h151v394h-141v71h219v-465z" />
    <glyph glyph-name="two" unicode="2" horiz-adv-x="553" 
d="M275 544q43 0 79.5 -13.5t63 -38t41 -58.5t14.5 -74q0 -38 -13 -70.5t-35.5 -60.5t-53 -53.5t-64.5 -49.5l-80 -58h273v-68h-455v20l196 144q31 23 58.5 44t48.5 43.5t33 47.5t12 56q0 24 -8 45.5t-23 38t-37.5 26t-50.5 9.5q-30 0 -53.5 -10t-39 -27t-24 -38.5
t-8.5 -43.5q0 -12 2 -25.5t4 -26.5h-76q-8 29 -8 57q0 35 14 68t40.5 59t64.5 41.5t85 15.5z" />
    <glyph glyph-name="three" unicode="3" horiz-adv-x="518" 
d="M448 510l-174 -221q34 -3 68 -17.5t61.5 -39.5t44.5 -61.5t17 -84.5q0 -51 -19.5 -91.5t-52 -69t-75 -43.5t-88.5 -15q-41 0 -75 11t-62 30t-49.5 43.5t-36.5 51.5l55 40q13 -21 29.5 -40t37 -33.5t45.5 -23t56 -8.5q33 0 61.5 10.5t49.5 30t32.5 47t11.5 60.5
q0 64 -44 100.5t-125 36.5h-60v23l168 216h-273v71h397v-23z" />
    <glyph glyph-name="four" unicode="4" horiz-adv-x="543" 
d="M430 68h97v-68h-97v-121h-77v121h-331v23l213 510h80l-195 -465h233v222h77v-222z" />
    <glyph glyph-name="five" unicode="5" horiz-adv-x="542" 
d="M432 462h-264v-179q22 4 45 6t51 2q43 0 84 -12.5t72 -37.5t50 -63.5t19 -90.5q0 -51 -19.5 -92t-51.5 -69.5t-74.5 -43.5t-88.5 -15q-42 0 -77 11t-63.5 30t-50.5 43.5t-37 51.5l55 40q13 -21 29.5 -40t37.5 -33.5t47.5 -23t58.5 -8.5q33 0 61 11t48.5 30.5t32.5 47
t12 60.5q0 65 -44 100.5t-124 35.5h-150v310h341v-71z" />
    <glyph glyph-name="six" unicode="6" horiz-adv-x="551" 
d="M229 418q24 9 56 9q43 0 82.5 -16.5t68.5 -45.5t46.5 -68.5t17.5 -85.5q0 -47 -17.5 -87.5t-48.5 -70.5t-72 -47t-88 -17q-46 0 -87 17t-71.5 46.5t-48 70.5t-17.5 89q0 31 7 57.5t19.5 51t29 49.5t35.5 52l164 238h93zM274 361q-31 0 -58 -11.5t-46.5 -32t-31 -48
t-11.5 -58.5q0 -32 11.5 -60t31 -48t46.5 -31.5t58 -11.5t58.5 11.5t47.5 31.5t31.5 48t11.5 60q0 31 -11.5 58.5t-31.5 48t-47.5 32t-58.5 11.5z" />
    <glyph glyph-name="seven" unicode="7" horiz-adv-x="501" 
d="M476 510l-332 -631h-84l309 583h-334v71h441v-23z" />
    <glyph glyph-name="eight" unicode="8" horiz-adv-x="578" 
d="M288 671q41 0 77.5 -10.5t64 -31.5t43.5 -51.5t16 -70.5q0 -57 -32.5 -96.5t-92.5 -65.5q30 -11 58 -26.5t50 -36.5t35 -49.5t13 -64.5q0 -40 -16.5 -73t-47 -56.5t-73.5 -36.5t-95 -13t-95 13t-73.5 37t-47 57t-16.5 73q0 35 12.5 62.5t33.5 49t49.5 37.5t60.5 27
q-57 26 -91 64.5t-34 97.5q0 40 16 70.5t43.5 51.5t64 31.5t77.5 10.5zM441 171q0 28 -12 49t-33 36.5t-49 28t-59 23.5q-32 -11 -60 -23.5t-48.5 -28t-32.5 -36.5t-12 -49q0 -51 39.5 -83t113.5 -32q75 0 114 32t39 83zM288 604q-53 0 -88.5 -26t-35.5 -74
q0 -46 33.5 -72.5t89.5 -49.5q28 11 51 23t39.5 26t25.5 32t9 41q0 48 -35.5 74t-88.5 26z" />
    <glyph glyph-name="nine" unicode="9" horiz-adv-x="551" 
d="M275 544q46 0 87 -17t72 -46.5t48.5 -70t17.5 -88.5q0 -30 -6.5 -55.5t-18.5 -50t-28.5 -49.5t-37.5 -55l-161 -233h-92l165 237q-26 -9 -56 -9q-44 0 -83 16.5t-68 45.5t-46.5 68t-17.5 85q0 48 17.5 88.5t48.5 70t71.5 46.5t87.5 17zM274 474q-31 0 -57.5 -11.5
t-46.5 -32t-31.5 -48t-11.5 -59.5t11.5 -59.5t31.5 -48t46.5 -32t57.5 -11.5q32 0 59 11.5t47 32t31.5 48t11.5 59.5t-11.5 59.5t-31.5 48t-47 32t-59 11.5z" />
    <glyph glyph-name="colon" unicode=":" horiz-adv-x="270" 
d="M135 492q26 0 44.5 -17.5t18.5 -45.5t-18.5 -45.5t-44.5 -17.5t-44.5 17.5t-18.5 45.5t18.5 45.5t44.5 17.5zM135 115q26 0 44.5 -17.5t18.5 -45.5t-18.5 -45.5t-44.5 -17.5t-44.5 17.5t-18.5 45.5t18.5 45.5t44.5 17.5z" />
    <glyph glyph-name="semicolon" unicode=";" horiz-adv-x="270" 
d="M135 492q26 0 44.5 -17.5t18.5 -45.5t-18.5 -45.5t-44.5 -17.5t-44.5 17.5t-18.5 45.5t18.5 45.5t44.5 17.5zM148 -179h-63l13 269h91z" />
    <glyph glyph-name="less" unicode="&#x3c;" 
d="M489 442l-302 -127l302 -126v-73l-438 187v24l438 187v-72z" />
    <glyph glyph-name="equal" unicode="=" 
d="M493 384h-427v69h427v-69zM493 177h-427v68h427v-68z" />
    <glyph glyph-name="greater" unicode="&#x3e;" 
d="M508 327v-24l-438 -187v73l302 126l-302 127v72z" />
    <glyph glyph-name="question" unicode="?" horiz-adv-x="445" 
d="M224 671q36 0 68.5 -12.5t56.5 -34.5t38 -52.5t14 -67.5q0 -50 -27 -87.5t-69 -74.5q-33 -30 -52 -52t-19 -49q0 -9 1.5 -17t3.5 -15h-67q-10 20 -10 44q0 37 24 65.5t56 57.5q19 18 33.5 32.5t24.5 28.5t15.5 29t5.5 33q0 22 -8 41t-21.5 32t-31.5 20.5t-38 7.5
q-38 0 -67.5 -24t-44.5 -72l-65 27q20 67 66.5 103.5t112.5 36.5zM210 115q26 0 45 -17.5t19 -45.5t-19 -45.5t-45 -17.5q-25 0 -44 17.5t-19 45.5t19 45.5t44 17.5z" />
    <glyph glyph-name="at" unicode="@" horiz-adv-x="922" 
d="M472 657q87 0 160.5 -29.5t127 -79.5t83.5 -118t30 -144q0 -60 -19 -106.5t-53 -78.5t-81 -48.5t-102 -16.5h-25v64q-23 -35 -63.5 -55t-87.5 -20q-43 0 -79.5 16.5t-63 45t-41.5 67.5t-15 84t15 83.5t41.5 67t63 45t80.5 16.5q45 0 83 -17.5t62 -49.5v59h72v-338
q64 5 104 51t40 131q0 65 -24 120.5t-67.5 96.5t-104.5 64.5t-134 23.5q-76 0 -141 -25.5t-112.5 -71.5t-74.5 -109t-27 -138t27 -138.5t74.5 -109.5t111 -71.5t136.5 -25.5q70 0 131 22l14 -60q-35 -14 -73.5 -20.5t-77.5 -6.5q-86 0 -161.5 31t-131.5 86t-88.5 130
t-32.5 162q0 89 33 164.5t90.5 130t135 85.5t165.5 31zM456 381q-29 0 -53.5 -10.5t-42.5 -29.5t-28 -45.5t-10 -57.5q0 -32 10 -58t28 -44.5t42.5 -29t52.5 -10.5q24 0 47 8.5t41 25.5t29.5 44t11.5 65q0 37 -11 63.5t-29 44t-41 26t-47 8.5z" />
    <glyph glyph-name="A" unicode="A" horiz-adv-x="663" 
d="M633 0h-84l-57 134h-322l-56 -134h-83l287 671h28zM199 204h264l-131 323z" />
    <glyph glyph-name="B" unicode="B" horiz-adv-x="616" 
d="M318 660q44 0 79 -12.5t59 -35t37 -53t13 -66.5q0 -42 -16.5 -75t-47.5 -55q63 -19 97 -64.5t34 -108.5q0 -41 -14.5 -75.5t-41.5 -60t-66 -40t-88 -14.5h-272v660h227zM169 314v-244h186q67 0 102 34t35 88t-35 88t-102 34h-186zM169 590v-205h141q58 0 87 28.5t29 74.5
t-29 74t-87 28h-141z" />
    <glyph glyph-name="C" unicode="C" horiz-adv-x="715" 
d="M391 671q90 0 161 -39.5t113 -102.5l-58 -46q-38 54 -92 85t-123 31q-56 0 -104 -20.5t-83.5 -56.5t-55.5 -85t-20 -107t20 -107t55.5 -85t83.5 -56.5t104 -20.5q69 0 123 31t92 85l58 -46q-40 -63 -112 -102.5t-162 -39.5q-72 0 -134.5 26t-109 72t-73 108.5
t-26.5 134.5t26.5 134.5t73 108.5t109 72t134.5 26z" />
    <glyph glyph-name="D" unicode="D" horiz-adv-x="694" 
d="M287 660q84 0 151 -24.5t113 -68t70.5 -104t24.5 -132.5q0 -71 -24.5 -131.5t-70.5 -105t-113 -69.5t-151 -25h-196v660h196zM169 590v-520h117q67 0 119 20t87.5 55t54 82.5t18.5 103.5q0 57 -18.5 104.5t-54 82t-87.5 53.5t-119 19h-117z" />
    <glyph glyph-name="E" unicode="E" horiz-adv-x="566" 
d="M514 590h-345v-202h264v-70h-264v-248h357v-70h-435v660h423v-70z" />
    <glyph glyph-name="F" unicode="F" horiz-adv-x="524" 
d="M504 590h-335v-227h278v-71h-278v-292h-78v660h413v-70z" />
    <glyph glyph-name="G" unicode="G" horiz-adv-x="746" 
d="M391 671q85 0 153.5 -36t114.5 -99l-58 -46q-37 51 -89.5 80t-120.5 29q-57 0 -105.5 -20.5t-83 -56.5t-54 -85t-19.5 -106q0 -58 20 -107.5t55 -86t84 -57.5t107 -21q75 0 131 33t88 85v89h-224v70h302v-176q-21 -38 -52.5 -69.5t-70.5 -54t-84 -35t-94 -12.5
q-72 0 -135 26.5t-109 72t-72.5 108t-26.5 134.5t26.5 134.5t73 108.5t109 72t134.5 26z" />
    <glyph glyph-name="H" unicode="H" horiz-adv-x="708" 
d="M618 0h-78v318h-371v-318h-78v660h78v-272h371v272h78v-660z" />
    <glyph glyph-name="I" unicode="I" horiz-adv-x="259" 
d="M169 0h-78v660h78v-660z" />
    <glyph glyph-name="J" unicode="J" horiz-adv-x="373" 
d="M283 153q0 -86 -48 -125t-124 -39q-24 0 -45.5 3t-41.5 8v67q40 -6 71 -6q25 0 45 4.5t34.5 15.5t22.5 30t8 49v500h78v-507z" />
    <glyph glyph-name="K" unicode="K" horiz-adv-x="633" 
d="M279 354l323 -354h-99l-325 354l297 306h100zM169 0h-78v660h78v-660z" />
    <glyph glyph-name="L" unicode="L" horiz-adv-x="506" 
d="M169 70h314v-70h-392v660h78v-590z" />
    <glyph glyph-name="M" unicode="M" horiz-adv-x="789" 
d="M699 0h-78v475l-212 -288h-27l-213 289v-476h-78v671h28l276 -382l276 382h28v-671z" />
    <glyph glyph-name="N" unicode="N" horiz-adv-x="708" 
d="M540 162v498h78v-671h-29l-420 507v-496h-78v671h28z" />
    <glyph glyph-name="O" unicode="O" horiz-adv-x="781" 
d="M390 671q71 0 133 -26t108.5 -72t73.5 -108.5t27 -134.5t-27 -134.5t-73.5 -108.5t-108.5 -72t-133 -26q-72 0 -134 26.5t-108.5 72t-73 108t-26.5 134.5t26.5 134.5t73 108.5t109 72t133.5 26zM391 599q-57 0 -105 -20.5t-83 -56.5t-54.5 -85t-19.5 -106
q0 -58 19.5 -107.5t54.5 -85.5t83 -56.5t105 -20.5q56 0 103.5 20.5t82.5 56.5t54.5 85.5t19.5 107.5q0 57 -19.5 106t-54.5 85t-82.5 56.5t-103.5 20.5z" />
    <glyph glyph-name="P" unicode="P" horiz-adv-x="573" 
d="M323 660q49 0 88 -14t66.5 -39.5t42.5 -60.5t15 -77t-15 -77.5t-42.5 -61t-66.5 -40t-88 -14.5h-154v-276h-78v660h232zM169 590v-244h152q66 0 99.5 34t33.5 88q0 53 -33.5 87.5t-99.5 34.5h-152z" />
    <glyph glyph-name="Q" unicode="Q" horiz-adv-x="781" 
d="M390 671q71 0 133 -26t108.5 -72t73.5 -108.5t27 -134.5q0 -91 -40.5 -164t-108.5 -119q69 -91 157 -137t204 -46q22 0 46.5 1.5t50.5 3.5v-62q-25 -5 -51.5 -7.5t-55.5 -2.5q-131 0 -235 55.5t-180 160.5q-30 -11 -62 -17.5t-67 -6.5q-72 0 -134 26.5t-108.5 72t-73 108
t-26.5 134.5t26.5 134.5t73 108.5t109 72t133.5 26zM390 599q-56 0 -104 -20.5t-83 -56.5t-54.5 -85t-19.5 -106q0 -58 20 -107.5t55 -85.5t83 -56.5t104 -20.5t103.5 20.5t82.5 56.5t54.5 85.5t19.5 106.5t-19.5 106.5t-54.5 85.5t-82.5 56.5t-104.5 20.5z" />
    <glyph glyph-name="R" unicode="R" horiz-adv-x="622" 
d="M323 660q49 0 88 -14t66.5 -39.5t42.5 -60.5t15 -77q0 -68 -37 -116.5t-103 -66.5l212 -286h-91l-206 277h-141v-277h-78v660h232zM169 590v-243h151q66 0 100 33.5t34 87.5q0 53 -34 87.5t-100 34.5h-151z" />
    <glyph glyph-name="S" unicode="S" horiz-adv-x="558" 
d="M282 671q68 0 122 -31.5t85 -80.5l-58 -43q-26 40 -65.5 61.5t-84.5 21.5q-23 0 -44.5 -6t-38 -18t-26 -30t-9.5 -42q0 -23 8.5 -39t22.5 -28.5t33.5 -22.5t42.5 -21l73 -35q36 -17 64.5 -35.5t48.5 -40.5t30.5 -48.5t10.5 -59.5q0 -42 -16.5 -76t-45 -58t-67.5 -37
t-84 -13q-79 0 -142 38t-101 104l58 43q15 -23 33.5 -43.5t41 -36t50 -24.5t59.5 -9q58 0 95.5 29.5t37.5 80.5q0 23 -8 39.5t-23 29.5t-35 24t-44 23l-74 35q-29 14 -56 30t-48 37t-33.5 48t-12.5 62q0 39 16 71t43.5 54.5t64 34.5t76.5 12z" />
    <glyph glyph-name="T" unicode="T" horiz-adv-x="581" 
d="M561 590h-232v-590h-78v590h-232v70h542v-70z" />
    <glyph glyph-name="U" unicode="U" horiz-adv-x="689" 
d="M606 262q0 -66 -20 -117t-55 -85.5t-83 -52.5t-104 -18q-57 0 -105 18t-83 52.5t-54.5 85.5t-19.5 117v398h78v-403q0 -50 14.5 -87t39 -61t58 -36t72.5 -12q38 0 71.5 12t58.5 36t39.5 61t14.5 87v403h78v-398z" />
    <glyph glyph-name="V" unicode="V" horiz-adv-x="663" 
d="M346 -11h-28l-287 671h87l214 -517l214 517h87z" />
    <glyph glyph-name="W" unicode="W" horiz-adv-x="1066" 
d="M753 157l182 503h85l-251 -671h-27l-210 523l-208 -523h-28l-251 671h86l181 -504l206 515h29z" />
    <glyph glyph-name="X" unicode="X" horiz-adv-x="599" 
d="M344 337l224 -337h-90l-179 271l-178 -271h-91l226 338l-211 322h91l164 -257l163 257h89z" />
    <glyph glyph-name="Y" unicode="Y" horiz-adv-x="616" 
d="M347 273v-273h-78v273l-229 387h88l180 -310l181 310h87z" />
    <glyph glyph-name="Z" unicode="Z" horiz-adv-x="589" 
d="M553 637l-400 -567h401v-70h-522v23l398 567h-355v70h478v-23z" />
    <glyph glyph-name="bracketleft" unicode="[" horiz-adv-x="343" 
d="M292 661h-117v-722h117v-70h-191v860h191v-68z" />
    <glyph glyph-name="backslash" unicode="\" horiz-adv-x="628" 
d="M97 780l523 -901h-90l-523 901h90z" />
    <glyph glyph-name="bracketright" unicode="]" horiz-adv-x="343" 
d="M241 -131h-191v70h117v722h-117v68h191v-860z" />
    <glyph glyph-name="asciicircum" unicode="^" horiz-adv-x="512" 
d="M451 284h-80l-115 248l-116 -248h-80l182 386h28z" />
    <glyph glyph-name="underscore" unicode="_" horiz-adv-x="506" 
d="M462 -140h-419v65h419v-65z" />
    <glyph glyph-name="grave" unicode="`" horiz-adv-x="239" 
d="M209 566h-59l-120 200v14h94z" />
    <glyph glyph-name="a" unicode="a" horiz-adv-x="528" 
d="M259 498q42 0 77 -12.5t60.5 -37.5t39.5 -62t14 -86v-300h-73v62q-26 -35 -67.5 -54t-95.5 -19q-37 0 -68.5 9.5t-54 27t-35 43t-12.5 57.5q0 62 47.5 99t127.5 37h154v42q0 62 -32 92.5t-87 30.5q-45 0 -78.5 -20.5t-62.5 -57.5l-52 42q35 56 87 81.5t111 25.5zM223 53
q30 0 57.5 10t48 28t32.5 42.5t12 53.5v12h-146q-104 0 -104 -69q0 -39 30 -58t70 -19z" />
    <glyph glyph-name="b" unicode="b" horiz-adv-x="632" 
d="M162 415q29 38 76 60.5t103 22.5q52 0 96 -19.5t76.5 -54t50.5 -81t18 -100.5t-18 -100t-50 -80.5t-76 -54t-96 -19.5q-57 0 -106.5 23.5t-78.5 65.5v-78h-72v750h77v-335zM331 427q-32 0 -62.5 -11t-54.5 -33.5t-38.5 -57t-14.5 -82.5t14.5 -82.5t38.5 -57t54.5 -33
t62.5 -10.5q37 0 69 14t54.5 38.5t35.5 58t13 73.5t-13 73.5t-36 58t-54.5 38t-68.5 13.5z" />
    <glyph glyph-name="c" unicode="c" horiz-adv-x="551" 
d="M305 498q66 0 117 -29t83 -77l-54 -44q-27 36 -62 57.5t-83 21.5q-38 0 -70.5 -14.5t-56 -39t-37 -58t-13.5 -71.5q0 -39 13.5 -72.5t37 -58t56 -39t70.5 -14.5q47 0 82 21t62 57l54 -43q-32 -48 -83 -77t-116 -29q-53 0 -99.5 19.5t-81 54t-54.5 81t-20 100.5
q0 53 20 99.5t54.5 81t81 54t99.5 19.5z" />
    <glyph glyph-name="d" unicode="d" horiz-adv-x="632" 
d="M547 0h-72v78q-29 -42 -77.5 -65.5t-106.5 -23.5q-53 0 -97 19.5t-76 54t-50 80.5t-18 100t18 100.5t50.5 81t76.5 54t96 19.5q55 0 102.5 -22.5t76.5 -61.5v336h77v-750zM302 427q-37 0 -68.5 -13.5t-55 -38t-36.5 -58t-13 -73.5t13 -73.5t36 -58t54.5 -38.5t69.5 -14
q31 0 61.5 10.5t54.5 33t38.5 57t14.5 82.5t-14.5 82.5t-38.5 57t-54.5 33.5t-61.5 11z" />
    <glyph glyph-name="e" unicode="e" horiz-adv-x="571" 
d="M299 498q46 0 86.5 -16t70.5 -45t47 -69.5t17 -89.5q0 -20 -2 -35.5t-4 -22.5h-384q4 -37 18.5 -66.5t38 -50.5t54.5 -32t67 -11q47 0 83 18t66 48l45 -52q-36 -39 -85.5 -62t-109.5 -23q-55 0 -102 19.5t-81.5 54t-54 80.5t-19.5 100q0 53 19 99.5t53 81t79 54.5t98 20z
M297 428q-31 0 -58.5 -10t-49 -28.5t-36 -44.5t-20.5 -57h308q0 34 -12 60t-31.5 44t-45.5 27t-55 9z" />
    <glyph glyph-name="f" unicode="f" horiz-adv-x="303" 
d="M295 418h-121v-418h-77v418h-70v69h70v116q0 42 12 71.5t33.5 49t51 28.5t64.5 9q18 0 32.5 -2t27.5 -6v-65q-24 3 -43 3q-45 0 -73 -19t-28 -74v-111h121v-69z" />
    <glyph glyph-name="g" unicode="g" horiz-adv-x="637" 
d="M294 498q58 0 107.5 -24t78.5 -67v80h72v-440q0 -56 -17 -100.5t-48 -75t-74.5 -46.5t-96.5 -16q-39 0 -72.5 8t-62.5 21t-53 30t-42 35l45 54q36 -31 79.5 -54t103.5 -23q74 0 117.5 41t43.5 122v42q-30 -38 -78 -59t-103 -21q-51 0 -95 18.5t-76 51.5t-50 78t-18 98
t18 98t50 78t76 52t95 19zM307 425q-37 0 -68.5 -13t-55 -36t-36.5 -55t-13 -71t13 -71t36.5 -55t55 -35.5t68.5 -12.5q31 0 61.5 10t54.5 31.5t38.5 54.5t14.5 79t-14.5 79t-38.5 54t-54.5 31t-61.5 10z" />
    <glyph glyph-name="h" unicode="h" horiz-adv-x="566" 
d="M162 432q24 31 61 48.5t85 17.5q43 0 76.5 -14t56.5 -39.5t35 -61t12 -77.5v-306h-77v296q0 58 -32 94.5t-89 36.5q-28 0 -51.5 -10t-40.5 -27t-26.5 -41.5t-9.5 -52.5v-296h-77v750h77v-318z" />
    <glyph glyph-name="i" unicode="i" horiz-adv-x="246" 
d="M162 0h-77v487h77v-487zM124 729q23 0 40 -16.5t17 -39.5q0 -24 -17 -40t-40 -16q-24 0 -41 16t-17 40q0 23 17 39.5t41 16.5z" />
    <glyph glyph-name="j" unicode="j" horiz-adv-x="246" 
d="M162 -33q0 -83 -45 -120.5t-115 -37.5q-19 0 -33.5 2t-28.5 6v65q13 -2 23 -2.5t22 -0.5q45 0 72.5 19.5t27.5 73.5v515h77v-520zM124 729q23 0 40 -16.5t17 -39.5q0 -24 -17 -40t-40 -16q-24 0 -41 16t-17 40q0 23 17 39.5t41 16.5z" />
    <glyph glyph-name="k" unicode="k" horiz-adv-x="506" 
d="M162 0h-77v750h77v-750zM263 273l230 -273h-99l-224 274l203 213h101z" />
    <glyph glyph-name="l" unicode="l" horiz-adv-x="246" 
d="M162 0h-77v750h77v-750z" />
    <glyph glyph-name="m" unicode="m" horiz-adv-x="874" 
d="M620 498q42 0 75 -14t55.5 -39.5t34 -61t11.5 -77.5v-306h-77v296q0 58 -30 94.5t-85 36.5q-27 0 -50 -10t-39.5 -26.5t-26 -39.5t-9.5 -48v-303h-77v296q0 58 -30.5 94.5t-85.5 36.5q-56 0 -90 -36.5t-34 -94.5v-296h-77v487h72v-52q25 29 62 46t83 17q55 0 92.5 -23
t57.5 -61q26 37 68.5 60.5t99.5 23.5z" />
    <glyph glyph-name="n" unicode="n" horiz-adv-x="566" 
d="M307 498q43 0 76.5 -14t57 -39.5t35.5 -61t12 -77.5v-306h-77v297q0 58 -32 94t-89 36q-28 0 -51.5 -9.5t-40.5 -27t-26.5 -41.5t-9.5 -52v-297h-77v487h72v-54q26 30 64 47.5t86 17.5z" />
    <glyph glyph-name="o" unicode="o" horiz-adv-x="610" 
d="M305 498q52 0 98.5 -19.5t81 -54t54.5 -80.5t20 -100q0 -53 -20 -99.5t-54.5 -81t-81 -54t-99.5 -19.5t-99 20t-80.5 54t-54.5 80t-20 100t19.5 100t54 80.5t81 54t100.5 19.5zM305 427q-38 0 -70.5 -14t-56 -39t-36.5 -58.5t-13 -72.5t13 -72t36.5 -57.5t55.5 -38.5
t70 -14t70 14t55.5 38.5t37 58t13.5 71.5q0 39 -13.5 73t-36.5 58.5t-55.5 38.5t-69.5 14z" />
    <glyph glyph-name="p" unicode="p" horiz-adv-x="632" 
d="M341 498q52 0 96.5 -19.5t76.5 -54t50 -80.5t18 -100t-18 -100.5t-50.5 -81t-76.5 -54t-96 -19.5q-54 0 -102 21.5t-77 60.5v-251h-77v667h72v-79q29 42 77.5 66t106.5 24zM331 427q-32 0 -62.5 -10.5t-54.5 -33t-38.5 -57t-14.5 -82.5t14.5 -83t38.5 -57.5t54.5 -33
t62.5 -10.5q37 0 68.5 13.5t54.5 38t36 58t13 73.5t-13 73.5t-35.5 58t-54.5 38.5t-69 14z" />
    <glyph glyph-name="q" unicode="q" horiz-adv-x="632" 
d="M291 498q58 0 106.5 -24t77.5 -66v79h72v-667h-77v251q-30 -39 -77.5 -60.5t-101.5 -21.5q-52 0 -96 19.5t-76.5 54t-50.5 81t-18 100.5t18 100t50 80.5t76 54t97 19.5zM302 427q-38 0 -69.5 -14t-54.5 -38.5t-36 -58.5t-13 -73q0 -40 13 -73.5t36.5 -58t55 -38
t68.5 -13.5q31 0 61.5 10.5t54.5 33t38.5 57.5t14.5 83t-14.5 82.5t-38.5 57t-54.5 33t-61.5 10.5z" />
    <glyph glyph-name="r" unicode="r" horiz-adv-x="362" 
d="M309 491q12 0 20 -1t15 -3v-68h-28q-30 0 -57.5 -9.5t-49 -27.5t-34.5 -44.5t-13 -61.5v-276h-77v487h72v-70q27 36 67 55t85 19z" />
    <glyph glyph-name="s" unicode="s" horiz-adv-x="454" 
d="M232 498q54 0 94 -21t69 -56l-47 -48q-23 25 -54 39.5t-65 14.5q-35 0 -58.5 -15.5t-23.5 -45.5q0 -25 19 -39.5t60 -31.5l45 -19q66 -28 98 -60t32 -84q0 -36 -14 -62.5t-38 -44.5t-55 -27t-64 -9q-65 0 -113 28t-78 67l50 51q29 -32 62 -53.5t78 -21.5q38 0 65.5 18
t27.5 51q0 31 -24.5 47t-60.5 31l-48 20q-27 12 -49.5 24.5t-38.5 28.5t-24.5 36t-8.5 46q0 33 13 58.5t35.5 42.5t52.5 26t63 9z" />
    <glyph glyph-name="t" unicode="t" horiz-adv-x="381" 
d="M335 418h-152v-266q0 -27 7.5 -45t21 -28.5t32 -15t41.5 -4.5q15 0 30.5 1.5t34.5 4.5v-65q-19 -5 -38 -8t-42 -3q-72 0 -118 37.5t-46 120.5v271h-82v69h82v133h77v-133h152v-69z" />
    <glyph glyph-name="u" unicode="u" 
d="M482 194q0 -47 -15.5 -85t-42.5 -64.5t-64 -41t-79 -14.5t-79 14.5t-64.5 41t-43 64.5t-15.5 85v293h76v-298q0 -30 10 -54t27 -40.5t40 -25.5t49 -9t48.5 9t39.5 25.5t26.5 40.5t9.5 54v298h77v-293z" />
    <glyph glyph-name="v" unicode="v" horiz-adv-x="539" 
d="M284 -11h-29l-229 498h82l161 -367l161 367h82z" />
    <glyph glyph-name="w" unicode="w" horiz-adv-x="851" 
d="M603 130l139 357h82l-205 -498h-29l-165 368l-165 -368h-28l-206 498h82l139 -361l164 372h28z" />
    <glyph glyph-name="x" unicode="x" horiz-adv-x="497" 
d="M291 253l185 -253h-90l-139 196l-137 -196h-90l183 254l-169 233h90l124 -177l124 177h90z" />
    <glyph glyph-name="y" unicode="y" horiz-adv-x="539" 
d="M272 -68q-29 -66 -68.5 -94.5t-96.5 -28.5q-18 0 -37.5 2.5t-36.5 7.5v65q17 -2 31.5 -3.5t27.5 -1.5q35 0 62.5 15.5t47.5 62.5l26 59l-202 471h83l160 -388l161 388h82z" />
    <glyph glyph-name="z" unicode="z" horiz-adv-x="454" 
d="M424 464l-280 -396h283v-68h-400v23l277 395h-254v69h374v-23z" />
    <glyph glyph-name="braceleft" unicode="{" horiz-adv-x="397" 
d="M283 -131q-62 0 -100 30t-38 103q0 25 4 54t8.5 57t8.5 52.5t4 41.5q0 58 -60 58h-57v68h57q60 0 60 58q0 16 -4 41t-8.5 53t-8.5 57t-4 54q0 73 38 103t100 30h63v-68h-50q-37 0 -57.5 -19.5t-20.5 -64.5q0 -20 4 -45.5t9 -51.5t9 -51t4 -45q0 -35 -13.5 -54t-39.5 -31
q26 -12 39.5 -31t13.5 -54q0 -20 -4 -45t-9 -51t-9 -51t-4 -46q0 -45 20.5 -64.5t57.5 -19.5h50v-68h-63z" />
    <glyph glyph-name="bar" unicode="|" horiz-adv-x="332" 
d="M199 -121h-66v901h66v-901z" />
    <glyph glyph-name="braceright" unicode="}" horiz-adv-x="397" 
d="M50 -63h50q37 0 57.5 19.5t20.5 64.5q0 21 -4 46t-8.5 51t-8.5 51t-4 45q0 35 13 54t39 31q-26 12 -39 31t-13 54q0 20 4 45t8.5 51t8.5 51.5t4 45.5q0 45 -20 64.5t-58 19.5h-50v68h63q62 0 100 -30t38 -103q0 -25 -4 -54t-8.5 -57t-8.5 -53t-4 -41q0 -58 60 -58h57v-68
h-57q-60 0 -60 -58q0 -17 4 -41.5t8.5 -52.5t8.5 -57t4 -54q0 -73 -38 -103t-100 -30h-63v68z" />
    <glyph glyph-name="asciitilde" unicode="~" 
d="M156 403q40 0 84 -27l94 -57q19 -11 33.5 -18t28.5 -7q19 0 28.5 13t9.5 31v19h63q1 -3 1.5 -11t0.5 -16q0 -45 -26 -75.5t-71 -30.5q-39 0 -83 26l-94 57q-18 11 -32.5 18.5t-28.5 7.5q-19 0 -28.5 -12.5t-9.5 -32.5v-19h-64q0 3 -0.5 11t-0.5 16q0 43 25.5 75t69.5 32z
" />
    <glyph glyph-name="cent" unicode="&#xa2;" horiz-adv-x="554" 
d="M317 581q57 -6 101 -34t73 -71l-53 -43q-24 31 -53.5 51t-67.5 25v-363q38 5 67.5 25t52.5 52l53 -44q-29 -44 -73 -72t-100 -33v-168h-77v172q-44 9 -81.5 31t-64.5 55t-42.5 75t-15.5 89q0 46 15.5 87.5t42.5 74.5t64.5 55.5t81.5 31.5v173h77v-169zM115 328
q0 -64 34 -112t91 -65v352q-57 -17 -91 -64.5t-34 -110.5z" />
    <glyph glyph-name="sterling" unicode="&#xa3;" horiz-adv-x="529" 
d="M404 244h-139q3 -15 3 -32q0 -43 -15.5 -80.5t-44.5 -63.5h276v-68h-427v20q57 35 95 82t38 109q0 16 -3 33h-121v68h97q-10 21 -21.5 42t-21 43.5t-16 46.5t-6.5 52q0 39 14 71.5t39.5 55.5t60.5 35.5t77 12.5q76 0 128.5 -42t75.5 -121l-69 -26q-17 55 -48.5 86
t-82.5 31q-28 0 -49.5 -9t-36 -25t-22 -36.5t-7.5 -44.5t6.5 -45t16.5 -42t21.5 -42t21.5 -43h160v-68z" />
    <glyph glyph-name="currency" unicode="&#xa4;" horiz-adv-x="643" 
d="M321 556q38 0 72.5 -11t63.5 -31l112 111l47 -46l-111 -111q23 -29 36 -64t13 -74t-12.5 -74t-35.5 -64l109 -110l-45 -46l-112 111q-29 -20 -64.5 -31.5t-73.5 -11.5t-72 11.5t-63 31.5l-111 -111l-47 46l110 110q-23 29 -35 63.5t-12 74.5q0 39 12 74t35 64l-110 111
l47 46l111 -111q29 20 63.5 31t72.5 11zM322 486q-33 0 -61.5 -12t-48.5 -33t-31.5 -50t-11.5 -62t11.5 -61t31.5 -48.5t48 -32.5t61 -12t61 12t49 32.5t32.5 48.5t11.5 61q0 34 -12 62.5t-32.5 49.5t-48.5 33t-60 12z" />
    <glyph glyph-name="yen" unicode="&#xa5;" horiz-adv-x="552" 
d="M511 131h-195v-131h-78v131h-194v69h194v92h-194v68h175l-210 300h88l180 -259l179 259h88l-211 -300h178v-68h-195v-92h195v-69z" />
    <glyph glyph-name="brokenbar" unicode="&#xa6;" horiz-adv-x="332" 
d="M199 480h-66v300h66v-300zM199 -121h-66v300h66v-300z" />
    <glyph glyph-name="section" unicode="&#xa7;" horiz-adv-x="579" 
d="M321 674q48 0 90 -20t79 -68l-56 -46q-29 32 -57 47.5t-60 15.5q-37 0 -58 -18t-21 -50q0 -20 8 -36.5t21 -31.5t30.5 -29t36.5 -30l105 -88q48 -39 76 -74.5t28 -81.5q0 -50 -33 -83.5t-92 -43.5q1 -3 1 -6.5v-6.5q0 -29 -11 -55t-31.5 -45.5t-50.5 -31t-68 -11.5
q-48 0 -90.5 20t-79.5 68l56 47q29 -33 57 -48t60 -15q37 0 58 17.5t21 50.5q0 20 -8 36.5t-21 31.5t-30 29t-36 30l-106 87q-48 40 -76 75.5t-28 81.5q0 49 33 82.5t91 43.5v14q0 29 11 54.5t32 45t51 31t68 11.5zM282 352q-32 26 -58.5 51t-43.5 54q-30 -8 -48 -23
t-18 -44q0 -12 4 -22.5t13 -21.5t23.5 -24t36.5 -31l105 -87q32 -27 58.5 -52t43.5 -54q30 8 48 23t18 44q0 12 -3.5 22.5t-12.5 21.5t-24 24t-37 31z" />
    <glyph glyph-name="dieresis" unicode="&#xa8;" horiz-adv-x="381" 
d="M297 727q23 0 39 -15.5t16 -38.5q0 -22 -16 -37.5t-39 -15.5q-21 0 -38 15.5t-17 37.5q0 23 17 38.5t38 15.5zM85 727q23 0 39 -15.5t16 -38.5q0 -22 -16 -37.5t-39 -15.5q-21 0 -38 15.5t-17 37.5q0 23 17 38.5t38 15.5z" />
    <glyph glyph-name="copyright" unicode="&#xa9;" horiz-adv-x="781" 
d="M390 671q70 0 132.5 -26t109 -72t73.5 -108.5t27 -134.5t-27 -134.5t-73.5 -108.5t-109 -72t-132.5 -26t-132.5 26t-109 72t-73.5 108.5t-27 134.5q0 73 27.5 135t74 108t108.5 72t132 26zM401 522q47 0 85.5 -21t65.5 -57l-48 -42q-20 25 -45 40t-57 15
q-26 0 -48.5 -9.5t-38.5 -27t-25 -40.5t-9 -50q0 -26 9 -49t25 -40t38 -27t48 -10q33 0 58 14.5t45 39.5l48 -42q-27 -35 -65.5 -56t-86.5 -21q-40 0 -75 14.5t-60.5 40.5t-40.5 60.5t-15 75.5t15 76t40.5 61t60.5 40.5t76 14.5zM390 616q-58 0 -109.5 -21t-89.5 -59
t-60.5 -90.5t-22.5 -115.5t22.5 -115.5t60.5 -90.5t89.5 -59t109.5 -21t109.5 21t90 59t61 90.5t22.5 115.5t-22.5 115.5t-61 90.5t-90 59t-109.5 21z" />
    <glyph glyph-name="guillemotleft" unicode="&#xab;" horiz-adv-x="504" 
d="M266 426l-141 -155l141 -157l-51 -43l-177 188v23l177 189zM464 426l-141 -155l141 -157l-51 -43l-177 188v23l177 189z" />
    <glyph glyph-name="logicalnot" unicode="&#xac;" 
d="M472 96h-77v185h-340v68h417v-253z" />
    <glyph glyph-name="uni00AD" unicode="&#xad;" horiz-adv-x="346" 
d="M292 282h-239v65h239v-65z" />
    <glyph glyph-name="registered" unicode="&#xae;" horiz-adv-x="570" 
d="M286 683q49 0 93 -19.5t76.5 -53t51.5 -79t19 -96.5t-19 -96t-51.5 -78.5t-76.5 -53t-93 -19.5q-50 0 -94 19.5t-77 53t-52.5 78.5t-19.5 96t19.5 96.5t52.5 79t77 53t94 19.5zM286 633q-41 0 -75.5 -15.5t-60.5 -42t-40.5 -62.5t-14.5 -77q0 -42 14.5 -78t40.5 -62.5
t60.5 -42t75.5 -15.5q39 0 74 15t60.5 41.5t40.5 63t15 78.5t-15 78t-40.5 62.5t-60.5 41.5t-74 15zM290 561q40 0 65.5 -22.5t25.5 -61.5q0 -49 -40 -71l70 -96h-64l-64 84h-36v-84h-58v251h101zM247 510v-66h42q15 0 24.5 9t9.5 23q0 15 -9.5 24.5t-24.5 9.5h-42z" />
    <glyph glyph-name="macron" unicode="&#xaf;" horiz-adv-x="335" 
d="M305 642h-275v62h275v-62z" />
    <glyph glyph-name="degree" unicode="&#xb0;" horiz-adv-x="360" 
d="M180 671q31 0 58 -11.5t47 -31.5t31.5 -47t11.5 -57q0 -31 -11.5 -57.5t-31.5 -46.5t-47 -31.5t-58 -11.5t-58 11.5t-47.5 31.5t-32 46.5t-11.5 57.5q0 30 11.5 57t32 47t47.5 31.5t58 11.5zM180 610q-35 0 -59.5 -25t-24.5 -61t24.5 -61t59.5 -25q37 0 61 25t24 61
t-24 61t-61 25z" />
    <glyph glyph-name="plusminus" unicode="&#xb1;" 
d="M319 378h174v-68h-174v-160h-77v160h-176v68h176v158h77v-158zM493 0h-427v68h427v-68z" />
    <glyph glyph-name="uni00B2" unicode="&#xb2;" horiz-adv-x="369" 
d="M178 787q30 0 55 -10t43 -27t28 -40.5t10 -51.5q0 -23 -7 -43.5t-19 -40t-28.5 -38t-34.5 -37.5l-71 -75h174v-60h-293v15l148 159q29 32 46.5 59t17.5 56q0 30 -18.5 51.5t-50.5 21.5q-33 0 -52 -21.5t-19 -54.5q0 -7 0.5 -15t1.5 -17h-65q-2 9 -3 18.5t-1 17.5
q0 25 9.5 49t27.5 42.5t43.5 30t57.5 11.5z" />
    <glyph glyph-name="uni00B3" unicode="&#xb3;" horiz-adv-x="354" 
d="M304 761l-100 -135q19 -4 38.5 -13.5t35.5 -25t25.5 -38t9.5 -51.5q0 -32 -12 -58t-32.5 -44.5t-47.5 -28.5t-57 -10q-53 0 -89 26t-56 64l46 33q17 -27 39.5 -44.5t57.5 -17.5q36 0 60 21.5t24 58.5q0 35 -24.5 54t-70.5 19h-42v18l97 131h-158v60h256v-19z" />
    <glyph glyph-name="acute" unicode="&#xb4;" horiz-adv-x="239" 
d="M209 766l-120 -200h-59l85 214h94v-14z" />
    <glyph glyph-name="uni00B5" unicode="&#xb5;" horiz-adv-x="592" 
d="M488 136q0 -40 14 -57t40 -17q10 0 30 3v-65q-13 -3 -26 -5t-27 -2q-34 0 -58 14t-36 45q-23 -29 -57 -46t-77 -17q-41 0 -73.5 15t-55.5 43v-227h-77v667h77v-291q0 -30 9.5 -55t26 -43t39 -28t49.5 -10t50 10t39.5 28t26 43t9.5 55v291h77v-351z" />
    <glyph glyph-name="paragraph" unicode="&#xb6;" horiz-adv-x="564" 
d="M473 -25q0 -45 -12 -76.5t-34 -51.5t-52 -29t-67 -9q-23 0 -42.5 3t-37.5 8v66q19 -2 34 -4t31 -2q23 0 42 4.5t32.5 16t21 31t7.5 49.5v679h77v-685zM337 236h-60q-51 0 -94.5 15t-75.5 43t-50 67.5t-18 87.5q0 49 18 88t50 66.5t75.5 42t94.5 14.5h60v-424z" />
    <glyph glyph-name="periodcentered" unicode="&#xb7;" horiz-adv-x="270" 
d="M135 377q26 0 44.5 -17.5t18.5 -45.5t-18.5 -45.5t-44.5 -17.5t-44.5 17.5t-18.5 45.5t18.5 45.5t44.5 17.5z" />
    <glyph glyph-name="cedilla" unicode="&#xb8;" horiz-adv-x="260" 
d="M164 26q29 -14 47.5 -40.5t18.5 -61.5q0 -24 -9 -44.5t-25.5 -36.5t-41 -25t-55.5 -9q-17 0 -35 2.5t-34 7.5v55q18 -2 33 -3t23 -1q33 0 55.5 15t22.5 50q0 24 -10 42t-23 32z" />
    <glyph glyph-name="uni00B9" unicode="&#xb9;" horiz-adv-x="353" 
d="M219 424h90v-60h-262v60h105v296h-100v60h167v-356z" />
    <glyph glyph-name="guillemotright" unicode="&#xbb;" horiz-adv-x="504" 
d="M267 282v-23l-177 -188l-51 43l141 157l-141 155l51 45zM465 282v-23l-177 -188l-51 43l141 157l-141 155l51 45z" />
    <glyph glyph-name="onequarter" unicode="&#xbc;" horiz-adv-x="887" 
d="M219 304h90v-60h-262v60h105v296h-100v60h167v-356zM316 0h-68l377 660h70zM815 129h56v-55h-56v-73h-61v73h-207v18l129 325h68l-117 -288h127v130h61v-130z" />
    <glyph glyph-name="onehalf" unicode="&#xbd;" horiz-adv-x="925" 
d="M219 304h90v-60h-262v60h105v296h-100v60h167v-356zM316 0h-68l377 660h70zM734 424q30 0 55 -10t43 -27t28 -40.5t10 -51.5q0 -23 -7 -43.5t-19 -40t-28.5 -38t-34.5 -37.5l-71 -75h174v-60h-293v15l148 159q29 32 46.5 59t17.5 56q0 30 -18.5 51.5t-50.5 21.5
q-33 0 -52 -21.5t-19 -54.5q0 -7 0.5 -15t1.5 -17h-65q-2 9 -3 18.5t-1 17.5q0 25 9.5 49t27.5 42.5t43.5 30t57.5 11.5z" />
    <glyph glyph-name="threequarters" unicode="&#xbe;" horiz-adv-x="853" 
d="M304 641l-100 -135q19 -4 38.5 -13.5t35.5 -25t25.5 -38t9.5 -51.5q0 -32 -12 -58t-32.5 -44.5t-47.5 -28.5t-57 -10q-53 0 -89 26t-56 64l46 33q17 -27 39.5 -44.5t57.5 -17.5q36 0 60 21.5t24 58.5q0 35 -24.5 54t-70.5 19h-42v18l97 131h-158v60h256v-19zM282 0h-68
l377 660h70zM781 129h56v-55h-56v-73h-61v73h-207v18l129 325h68l-117 -288h127v130h61v-130z" />
    <glyph glyph-name="multiply" unicode="&#xd7;" 
d="M483 472l-156 -156l156 -158l-46 -46l-157 156l-156 -156l-47 46l156 158l-156 156l47 47l156 -156l156 156z" />
    <glyph glyph-name="divide" unicode="&#xf7;" 
d="M278 545q23 0 39 -15.5t16 -38.5q0 -22 -16 -37.5t-39 -15.5t-39 15.5t-16 37.5q0 23 16 38.5t39 15.5zM278 188q23 0 39 -15t16 -38q0 -22 -16 -37.5t-39 -15.5t-39 15.5t-16 37.5q0 23 16 38t39 15zM502 281h-446v68h446v-68z" />
    <glyph glyph-name="florin" unicode="&#x192;" horiz-adv-x="443" 
d="M380 330h-113l-38 -306q-10 -83 -53 -120t-113 -37q-17 0 -31 2t-27 5v65q25 -3 44 -3q45 0 71 20t33 74l37 300h-77v69h86l14 114q10 83 53 120.5t113 37.5q32 0 58 -8v-64q-13 1 -24 1.5t-21 0.5q-45 0 -70.5 -20t-32.5 -73l-14 -109h105v-69z" />
    <glyph glyph-name="dotlessj" unicode="&#x237;" horiz-adv-x="246" 
d="M162 -33q0 -83 -45 -120.5t-115 -37.5q-19 0 -33.5 2t-28.5 6v65q13 -2 23 -2.5t22 -0.5q45 0 72.5 19.5t27.5 73.5v515h77v-520z" />
    <glyph glyph-name="breve" unicode="&#x2d8;" horiz-adv-x="364" 
d="M334 736q0 -32 -11.5 -60t-31.5 -48.5t-48 -32t-61 -11.5t-61 11.5t-48 32t-31.5 48.5t-11.5 60h65q0 -42 25 -66.5t62 -24.5q38 0 63 24.5t25 66.5h64z" />
    <glyph glyph-name="dotaccent" unicode="&#x2d9;" horiz-adv-x="175" 
d="M88 729q23 0 40 -16.5t17 -39.5q0 -24 -17 -40t-40 -16q-24 0 -41 16t-17 40q0 23 17 39.5t41 16.5z" />
    <glyph glyph-name="hungarumlaut" unicode="&#x2dd;" horiz-adv-x="390" 
d="M360 766l-112 -200h-56l85 214h83v-14zM198 766l-113 -200h-55l85 214h83v-14z" />
    <glyph glyph-name="uni0326" unicode="&#x326;" horiz-adv-x="145" 
d="M91 -220h-61l9 171h76z" />
    <glyph glyph-name="uni0400" unicode="&#x400;" horiz-adv-x="566" 
d="M514 590h-345v-202h264v-70h-264v-248h357v-70h-435v660h423v-70zM333 724h-59l-120 172v14h94z" />
    <glyph glyph-name="uni0401" unicode="&#x401;" horiz-adv-x="566" 
d="M514 590h-345v-202h264v-70h-264v-248h357v-70h-435v660h423v-70zM418 863q23 0 39 -15.5t16 -38.5q0 -22 -16 -37.5t-39 -15.5q-21 0 -38 15.5t-17 37.5q0 23 17 38.5t38 15.5zM186 863q23 0 39 -15t16 -38t-16 -38t-39 -15q-21 0 -38 15t-17 38t17 38t38 15z" />
    <glyph glyph-name="uni0402" unicode="&#x402;" horiz-adv-x="757" 
d="M561 590h-232v-187h150q54 0 96 -15.5t71 -42.5t44.5 -64.5t15.5 -82.5q0 -51 -18.5 -88t-50 -62t-72.5 -39.5t-85 -19.5l-15 70q31 5 60 15t51.5 26.5t35.5 40.5t13 58q0 28 -9.5 52t-28 42t-46 28.5t-63.5 10.5h-149v-332h-78v590h-232v70h542v-70z" />
    <glyph glyph-name="uni0403" unicode="&#x403;" horiz-adv-x="508" 
d="M485 590h-316v-590h-78v660h394v-70zM413 896l-120 -172h-59l85 186h94v-14z" />
    <glyph glyph-name="uni0404" unicode="&#x404;" horiz-adv-x="715" 
d="M391 671q90 0 161 -39.5t113 -102.5l-58 -46q-38 54 -92 85t-123 31q-49 0 -92 -15.5t-76.5 -43.5t-57 -67t-32.5 -85h356v-70h-361q2 -56 23 -103t56 -81t82.5 -53.5t101.5 -19.5q69 0 123 31t92 85l58 -46q-40 -63 -112 -102.5t-162 -39.5q-72 0 -134.5 26t-109 72
t-73 108.5t-26.5 134.5t26.5 134.5t73 108.5t109 72t134.5 26z" />
    <glyph glyph-name="uni0405" unicode="&#x405;" horiz-adv-x="557" 
d="M282 671q68 0 122 -31.5t85 -80.5l-58 -43q-26 40 -65.5 61.5t-84.5 21.5q-23 0 -44.5 -6t-38 -18t-26 -30t-9.5 -42q0 -23 8.5 -39t22.5 -28.5t33.5 -22.5t42.5 -21l73 -35q36 -17 64.5 -35.5t48.5 -40.5t30.5 -48.5t10.5 -59.5q0 -42 -16.5 -76t-45 -58t-67.5 -37
t-84 -13q-79 0 -142 38t-101 104l58 43q15 -23 33.5 -43.5t41 -36t50 -24.5t59.5 -9q58 0 95.5 29.5t37.5 80.5q0 23 -8 39.5t-23 29.5t-35 24t-44 23l-74 35q-29 14 -56 30t-48 37t-33.5 48t-12.5 62q0 39 16 71t43.5 54.5t64 34.5t76.5 12z" />
    <glyph glyph-name="uni0406" unicode="&#x406;" horiz-adv-x="259" 
d="M169 0h-78v660h78v-660z" />
    <glyph glyph-name="uni0407" unicode="&#x407;" horiz-adv-x="259" 
d="M169 0h-78v660h78v-660zM246 863q23 0 39 -15.5t16 -38.5q0 -22 -16 -37.5t-39 -15.5q-21 0 -38 15.5t-17 37.5q0 23 17 38.5t38 15.5zM14 863q23 0 39 -15t16 -38t-16 -38t-39 -15q-21 0 -38 15t-17 38t17 38t38 15z" />
    <glyph glyph-name="uni0408" unicode="&#x408;" horiz-adv-x="372" 
d="M283 153q0 -86 -48 -125t-124 -39q-24 0 -45.5 3t-41.5 8v67q40 -6 71 -6q25 0 45 4.5t34.5 15.5t22.5 30t8 49v500h78v-507z" />
    <glyph glyph-name="uni0409" unicode="&#x409;" horiz-adv-x="1010" 
d="M557 400h183q51 0 92 -15t69.5 -41.5t43.5 -63.5t15 -80q0 -44 -15 -80.5t-43.5 -63t-69.5 -41.5t-92 -15h-261v590h-223q0 -158 -18.5 -266.5t-52 -177t-81 -103.5t-104.5 -46v73q45 13 78.5 48t55.5 95.5t33 147.5t11 204v95h379v-260zM557 330v-260h182q69 0 104.5 37
t35.5 92q0 57 -35.5 94t-104.5 37h-182z" />
    <glyph glyph-name="uni040A" unicode="&#x40a;" horiz-adv-x="1055" 
d="M602 391h182q51 0 92 -14.5t69.5 -40.5t44 -62t15.5 -78q0 -43 -15.5 -79t-44 -62t-69.5 -40.5t-92 -14.5h-260v321h-355v-321h-78v660h78v-269h355v269h78v-269zM601 321v-251h182q70 0 105 35.5t35 89.5t-35.5 90t-104.5 36h-182z" />
    <glyph glyph-name="uni040B" unicode="&#x40b;" horiz-adv-x="791" 
d="M468 402q57 0 100.5 -18t73.5 -51.5t45 -81t15 -105.5v-146h-78v143q0 92 -39.5 139t-123.5 47q-29 0 -64.5 -6t-67.5 -17v-306h-78v590h-232v70h542v-70h-232v-212q32 11 68 17.5t71 6.5z" />
    <glyph glyph-name="uni040C" unicode="&#x40c;" horiz-adv-x="633" 
d="M454 896l-120 -172h-59l85 186h94v-14zM279 354l323 -354h-99l-325 354l297 306h100zM169 0h-78v660h78v-660z" />
    <glyph glyph-name="uni040D" unicode="&#x40d;" horiz-adv-x="718" 
d="M628 0h-78v503l-431 -514h-28v671h78v-505l430 516h29v-671zM379 724h-59l-120 172v14h94z" />
    <glyph glyph-name="uni040E" unicode="&#x40e;" horiz-adv-x="610" 
d="M346 119q-29 -66 -77 -98t-114 -32q-19 0 -39 2.5t-38 7.5v68q18 -2 34 -4t30 -2q43 0 77.5 20t54.5 65l2 6l-233 508h89l185 -422l175 422h88zM460 892q0 -33 -11.5 -61t-31.5 -48.5t-48 -32t-61 -11.5t-61 11.5t-48 32t-31.5 48.5t-11.5 61h65q0 -43 25 -67.5t62 -24.5
q38 0 62.5 24.5t24.5 67.5h65z" />
    <glyph glyph-name="uni040F" unicode="&#x40f;" horiz-adv-x="682" 
d="M592 0h-212v-141h-78v141h-211v660h78v-590h345v590h78v-660z" />
    <glyph glyph-name="uni0410" unicode="&#x410;" horiz-adv-x="663" 
d="M633 0h-84l-57 134h-322l-56 -134h-83l287 671h28zM199 204h264l-131 323z" />
    <glyph glyph-name="uni0411" unicode="&#x411;" horiz-adv-x="616" 
d="M504 590h-335v-205h194q49 0 88 -14.5t66 -40t41.5 -61t14.5 -77.5t-14.5 -77t-41.5 -60.5t-66 -40t-88 -14.5h-272v660h413v-70zM169 314v-244h187q67 0 101.5 34t34.5 88t-34.5 88t-101.5 34h-187z" />
    <glyph glyph-name="uni0412" unicode="&#x412;" horiz-adv-x="616" 
d="M318 660q44 0 79 -12.5t59 -35t37 -53t13 -66.5q0 -42 -16.5 -75t-47.5 -55q63 -19 97 -64.5t34 -108.5q0 -41 -14.5 -75.5t-41.5 -60t-66 -40t-88 -14.5h-272v660h227zM169 314v-244h186q67 0 102 34t35 88t-35 88t-102 34h-186zM169 590v-205h141q58 0 87 28.5t29 74.5
t-29 74t-87 28h-141z" />
    <glyph glyph-name="uni0413" unicode="&#x413;" horiz-adv-x="508" 
d="M485 590h-316v-590h-78v660h394v-70z" />
    <glyph glyph-name="uni0414" unicode="&#x414;" horiz-adv-x="691" 
d="M657 -141h-78v141h-478v-141h-78v211h51q31 28 57.5 69.5t45.5 102.5t29.5 144t10.5 195v79h361v-590h79v-211zM293 590q-1 -105 -9.5 -186.5t-24.5 -144.5t-39.5 -109t-54.5 -80h335v520h-207z" />
    <glyph glyph-name="uni0415" unicode="&#x415;" horiz-adv-x="566" 
d="M514 590h-345v-202h264v-70h-264v-248h357v-70h-435v660h423v-70z" />
    <glyph glyph-name="uni0416" unicode="&#x416;" horiz-adv-x="966" 
d="M434 354l-304 -354h-100l303 354l-276 306h100zM631 354l304 -354h-99l-305 354l277 306h100zM522 0h-78v660h78v-660z" />
    <glyph glyph-name="uni0417" unicode="&#x417;" horiz-adv-x="582" 
d="M287 671q45 0 82 -13.5t63.5 -37.5t41 -56.5t14.5 -69.5q0 -42 -18.5 -77t-51.5 -58q56 -21 86 -65.5t30 -101.5q0 -45 -18 -82t-50 -64t-75.5 -42t-93.5 -15q-84 0 -148 40t-101 105l57 42q33 -51 81 -83t110 -32q33 0 61.5 10t50 27.5t33.5 42t12 53.5q0 24 -8.5 45.5
t-25.5 38t-42.5 26.5t-58.5 10h-137v71h112q57 0 85.5 30t28.5 75q0 47 -31.5 78t-88.5 31q-53 0 -93 -25t-68 -65l-57 42q32 54 89 87t129 33z" />
    <glyph glyph-name="uni0418" unicode="&#x418;" horiz-adv-x="718" 
d="M628 0h-78v503l-431 -514h-28v671h78v-505l430 516h29v-671z" />
    <glyph glyph-name="uni0419" unicode="&#x419;" horiz-adv-x="718" 
d="M628 0h-78v503l-431 -514h-28v671h78v-505l430 516h29v-671zM501 892q0 -33 -11.5 -61t-31.5 -48.5t-48 -32t-61 -11.5t-61 11.5t-48 32t-31.5 48.5t-11.5 61h65q0 -43 25 -67.5t62 -24.5q38 0 62.5 24.5t24.5 67.5h65z" />
    <glyph glyph-name="uni041A" unicode="&#x41a;" horiz-adv-x="633" 
d="M279 354l323 -354h-99l-325 354l297 306h100zM169 0h-78v660h78v-660z" />
    <glyph glyph-name="uni041B" unicode="&#x41b;" horiz-adv-x="648" 
d="M557 1h-78v589h-223q-1 -158 -19.5 -266.5t-52 -177.5t-80.5 -103.5t-104 -45.5v73q45 13 78.5 48t55.5 95.5t33 147.5t11 204v95h379v-659z" />
    <glyph glyph-name="uni041C" unicode="&#x41c;" horiz-adv-x="789" 
d="M699 0h-78v475l-212 -288h-27l-213 289v-476h-78v671h28l276 -382l276 382h28v-671z" />
    <glyph glyph-name="uni041D" unicode="&#x41d;" horiz-adv-x="708" 
d="M618 0h-78v318h-371v-318h-78v660h78v-272h371v272h78v-660z" />
    <glyph glyph-name="uni041E" unicode="&#x41e;" horiz-adv-x="781" 
d="M390 671q71 0 133 -26t108.5 -72t73.5 -108.5t27 -134.5t-27 -134.5t-73.5 -108.5t-108.5 -72t-133 -26q-72 0 -134 26.5t-108.5 72t-73 108t-26.5 134.5t26.5 134.5t73 108.5t109 72t133.5 26zM391 599q-57 0 -105 -20.5t-83 -56.5t-54.5 -85t-19.5 -106
q0 -58 19.5 -107.5t54.5 -85.5t83 -56.5t105 -20.5q56 0 103.5 20.5t82.5 56.5t54.5 85.5t19.5 107.5q0 57 -19.5 106t-54.5 85t-82.5 56.5t-103.5 20.5z" />
    <glyph glyph-name="uni041F" unicode="&#x41f;" horiz-adv-x="682" 
d="M592 0h-78v590h-345v-590h-78v660h501v-660z" />
    <glyph glyph-name="uni0420" unicode="&#x420;" horiz-adv-x="573" 
d="M323 660q49 0 88 -14t66.5 -39.5t42.5 -60.5t15 -77t-15 -77.5t-42.5 -61t-66.5 -40t-88 -14.5h-154v-276h-78v660h232zM169 590v-244h152q66 0 99.5 34t33.5 88q0 53 -33.5 87.5t-99.5 34.5h-152z" />
    <glyph glyph-name="uni0421" unicode="&#x421;" horiz-adv-x="715" 
d="M391 671q90 0 161 -39.5t113 -102.5l-58 -46q-38 54 -92 85t-123 31q-56 0 -104 -20.5t-83.5 -56.5t-55.5 -85t-20 -107t20 -107t55.5 -85t83.5 -56.5t104 -20.5q69 0 123 31t92 85l58 -46q-40 -63 -112 -102.5t-162 -39.5q-72 0 -134.5 26t-109 72t-73 108.5
t-26.5 134.5t26.5 134.5t73 108.5t109 72t134.5 26z" />
    <glyph glyph-name="uni0422" unicode="&#x422;" horiz-adv-x="581" 
d="M561 590h-232v-590h-78v590h-232v70h542v-70z" />
    <glyph glyph-name="uni0423" unicode="&#x423;" horiz-adv-x="610" 
d="M346 119q-29 -66 -77 -98t-114 -32q-19 0 -39 2.5t-38 7.5v68q18 -2 34 -4t30 -2q43 0 77.5 20t54.5 65l2 6l-233 508h89l185 -422l175 422h88z" />
    <glyph glyph-name="uni0424" unicode="&#x424;" horiz-adv-x="798" 
d="M437 605q68 0 125 -19t98.5 -53.5t65 -84.5t23.5 -113q0 -64 -23.5 -114.5t-65 -86t-98.5 -54t-125 -18.5v-93h-78v93q-68 0 -125 19t-98.5 54.5t-64.5 86t-23 113.5t23 113t64.5 84.5t98.5 53.5t125 19v86h78v-86zM669 333q0 48 -17 85.5t-47.5 63t-73 39t-94.5 13.5
v-401q52 0 94.5 13t73 38.5t47.5 63t17 85.5zM129 333q0 -48 16.5 -85.5t46.5 -63t72.5 -38.5t94.5 -13v401q-52 0 -94.5 -13.5t-72.5 -39t-46.5 -63t-16.5 -85.5z" />
    <glyph glyph-name="uni0425" unicode="&#x425;" horiz-adv-x="599" 
d="M344 337l224 -337h-90l-179 271l-178 -271h-91l226 338l-211 322h91l164 -257l163 257h89z" />
    <glyph glyph-name="uni0426" unicode="&#x426;" horiz-adv-x="697" 
d="M584 70h80v-211h-78v141h-495v660h78v-590h337v590h78v-590z" />
    <glyph glyph-name="uni0427" unicode="&#x427;" horiz-adv-x="623" 
d="M533 0h-78v259q-31 -11 -67.5 -17.5t-73.5 -6.5q-59 0 -107.5 17t-84 50.5t-55 83t-19.5 114.5v160h78v-154q0 -50 14 -87.5t39.5 -62t60 -37t76.5 -12.5q32 0 69.5 6.5t69.5 20.5v326h78v-660z" />
    <glyph glyph-name="uni0428" unicode="&#x428;" horiz-adv-x="1022" 
d="M932 0h-841v660h78v-590h304v590h78v-590h303v590h78v-660z" />
    <glyph glyph-name="uni0429" unicode="&#x429;" horiz-adv-x="1045" 
d="M932 70h80v-211h-78v141h-843v660h78v-590h304v590h78v-590h303v590h78v-590z" />
    <glyph glyph-name="uni042A" unicode="&#x42a;" horiz-adv-x="639" 
d="M185 400h183q51 0 92 -15t69.5 -41.5t43.5 -63.5t15 -80q0 -44 -15 -80.5t-43.5 -63t-69.5 -41.5t-92 -15h-261v590h-117v70h195v-260zM185 330v-260h182q69 0 104.5 37t35.5 92q0 57 -35.5 94t-104.5 37h-182z" />
    <glyph glyph-name="uni042B" unicode="&#x42b;" horiz-adv-x="882" 
d="M169 400h184q51 0 92 -15t69.5 -41.5t43.5 -63.5t15 -80q0 -44 -15 -80.5t-43.5 -63t-69.5 -41.5t-92 -15h-262v660h78v-260zM169 330v-260h183q69 0 104.5 37t35.5 92q0 57 -35.5 94t-104.5 37h-183zM792 0h-78v660h78v-660z" />
    <glyph glyph-name="uni042C" unicode="&#x42c;" horiz-adv-x="623" 
d="M169 400h184q51 0 92 -15t69.5 -41.5t43.5 -63.5t15 -80q0 -44 -15 -80.5t-43.5 -63t-69.5 -41.5t-92 -15h-262v660h78v-260zM169 330v-260h183q69 0 104.5 37t35.5 92q0 57 -35.5 94t-104.5 37h-183z" />
    <glyph glyph-name="uni042D" unicode="&#x42d;" horiz-adv-x="715" 
d="M323 671q72 0 134.5 -26t109 -72t73 -108.5t26.5 -134.5t-26.5 -134.5t-73 -108.5t-109 -72t-134.5 -26q-90 0 -162 39.5t-112 102.5l59 46q37 -54 91 -85t123 -31q54 0 101 19.5t82.5 53.5t56.5 81t23 103h-360v70h354q-9 46 -32 85t-57 67t-77 43.5t-91 15.5
q-69 0 -123 -31t-91 -85l-59 46q42 63 113 102.5t161 39.5z" />
    <glyph glyph-name="uni042E" unicode="&#x42e;" horiz-adv-x="1075" 
d="M169 388h182q10 61 39 113t73.5 90t100.5 59t120 21q71 0 133.5 -26t109 -72t73.5 -108.5t27 -134.5t-27 -134.5t-73.5 -108.5t-109 -72t-133.5 -26q-69 0 -130 25t-106.5 69.5t-72.5 104.5t-29 130h-177v-318h-78v660h78v-272zM685 599q-56 0 -103.5 -20.5t-82.5 -56.5
t-55 -85t-20 -106q0 -58 20 -107.5t55 -85.5t82.5 -56.5t103.5 -20.5t103.5 20.5t82.5 56.5t55 85.5t20 107.5q0 57 -20 106t-55 85t-82.5 56.5t-103.5 20.5z" />
    <glyph glyph-name="uni042F" unicode="&#x42f;" horiz-adv-x="618" 
d="M528 0h-78v250h-143h-21l-168 -250h-89l178 267q-60 23 -93 72.5t-33 115.5q0 45 15.5 82.5t45 64.5t71 42.5t94.5 15.5h221v-660zM307 590q-71 0 -108 -39t-37 -96q0 -58 37 -96.5t108 -38.5h143v270h-143z" />
    <glyph glyph-name="uni0430" unicode="&#x430;" horiz-adv-x="529" 
d="M259 498q42 0 77 -12.5t60.5 -37.5t39.5 -62t14 -86v-300h-73v62q-26 -35 -67.5 -54t-95.5 -19q-37 0 -68.5 9.5t-54 27t-35 43t-12.5 57.5q0 62 47.5 99t127.5 37h154v42q0 62 -32 92.5t-87 30.5q-45 0 -78.5 -20.5t-62.5 -57.5l-52 42q35 56 87 81.5t111 25.5zM223 53
q30 0 57.5 10t48 28t32.5 42.5t12 53.5v12h-146q-104 0 -104 -69q0 -39 30 -58t70 -19z" />
    <glyph glyph-name="uni0431" unicode="&#x431;" horiz-adv-x="625" 
d="M519 694l-124 -38q-59 -18 -103.5 -40.5t-75.5 -54t-47.5 -74.5t-19.5 -101q29 41 76 67.5t107 26.5q50 0 94.5 -19.5t77.5 -52.5t52 -77.5t19 -95.5t-19.5 -95.5t-53 -77.5t-80 -52.5t-100.5 -19.5q-53 0 -99 19t-79.5 54t-53 86t-19.5 115v73q0 90 19.5 152.5t58 107
t94.5 74t129 52.5l127 38zM323 409q-36 0 -67.5 -13.5t-55.5 -37t-37.5 -55.5t-13.5 -68t13.5 -68t37.5 -55.5t55.5 -37t67.5 -13.5t68 13.5t55 37t36.5 55.5t13.5 68t-13.5 68t-37 55.5t-55 37t-67.5 13.5z" />
    <glyph glyph-name="uni0432" unicode="&#x432;" horiz-adv-x="549" 
d="M311 487q71 0 113 -34t42 -92q0 -32 -13 -58t-36 -44q37 -15 59.5 -44t22.5 -72q0 -30 -11.5 -56.5t-33.5 -45.5t-53.5 -30t-70.5 -11h-239v487h220zM168 220v-152h157q50 0 75.5 22.5t25.5 56.5t-26.5 53.5t-74.5 19.5h-157zM168 418v-130h143q41 0 61 17.5t20 48.5
q0 64 -81 64h-143z" />
    <glyph glyph-name="uni0433" unicode="&#x433;" horiz-adv-x="442" 
d="M430 418h-262v-418h-77v487h339v-69z" />
    <glyph glyph-name="uni0434" unicode="&#x434;" horiz-adv-x="621" 
d="M581 -141h-77v141h-387v-141h-77v209h50q21 21 39 50.5t30.5 74t19.5 107t7 148.5v39h314v-419h81v-209zM263 418q-1 -135 -20 -218t-64 -132h244v350h-160z" />
    <glyph glyph-name="uni0435" unicode="&#x435;" horiz-adv-x="571" 
d="M299 498q46 0 86.5 -16t70.5 -45t47 -69.5t17 -89.5q0 -20 -2 -35.5t-4 -22.5h-384q4 -37 18.5 -66.5t38 -50.5t54.5 -32t67 -11q47 0 83 18t66 48l45 -52q-36 -39 -85.5 -62t-109.5 -23q-55 0 -102 19.5t-81.5 54t-54 80.5t-19.5 100q0 53 19 99.5t53 81t79 54.5t98 20z
M297 428q-31 0 -58.5 -10t-49 -28.5t-36 -44.5t-20.5 -57h308q0 34 -12 60t-31.5 44t-45.5 27t-55 9z" />
    <glyph glyph-name="uni0436" unicode="&#x436;" horiz-adv-x="776" 
d="M528 265l227 -265h-97l-222 264l201 223h99zM340 264l-223 -264h-97l227 265l-207 222h98zM427 0h-77v487h77v-487z" />
    <glyph glyph-name="uni0437" unicode="&#x437;" horiz-adv-x="498" 
d="M241 -11q-64 0 -113.5 24.5t-82.5 69.5l52 46q23 -30 57 -49.5t86 -19.5q57 0 87 23.5t30 61.5q0 34 -27 56.5t-83 22.5h-89v68h91q44 0 65 18.5t21 48.5q0 34 -25 51t-73 17t-78.5 -16.5t-53.5 -43.5l-52 46q26 36 73 60.5t114 24.5q39 0 71 -9t55 -26t35.5 -42
t12.5 -56q0 -34 -15.5 -62t-44.5 -46q39 -18 60.5 -50t21.5 -71q0 -33 -14.5 -60t-40.5 -46.5t-62 -30t-78 -10.5z" />
    <glyph glyph-name="uni0438" unicode="&#x438;" horiz-adv-x="598" 
d="M507 0h-76v341l-312 -352h-28v498h77v-342l312 353h27v-498z" />
    <glyph glyph-name="uni0439" unicode="&#x439;" horiz-adv-x="598" 
d="M507 0h-76v341l-312 -352h-28v498h77v-342l312 353h27v-498zM451 736q0 -32 -11.5 -60t-31.5 -48.5t-48 -32t-61 -11.5t-61 11.5t-48 32t-31.5 48.5t-11.5 60h65q0 -42 25 -66.5t62 -24.5q38 0 63 24.5t25 66.5h64z" />
    <glyph glyph-name="uni043A" unicode="&#x43a;" horiz-adv-x="521" 
d="M273 265l228 -265h-97l-226 264l205 223h99zM168 0h-77v487h77v-487z" />
    <glyph glyph-name="uni043B" unicode="&#x43b;" horiz-adv-x="558" 
d="M467 0h-76v418h-173v-50q0 -101 -15.5 -169t-42.5 -111t-64.5 -64.5t-80.5 -28.5v69q34 10 58 34t39 65.5t22 101.5t7 143v79h326v-487z" />
    <glyph glyph-name="uni043C" unicode="&#x43c;" horiz-adv-x="698" 
d="M608 0h-77v329l-167 -198h-29l-167 198v-329h-77v498h28l231 -274l230 274h28v-498z" />
    <glyph glyph-name="uni043D" unicode="&#x43d;" horiz-adv-x="585" 
d="M494 0h-76v225h-250v-225h-77v487h77v-194h250v194h76v-487z" />
    <glyph glyph-name="uni043E" unicode="&#x43e;" horiz-adv-x="610" 
d="M305 498q52 0 98.5 -19.5t81 -54t54.5 -80.5t20 -100q0 -53 -20 -99.5t-54.5 -81t-81 -54t-99.5 -19.5t-99 20t-80.5 54t-54.5 80t-20 100t19.5 100t54 80.5t81 54t100.5 19.5zM305 427q-38 0 -70.5 -14t-56 -39t-36.5 -58.5t-13 -72.5t13 -72t36.5 -57.5t55.5 -38.5
t70 -14t70 14t55.5 38.5t37 58t13.5 71.5q0 39 -13.5 73t-36.5 58.5t-55.5 38.5t-69.5 14z" />
    <glyph glyph-name="uni043F" unicode="&#x43f;" horiz-adv-x="578" 
d="M488 0h-78v418h-242v-418h-77v487h397v-487z" />
    <glyph glyph-name="uni0440" unicode="&#x440;" horiz-adv-x="638" 
d="M347 498q52 0 96.5 -19.5t76.5 -54t50 -80.5t18 -100t-18 -100.5t-50.5 -81t-76.5 -54t-96 -19.5q-54 0 -102 21.5t-77 60.5v-251h-77v667h72v-79q29 42 77.5 66t106.5 24zM337 427q-32 0 -62.5 -10.5t-54.5 -33t-38.5 -57t-14.5 -82.5t14.5 -83t38.5 -57.5t54.5 -33
t62.5 -10.5q37 0 68.5 13.5t54.5 38t36 58t13 73.5t-13 73.5t-35.5 58t-54.5 38.5t-69 14z" />
    <glyph glyph-name="uni0441" unicode="&#x441;" horiz-adv-x="551" 
d="M305 498q66 0 117 -29t83 -77l-54 -44q-27 36 -62 57.5t-83 21.5q-38 0 -70.5 -14.5t-56 -39t-37 -58t-13.5 -71.5q0 -39 13.5 -72.5t37 -58t56 -39t70.5 -14.5q47 0 82 21t62 57l54 -43q-32 -48 -83 -77t-116 -29q-53 0 -99.5 19.5t-81 54t-54.5 81t-20 100.5
q0 53 20 99.5t54.5 81t81 54t99.5 19.5z" />
    <glyph glyph-name="uni0442" unicode="&#x442;" horiz-adv-x="464" 
d="M443 418h-173v-418h-76v418h-174v69h423v-69z" />
    <glyph glyph-name="uni0443" unicode="&#x443;" horiz-adv-x="539" 
d="M272 -68q-29 -66 -68.5 -94.5t-96.5 -28.5q-18 0 -37.5 2.5t-36.5 7.5v65q17 -2 31.5 -3.5t27.5 -1.5q35 0 62.5 15.5t47.5 62.5l26 59l-202 471h83l160 -388l161 388h82z" />
    <glyph glyph-name="uni0444" unicode="&#x444;" horiz-adv-x="730" 
d="M403 496q60 0 110.5 -18.5t87 -51.5t57.5 -79.5t21 -103.5q0 -58 -20.5 -104.5t-57.5 -79.5t-87.5 -51.5t-110.5 -18.5v-169h-77v169q-60 0 -111 18.5t-87.5 51.5t-57 79.5t-20.5 104.5q0 57 21 103.5t57.5 79.5t87 51.5t110.5 18.5v254h77v-254zM129 242q0 -42 14 -76
t40 -58t62.5 -37t81.5 -13h1v368h-1q-45 0 -81.5 -13t-62.5 -37t-40 -58t-14 -76zM401 426v-368h1q45 0 81.5 13t62.5 37t40 58t14 76t-14 76t-40 58t-62.5 37t-81.5 13h-1z" />
    <glyph glyph-name="uni0445" unicode="&#x445;" horiz-adv-x="497" 
d="M291 253l185 -253h-88l-141 197l-139 -197h-88l183 254l-169 233h88l126 -177l126 177h88z" />
    <glyph glyph-name="uni0446" unicode="&#x446;" horiz-adv-x="594" 
d="M475 68h79v-209h-77v141h-386v487h77v-419h230v419h77v-419z" />
    <glyph glyph-name="uni0447" unicode="&#x447;" horiz-adv-x="544" 
d="M454 0h-77v186q-23 -8 -52 -14t-61 -6q-46 0 -85.5 13.5t-68 41t-44.5 68.5t-16 95v103h76v-99q0 -80 40 -115t103 -35q26 0 54.5 5t53.5 15v229h77v-487z" />
    <glyph glyph-name="uni0448" unicode="&#x448;" horiz-adv-x="861" 
d="M771 0h-680v487h77v-419h224v419h77v-419h225v419h77v-487z" />
    <glyph glyph-name="uni0449" unicode="&#x449;" horiz-adv-x="890" 
d="M771 68h79v-209h-77v141h-682v487h77v-419h225v419h77v-419h224v419h77v-419z" />
    <glyph glyph-name="uni044A" unicode="&#x44a;" horiz-adv-x="566" 
d="M186 330h138q86 0 136 -45t50 -120t-50 -120t-136 -45h-215v418h-109v69h186v-157zM187 261v-193h132q54 0 83.5 26.5t29.5 69.5t-29.5 70t-83.5 27h-132z" />
    <glyph glyph-name="uni044B" unicode="&#x44b;" horiz-adv-x="778" 
d="M687 0h-76v487h76v-487zM168 330h137q86 0 136.5 -45t50.5 -120t-50.5 -120t-136.5 -45h-214v487h77v-157zM168 261v-193h133q54 0 83 26.5t29 69.5t-29.5 70t-83.5 27h-132z" />
    <glyph glyph-name="uni044C" unicode="&#x44c;" horiz-adv-x="547" 
d="M168 330h137q86 0 136.5 -45t50.5 -120t-50.5 -120t-136.5 -45h-214v487h77v-157zM168 261v-193h133q54 0 83 26.5t29 69.5t-29.5 70t-83.5 27h-132z" />
    <glyph glyph-name="uni044D" unicode="&#x44d;" horiz-adv-x="551" 
d="M246 498q53 0 99 -19.5t80.5 -54t54.5 -81t20 -99.5q0 -54 -20 -100.5t-54.5 -81t-80.5 -54t-99 -19.5q-66 0 -117 29t-83 77l54 43q27 -36 62 -57t83 -21q34 0 64 11.5t53 32.5t37.5 49.5t19.5 62.5h-239v68h237q-6 31 -21.5 57t-38 45t-51 30t-61.5 11
q-48 0 -83.5 -21.5t-62.5 -57.5l-54 44q32 48 83.5 77t117.5 29z" />
    <glyph glyph-name="uni044E" unicode="&#x44e;" horiz-adv-x="850" 
d="M168 293h126q8 44 30.5 81.5t55 65t74 43t88.5 15.5q53 0 100 -19.5t82 -54t55 -81t20 -99.5t-20 -99.5t-55 -81t-82 -54.5t-100 -20q-51 0 -95.5 18t-78 50t-54 75t-23.5 93h-123v-225h-77v488h77v-195zM544 427q-38 0 -70 -14t-55.5 -39t-37 -58.5t-13.5 -72.5
t13.5 -72t37 -58t55.5 -39t70 -14q37 0 69.5 14t55.5 39t36.5 58.5t13.5 72.5t-13.5 72t-36.5 58t-55.5 39t-69.5 14z" />
    <glyph glyph-name="uni044F" unicode="&#x44f;" horiz-adv-x="562" 
d="M471 0h-77v157h-138h-7l-136 -157h-87l145 171q-48 19 -74.5 57.5t-26.5 92.5q0 75 50 120.5t136 45.5h215v-487zM262 418q-54 0 -83.5 -26t-29.5 -70q0 -43 29.5 -70t83.5 -27h132v193h-132z" />
    <glyph glyph-name="uni0450" unicode="&#x450;" horiz-adv-x="571" 
d="M299 498q46 0 86.5 -16t70.5 -45t47 -69.5t17 -89.5q0 -20 -2 -35.5t-4 -22.5h-384q4 -37 18.5 -66.5t38 -50.5t54.5 -32t67 -11q47 0 83 18t66 48l45 -52q-36 -39 -85.5 -62t-109.5 -23q-55 0 -102 19.5t-81.5 54t-54 80.5t-19.5 100q0 53 19 99.5t53 81t79 54.5t98 20z
M297 428q-31 0 -58.5 -10t-49 -28.5t-36 -44.5t-20.5 -57h308q0 34 -12 60t-31.5 44t-45.5 27t-55 9zM326 566h-59l-120 200v14h94z" />
    <glyph glyph-name="uni0451" unicode="&#x451;" horiz-adv-x="571" 
d="M299 498q46 0 86.5 -16t70.5 -45t47 -69.5t17 -89.5q0 -20 -2 -35.5t-4 -22.5h-384q4 -37 18.5 -66.5t38 -50.5t54.5 -32t67 -11q47 0 83 18t66 48l45 -52q-36 -39 -85.5 -62t-109.5 -23q-55 0 -102 19.5t-81.5 54t-54 80.5t-19.5 100q0 53 19 99.5t53 81t79 54.5t98 20z
M297 428q-31 0 -58.5 -10t-49 -28.5t-36 -44.5t-20.5 -57h308q0 34 -12 60t-31.5 44t-45.5 27t-55 9zM402 727q23 0 39 -15.5t16 -38.5q0 -22 -16 -37.5t-39 -15.5q-21 0 -38 15.5t-17 37.5q0 23 17 38.5t38 15.5zM190 727q23 0 39 -15.5t16 -38.5q0 -22 -16 -37.5
t-39 -15.5q-21 0 -38 15.5t-17 37.5q0 23 17 38.5t38 15.5z" />
    <glyph glyph-name="uni0452" unicode="&#x452;" horiz-adv-x="580" 
d="M366 580h-202v-162q24 31 61 48.5t85 17.5q43 0 76.5 -14t56.5 -39.5t35.5 -60.5t12.5 -77v-326q0 -42 -12 -71.5t-33.5 -49t-51 -28.5t-64.5 -9q-33 0 -60 8v65q24 -3 43 -3q45 0 73 19t28 74v312q0 57 -32 93t-89 36t-93 -36t-36 -93v-284h-76v580h-83v68h83v102h76
v-102h202v-68z" />
    <glyph glyph-name="uni0453" unicode="&#x453;" horiz-adv-x="442" 
d="M430 418h-262v-418h-77v487h339v-69zM396 766l-120 -200h-59l85 214h94v-14z" />
    <glyph glyph-name="uni0454" unicode="&#x454;" horiz-adv-x="556" 
d="M305 498q66 0 117 -29t83 -77l-53 -44q-28 36 -63 57.5t-83 21.5q-33 0 -62 -11t-51.5 -30t-38 -45t-21.5 -57h238v-68h-241q4 -34 19 -62.5t38.5 -49.5t53.5 -32.5t65 -11.5q47 0 82.5 21t62.5 57l53 -43q-32 -48 -83 -77t-116 -29q-53 0 -99.5 19.5t-81 54t-54.5 81
t-20 100.5q0 53 20 99.5t54.5 81t81 54t99.5 19.5z" />
    <glyph glyph-name="uni0455" unicode="&#x455;" horiz-adv-x="454" 
d="M232 498q54 0 94 -21t69 -56l-47 -48q-23 25 -54 39.5t-65 14.5q-35 0 -58.5 -15.5t-23.5 -45.5q0 -25 19 -39.5t60 -31.5l45 -19q66 -28 98 -60t32 -84q0 -36 -14 -62.5t-38 -44.5t-55 -27t-64 -9q-65 0 -113 28t-78 67l50 51q29 -32 62 -53.5t78 -21.5q38 0 65.5 18
t27.5 51q0 31 -24.5 47t-60.5 31l-48 20q-27 12 -49.5 24.5t-38.5 28.5t-24.5 36t-8.5 46q0 33 13 58.5t35.5 42.5t52.5 26t63 9z" />
    <glyph glyph-name="uni0456" unicode="&#x456;" horiz-adv-x="268" 
d="M173 0h-77v487h77v-487zM135 729q23 0 40 -16.5t17 -39.5q0 -24 -17 -40t-40 -16q-24 0 -41 16t-17 40q0 23 17 39.5t41 16.5z" />
    <glyph glyph-name="uni0457" unicode="&#x457;" horiz-adv-x="268" 
d="M173 0h-76v487h76v-487zM39 722q23 0 39 -15.5t16 -38.5q0 -22 -16 -37.5t-39 -15.5q-22 0 -38.5 15.5t-16.5 37.5q0 23 16.5 38.5t38.5 15.5zM230 722q23 0 39 -15.5t16 -38.5q0 -22 -16 -37.5t-39 -15.5q-21 0 -37.5 15.5t-16.5 37.5q0 23 16.5 38.5t37.5 15.5z" />
    <glyph glyph-name="uni0458" unicode="&#x458;" horiz-adv-x="268" 
d="M173 -33q0 -83 -45 -120.5t-115 -37.5q-19 0 -33.5 2t-28.5 6v65q13 -2 23 -2.5t22 -0.5q45 0 72.5 19.5t27.5 73.5v515h77v-520zM135 729q23 0 40 -16.5t17 -39.5q0 -24 -17 -40t-40 -16q-24 0 -41 16t-17 40q0 23 17 39.5t41 16.5z" />
    <glyph glyph-name="uni0459" unicode="&#x459;" horiz-adv-x="847" 
d="M467 330h138q42 0 76.5 -12t59 -33.5t38 -52t13.5 -67.5t-13.5 -67.5t-38 -52t-59 -33.5t-76.5 -12h-214v418h-173v-50q0 -101 -15.5 -169t-42.5 -111t-64.5 -64.5t-80.5 -28.5v69q34 10 58 34t39 65.5t22 101.5t7 143v79h326v-157zM468 261v-193h133q53 0 82.5 26.5
t29.5 69.5t-29.5 70t-82.5 27h-133z" />
    <glyph glyph-name="uni045A" unicode="&#x45a;" horiz-adv-x="866" 
d="M486 312h137q87 0 137 -41.5t50 -113.5q0 -75 -50 -116t-137 -41h-214v236h-241v-236h-77v487h77v-183h241v183h77v-175zM486 244v-176h132q54 0 83.5 22.5t29.5 65.5q0 40 -29.5 64t-83.5 24h-132z" />
    <glyph glyph-name="uni045B" unicode="&#x45b;" horiz-adv-x="580" 
d="M366 580h-202v-162q24 31 61 48.5t85 17.5q43 0 76.5 -14t56.5 -39.5t35.5 -60.5t12.5 -77v-293h-77v284q0 57 -32 93t-89 36t-93 -36t-36 -93v-284h-76v580h-83v68h83v102h76v-102h202v-68z" />
    <glyph glyph-name="uni045C" unicode="&#x45c;" horiz-adv-x="521" 
d="M273 265l228 -265h-97l-226 264l205 223h99zM168 0h-77v487h77v-487zM421 766l-120 -200h-59l85 214h94v-14z" />
    <glyph glyph-name="uni045D" unicode="&#x45d;" horiz-adv-x="598" 
d="M507 0h-76v341l-312 -352h-28v498h77v-342l312 353h27v-498zM328 566h-59l-120 200v14h94z" />
    <glyph glyph-name="uni045E" unicode="&#x45e;" horiz-adv-x="539" 
d="M272 -68q-29 -66 -68.5 -94.5t-96.5 -28.5q-18 0 -37.5 2.5t-36.5 7.5v65q17 -2 31.5 -3.5t27.5 -1.5q35 0 62.5 15.5t47.5 62.5l26 59l-202 471h83l160 -388l161 388h82zM419 736q0 -32 -11.5 -60t-31.5 -48.5t-48 -32t-61 -11.5t-61 11.5t-48 32t-31.5 48.5t-11.5 60
h65q0 -42 25 -66.5t62 -24.5q38 0 63 24.5t25 66.5h64z" />
    <glyph glyph-name="uni045F" unicode="&#x45f;" horiz-adv-x="566" 
d="M476 0h-154v-141h-77v141h-154v487h77v-419h231v419h77v-487z" />
    <glyph glyph-name="uni0462" unicode="&#x462;" horiz-adv-x="623" 
d="M168 567h278v-68h-278v-110h184q51 0 92 -15t69.5 -41t43.5 -61.5t15 -76.5q0 -42 -15 -77.5t-43.5 -61.5t-69.5 -41t-92 -15h-262v499h-82v68h82v93h78v-93zM169 319v-249h183q69 0 104.5 36.5t35.5 87.5q0 52 -35.5 88.5t-104.5 36.5h-183z" />
    <glyph glyph-name="uni0463" unicode="&#x463;" horiz-adv-x="544" 
d="M164 487h205v-69h-205v-94h139q42 0 76.5 -12t59 -33.5t37.5 -51.5t13 -65q0 -36 -13 -66t-37.5 -51t-59 -33t-76.5 -12h-215v418h-83v69h83v263h76v-263zM164 256v-188h133q55 0 84 26t29 67q0 42 -29 68.5t-84 26.5h-133z" />
    <glyph glyph-name="uni0472" unicode="&#x472;" horiz-adv-x="781" 
d="M390 671q71 0 133 -26t108.5 -72t73.5 -108.5t27 -134.5t-27 -134.5t-73.5 -108.5t-108.5 -72t-133 -26q-72 0 -134 26.5t-108.5 72t-73 108t-26.5 134.5t26.5 134.5t73 108.5t109 72t133.5 26zM390 61q55 0 102.5 20t82.5 55t55 83.5t21 104.5q-37 -16 -69.5 -23
t-64.5 -7q-36 0 -67 7t-60.5 16t-59 16t-63.5 7q-33 0 -66 -8t-71 -25q4 -53 25 -98t55.5 -78t80 -51.5t99.5 -18.5zM267 413q36 0 66 -7t59.5 -15.5t59.5 -15.5t65 -7q31 0 61.5 6.5t65.5 20.5q-10 45 -33 82.5t-56.5 64.5t-75 42t-89.5 15q-50 0 -93 -16t-77 -45
t-56.5 -68.5t-30.5 -87.5q72 31 134 31z" />
    <glyph glyph-name="uni0473" unicode="&#x473;" horiz-adv-x="610" 
d="M305 498q52 0 98.5 -19.5t81 -54t54.5 -81t20 -100.5t-20 -100t-55 -80.5t-81.5 -54t-98.5 -19.5q-53 0 -99 19.5t-80.5 54t-54.5 80.5t-20 100t20 100.5t54.5 81t81 54t99.5 19.5zM304 60q34 0 64 12t53 33t38 49.5t19 62.5q-42 -16 -82 -16q-26 0 -48.5 5t-43.5 11.5
t-42.5 11.5t-46.5 5q-21 0 -41.5 -4.5t-43.5 -12.5q4 -34 19 -63t38 -50t52.5 -32.5t64.5 -11.5zM215 299q25 0 47.5 -5t43.5 -11.5t43 -11.5t47 -5q38 0 80 15q-6 32 -21 58.5t-37.5 46t-51 30.5t-61.5 11t-62 -10.5t-51.5 -30t-37.5 -46t-21 -57.5q42 16 82 16z" />
    <glyph glyph-name="uni0474" unicode="&#x474;" horiz-adv-x="687" 
d="M641 671q24 0 48 -8v-67q-17 3 -30 3q-28 0 -47 -17t-35 -52l-231 -541h-28l-287 671h87l214 -517l176 424q23 54 55 79t78 25z" />
    <glyph glyph-name="uni0475" unicode="&#x475;" horiz-adv-x="546" 
d="M503 493q22 0 43 -6v-66q-10 1 -15 1h-11q-20 0 -34.5 -11.5t-27.5 -37.5l-174 -384h-29l-229 498h82l161 -367l126 286q20 45 45.5 66t62.5 21z" />
    <glyph glyph-name="uni0490" unicode="&#x490;" horiz-adv-x="489" 
d="M465 590h-296v-590h-78v660h296v121h78v-191z" />
    <glyph glyph-name="uni0491" unicode="&#x491;" horiz-adv-x="448" 
d="M437 418h-269v-418h-77v487h269v125h77v-194z" />
    <glyph glyph-name="uni0492" unicode="&#x492;" horiz-adv-x="496" 
d="M429 292h-256v-292h-78v292h-99v71h99v297h381v-70h-303v-227h256v-71z" />
    <glyph glyph-name="uni0493" unicode="&#x493;" horiz-adv-x="465" 
d="M404 200h-240v-200h-76v200h-83v69h83v218h358v-69h-282v-149h240v-69z" />
    <glyph glyph-name="uni0496" unicode="&#x496;" horiz-adv-x="954" 
d="M631 354l245 -286h66v-209h-77v141h-29l-305 354l277 306h100zM434 354l-304 -354h-100l303 354l-276 306h100zM522 0h-78v660h78v-660z" />
    <glyph glyph-name="uni0497" unicode="&#x497;" horiz-adv-x="805" 
d="M527 265l170 -197h67v-209h-77v141h-29l-222 264l201 223h99zM340 264l-223 -264h-97l227 265l-207 222h98zM427 0h-77v487h77v-487z" />
    <glyph glyph-name="uni0498" unicode="&#x498;" horiz-adv-x="582" 
d="M287 671q45 0 82 -13.5t63.5 -37.5t41 -56.5t14.5 -69.5q0 -42 -18.5 -77t-51.5 -58q56 -21 86 -65.5t30 -101.5q0 -45 -18 -82t-50 -64t-75.5 -42t-93.5 -15q-84 0 -148 40t-101 105l57 42q33 -51 81 -83t110 -32q33 0 61.5 10t50 27.5t33.5 42t12 53.5q0 24 -8.5 45.5
t-25.5 38t-42.5 26.5t-58.5 10h-137v71h112q57 0 85.5 30t28.5 75q0 47 -31.5 78t-88.5 31q-53 0 -93 -25t-68 -65l-57 42q32 54 89 87t129 33zM305 26q29 -14 47.5 -40.5t18.5 -61.5q0 -24 -9 -44.5t-25.5 -36.5t-41 -25t-55.5 -9q-17 0 -35 2.5t-34 7.5v55q18 -2 33 -3
t23 -1q33 0 55.5 15t22.5 50q0 24 -10 42t-23 32z" />
    <glyph glyph-name="uni0499" unicode="&#x499;" horiz-adv-x="498" 
d="M241 -11q-64 0 -113.5 24.5t-82.5 69.5l52 46q23 -30 57 -49.5t86 -19.5q57 0 87 23.5t30 61.5q0 34 -27 56.5t-83 22.5h-89v68h91q44 0 65 18.5t21 48.5q0 34 -25 51t-73 17t-78.5 -16.5t-53.5 -43.5l-52 46q26 36 73 60.5t114 24.5q39 0 71 -9t55 -26t35.5 -42
t12.5 -56q0 -34 -15.5 -62t-44.5 -46q39 -18 60.5 -50t21.5 -71q0 -33 -14.5 -60t-40.5 -46.5t-62 -30t-78 -10.5zM255 26q29 -14 47.5 -40.5t18.5 -61.5q0 -24 -9 -44.5t-25.5 -36.5t-41 -25t-55.5 -9q-17 0 -35 2.5t-34 7.5v55q18 -2 33 -3t23 -1q33 0 55.5 15t22.5 50
q0 24 -10 42t-23 32z" />
    <glyph glyph-name="uni049A" unicode="&#x49a;" horiz-adv-x="629" 
d="M279 354l260 -284h78v-211h-78v141h-36l-325 354l297 306h100zM169 0h-78v660h78v-660z" />
    <glyph glyph-name="uni049B" unicode="&#x49b;" horiz-adv-x="550" 
d="M273 265l170 -197h67v-209h-77v141h-29l-226 264l205 223h99zM168 0h-77v487h77v-487z" />
    <glyph glyph-name="uni04A0" unicode="&#x4a0;" horiz-adv-x="661" 
d="M307 354l323 -354h-99l-325 354l297 306h100zM196 0h-78v592h-118v68h196v-660z" />
    <glyph glyph-name="uni04A1" unicode="&#x4a1;" horiz-adv-x="540" 
d="M292 265l228 -265h-97l-226 264l205 223h99zM186 0h-77v418h-109v69h186v-487z" />
    <glyph glyph-name="uni04A2" unicode="&#x4a2;" horiz-adv-x="730" 
d="M618 70h80v-211h-78v141h-80v318h-371v-318h-78v660h78v-272h371v272h78v-590z" />
    <glyph glyph-name="uni04A3" unicode="&#x4a3;" horiz-adv-x="617" 
d="M494 68h83v-209h-77v141h-82v225h-250v-225h-77v487h77v-194h250v194h76v-419z" />
    <glyph glyph-name="uni04AA" unicode="&#x4aa;" horiz-adv-x="715" 
d="M405 26q29 -14 47.5 -40.5t18.5 -61.5q0 -24 -9 -44.5t-25.5 -36.5t-41 -25t-55.5 -9q-17 0 -35 2.5t-34 7.5v55q18 -2 33 -3t23 -1q33 0 55.5 15t22.5 50q0 24 -10 42t-23 32zM391 671q90 0 161 -39.5t113 -102.5l-58 -46q-38 54 -92 85t-123 31q-56 0 -104 -20.5
t-83.5 -56.5t-55.5 -85t-20 -107t20 -107t55.5 -85t83.5 -56.5t104 -20.5q69 0 123 31t92 85l58 -46q-40 -63 -112 -102.5t-162 -39.5q-72 0 -134.5 26t-109 72t-73 108.5t-26.5 134.5t26.5 134.5t73 108.5t109 72t134.5 26z" />
    <glyph glyph-name="uni04AB" unicode="&#x4ab;" horiz-adv-x="551" 
d="M308 26q29 -14 47.5 -40.5t18.5 -61.5q0 -24 -9 -44.5t-25.5 -36.5t-41 -25t-55.5 -9q-17 0 -35 2.5t-34 7.5v55q18 -2 33 -3t23 -1q33 0 55.5 15t22.5 50q0 24 -10 42t-23 32zM305 498q66 0 117 -29t83 -77l-54 -44q-27 36 -62 57.5t-83 21.5q-38 0 -70.5 -14.5t-56 -39
t-37 -58t-13.5 -71.5q0 -39 13.5 -72.5t37 -58t56 -39t70.5 -14.5q47 0 82 21t62 57l54 -43q-32 -48 -83 -77t-116 -29q-53 0 -99.5 19.5t-81 54t-54.5 81t-20 100.5q0 53 20 99.5t54.5 81t81 54t99.5 19.5z" />
    <glyph glyph-name="uni04AE" unicode="&#x4ae;" horiz-adv-x="616" 
d="M347 273v-273h-78v273l-229 387h88l180 -310l181 310h87z" />
    <glyph glyph-name="uni04AF" unicode="&#x4af;" horiz-adv-x="533" 
d="M306 29v-209h-77v204l-206 463h82l161 -380l161 380h82z" />
    <glyph glyph-name="uni04B0" unicode="&#x4b0;" horiz-adv-x="625" 
d="M550 211h-198v-211h-78v211h-198v70h193l-224 379h88l180 -310l181 310h87l-225 -379h194v-70z" />
    <glyph glyph-name="uni04B1" unicode="&#x4b1;" horiz-adv-x="551" 
d="M471 0h-156v-180h-77v180h-158v68h139l-186 419h82l161 -380l161 380h82l-186 -419h138v-68z" />
    <glyph glyph-name="uni04B2" unicode="&#x4b2;" horiz-adv-x="596" 
d="M344 337l179 -269h61v-209h-78v141h-28l-179 271l-178 -271h-91l226 338l-211 322h91l164 -257l163 257h89z" />
    <glyph glyph-name="uni04B3" unicode="&#x4b3;" horiz-adv-x="535" 
d="M291 253l135 -185h68v-209h-77v141h-29l-141 197l-139 -197h-88l183 254l-169 233h88l126 -177l126 177h88z" />
    <glyph glyph-name="uni04B6" unicode="&#x4b6;" horiz-adv-x="646" 
d="M533 70h80v-211h-78v141h-80v259q-31 -11 -67.5 -17.5t-73.5 -6.5q-59 0 -107.5 17t-84 50.5t-55 83t-19.5 114.5v160h78v-154q0 -50 14 -87.5t39.5 -62t60 -37t76.5 -12.5q32 0 69.5 6.5t69.5 20.5v326h78v-590z" />
    <glyph glyph-name="uni04B7" unicode="&#x4b7;" horiz-adv-x="573" 
d="M454 68h79v-209h-77v141h-79v186q-23 -8 -52 -14t-61 -6q-46 0 -85.5 13.5t-68 41t-44.5 68.5t-16 95v103h76v-99q0 -80 40 -115t103 -35q26 0 54.5 5t53.5 15v229h77v-419z" />
    <glyph glyph-name="uni04BA" unicode="&#x4ba;" horiz-adv-x="623" 
d="M169 391q30 11 64 17.5t69 6.5q57 0 100.5 -18t73 -51.5t44.5 -81t15 -105.5v-159h-78v157q0 91 -40 138.5t-122 47.5q-29 0 -62.5 -6t-63.5 -17v-320h-78v660h78v-269z" />
    <glyph glyph-name="uni04BB" unicode="&#x4bb;" horiz-adv-x="583" 
d="M168 432q24 31 61 48.5t85 17.5q43 0 76.5 -14t56.5 -39.5t35 -61t12 -77.5v-306h-77v296q0 58 -32 94.5t-89 36.5q-28 0 -51.5 -10t-40.5 -27t-26.5 -41.5t-9.5 -52.5v-296h-77v750h77v-318z" />
    <glyph glyph-name="uni04C0" unicode="&#x4c0;" horiz-adv-x="259" 
d="M169 0h-78v660h78v-660z" />
    <glyph glyph-name="uni04C1" unicode="&#x4c1;" horiz-adv-x="966" 
d="M434 354l-304 -354h-100l303 354l-276 306h100zM631 354l304 -354h-99l-305 354l277 306h100zM522 0h-78v660h78v-660zM635 892q0 -33 -11.5 -61t-31.5 -48.5t-48 -32t-61 -11.5t-61 11.5t-48 32t-31.5 48.5t-11.5 61h65q0 -43 25 -67.5t62 -24.5q38 0 62.5 24.5
t24.5 67.5h65z" />
    <glyph glyph-name="uni04C2" unicode="&#x4c2;" horiz-adv-x="776" 
d="M528 265l227 -265h-97l-222 264l201 223h99zM340 264l-223 -264h-97l227 265l-207 222h98zM427 0h-77v487h77v-487zM541 736q0 -32 -11.5 -60t-31.5 -48.5t-48 -32t-61 -11.5t-61 11.5t-48 32t-31.5 48.5t-11.5 60h65q0 -42 25 -66.5t62 -24.5q38 0 63 24.5t25 66.5h64z
" />
    <glyph glyph-name="uni04CF" unicode="&#x4cf;" horiz-adv-x="258" 
d="M168 0h-77v750h77v-750z" />
    <glyph glyph-name="uni04D0" unicode="&#x4d0;" horiz-adv-x="663" 
d="M484 892q0 -33 -11.5 -61t-31.5 -48.5t-48 -32t-61 -11.5t-61 11.5t-48 32t-31.5 48.5t-11.5 61h65q0 -43 25 -67.5t62 -24.5q38 0 62.5 24.5t24.5 67.5h65zM633 0h-84l-57 134h-322l-56 -134h-83l287 671h28zM199 204h264l-131 323z" />
    <glyph glyph-name="uni04D1" unicode="&#x4d1;" horiz-adv-x="529" 
d="M411 736q0 -32 -11.5 -60t-31.5 -48.5t-48 -32t-61 -11.5t-61 11.5t-48 32t-31.5 48.5t-11.5 60h65q0 -42 25 -66.5t62 -24.5q38 0 63 24.5t25 66.5h64zM259 498q42 0 77 -12.5t60.5 -37.5t39.5 -62t14 -86v-300h-73v62q-26 -35 -67.5 -54t-95.5 -19q-37 0 -68.5 9.5
t-54 27t-35 43t-12.5 57.5q0 62 47.5 99t127.5 37h154v42q0 62 -32 92.5t-87 30.5q-45 0 -78.5 -20.5t-62.5 -57.5l-52 42q35 56 87 81.5t111 25.5zM223 53q30 0 57.5 10t48 28t32.5 42.5t12 53.5v12h-146q-104 0 -104 -69q0 -39 30 -58t70 -19z" />
    <glyph glyph-name="uni04D4" unicode="&#x4d4;" horiz-adv-x="821" 
d="M689 318h-197l42 -248h247v-70h-315l-23 134h-275l-71 -134h-84l344 660h412v-70h-322l34 -202h208v-70zM205 204h226l-55 338z" />
    <glyph glyph-name="uni04D5" unicode="&#x4d5;" horiz-adv-x="895" 
d="M260 498q58 0 102 -26t65 -77q33 48 83.5 75.5t113.5 27.5q46 0 86.5 -16t70.5 -45.5t47 -70t17 -89.5q0 -20 -2.5 -39t-4.5 -27h-383q10 -69 58.5 -110t119.5 -41q45 0 81 17.5t66 47.5l46 -51q-38 -41 -87.5 -63t-106.5 -22q-71 0 -127 32.5t-88 86.5
q-26 -58 -80 -88.5t-121 -30.5q-78 0 -125 38t-47 103t47.5 104.5t127.5 39.5h154v30q0 62 -32.5 92.5t-85.5 30.5q-45 0 -78.5 -21t-61.5 -57l-52 42q35 56 87.5 81.5t109.5 25.5zM621 428q-33 0 -61 -11t-50 -31.5t-36.5 -49t-18.5 -62.5h310q2 37 -8.5 65.5t-30.5 48
t-47.5 30t-57.5 10.5zM224 54q30 0 57 10t47.5 27.5t32.5 41.5t12 53v25h-146q-104 0 -104 -73q0 -42 30 -63t71 -21z" />
    <glyph glyph-name="uni04D6" unicode="&#x4d6;" horiz-adv-x="566" 
d="M435 892q0 -33 -11.5 -61t-31.5 -48.5t-48 -32t-61 -11.5t-61 11.5t-48 32t-31.5 48.5t-11.5 61h65q0 -43 25 -67.5t62 -24.5q38 0 62.5 24.5t24.5 67.5h65zM514 590h-345v-202h264v-70h-264v-248h357v-70h-435v660h423v-70z" />
    <glyph glyph-name="uni04D7" unicode="&#x4d7;" horiz-adv-x="571" 
d="M438 736q0 -32 -11.5 -60t-31.5 -48.5t-48 -32t-61 -11.5t-61 11.5t-48 32t-31.5 48.5t-11.5 60h65q0 -42 25 -66.5t62 -24.5q38 0 63 24.5t25 66.5h64zM299 498q46 0 86.5 -16t70.5 -45t47 -69.5t17 -89.5q0 -20 -2 -35.5t-4 -22.5h-384q4 -37 18.5 -66.5t38 -50.5
t54.5 -32t67 -11q47 0 83 18t66 48l45 -52q-36 -39 -85.5 -62t-109.5 -23q-55 0 -102 19.5t-81.5 54t-54 80.5t-19.5 100q0 53 19 99.5t53 81t79 54.5t98 20zM297 428q-31 0 -58.5 -10t-49 -28.5t-36 -44.5t-20.5 -57h308q0 34 -12 60t-31.5 44t-45.5 27t-55 9z" />
    <glyph glyph-name="uni04D8" unicode="&#x4d8;" horiz-adv-x="731" 
d="M351 671q70 0 130.5 -26.5t105 -72t70 -107.5t25.5 -133q0 -72 -26.5 -134.5t-72 -109t-106.5 -73t-130 -26.5q-61 0 -115 20.5t-95 59t-65 92.5t-24 121q0 23 2 41.5t4 29.5h546q-4 54 -24.5 99t-53.5 78t-77 51t-95 18q-66 0 -121.5 -29.5t-93.5 -81.5l-54 45
q45 63 114.5 100.5t155.5 37.5zM350 61q48 0 90 16.5t74 46t53.5 70.5t29.5 89h-473q-1 -53 17 -94t49.5 -69.5t73 -43.5t86.5 -15z" />
    <glyph glyph-name="uni04D9" unicode="&#x4d9;" horiz-adv-x="571" 
d="M272 -11q-47 0 -87.5 16t-70.5 45t-47 69.5t-17 89.5q0 20 2 35t4 23h384q-4 36 -18.5 65.5t-38 50.5t-54.5 32.5t-67 11.5q-47 0 -83 -18t-66 -48l-45 52q37 39 86 62t109 23q55 0 102 -19.5t81.5 -54t54 -80.5t19.5 -100q0 -53 -19 -99.5t-52.5 -81t-79 -54.5
t-97.5 -20zM274 58q62 0 106 38.5t57 102.5h-308q0 -34 12 -60t31.5 -44t46 -27.5t55.5 -9.5z" />
    <glyph glyph-name="uni04E2" unicode="&#x4e2;" horiz-adv-x="718" 
d="M628 0h-78v503l-431 -514h-28v671h78v-505l430 516h29v-671zM496 770h-295v63h295v-63z" />
    <glyph glyph-name="uni04E3" unicode="&#x4e3;" horiz-adv-x="598" 
d="M507 0h-76v341l-312 -352h-28v498h77v-342l312 353h27v-498zM436 642h-275v62h275v-62z" />
    <glyph glyph-name="uni04E6" unicode="&#x4e6;" horiz-adv-x="781" 
d="M506 863q23 0 39 -15.5t16 -38.5q0 -22 -16 -37.5t-39 -15.5q-21 0 -38 15.5t-17 37.5q0 23 17 38.5t38 15.5zM274 863q23 0 39 -15t16 -38t-16 -38t-39 -15q-21 0 -38 15t-17 38t17 38t38 15zM390 671q71 0 133 -26t108.5 -72t73.5 -108.5t27 -134.5t-27 -134.5
t-73.5 -108.5t-108.5 -72t-133 -26q-72 0 -134 26.5t-108.5 72t-73 108t-26.5 134.5t26.5 134.5t73 108.5t109 72t133.5 26zM391 599q-57 0 -105 -20.5t-83 -56.5t-54.5 -85t-19.5 -106q0 -58 19.5 -107.5t54.5 -85.5t83 -56.5t105 -20.5q56 0 103.5 20.5t82.5 56.5
t54.5 85.5t19.5 107.5q0 57 -19.5 106t-54.5 85t-82.5 56.5t-103.5 20.5z" />
    <glyph glyph-name="uni04E7" unicode="&#x4e7;" horiz-adv-x="610" 
d="M410 727q23 0 39 -15.5t16 -38.5q0 -22 -16 -37.5t-39 -15.5q-21 0 -38 15.5t-17 37.5q0 23 17 38.5t38 15.5zM198 727q23 0 39 -15.5t16 -38.5q0 -22 -16 -37.5t-39 -15.5q-21 0 -38 15.5t-17 37.5q0 23 17 38.5t38 15.5zM305 498q52 0 98.5 -19.5t81 -54t54.5 -80.5
t20 -100q0 -53 -20 -99.5t-54.5 -81t-81 -54t-99.5 -19.5t-99 20t-80.5 54t-54.5 80t-20 100t19.5 100t54 80.5t81 54t100.5 19.5zM305 427q-38 0 -70.5 -14t-56 -39t-36.5 -58.5t-13 -72.5t13 -72t36.5 -57.5t55.5 -38.5t70 -14t70 14t55.5 38.5t37 58t13.5 71.5
q0 39 -13.5 73t-36.5 58.5t-55.5 38.5t-69.5 14z" />
    <glyph glyph-name="uni04E8" unicode="&#x4e8;" horiz-adv-x="781" 
d="M390 671q71 0 133 -26t108.5 -72t73.5 -108.5t27 -134.5t-27 -134.5t-73.5 -108.5t-108.5 -72t-133 -26q-72 0 -134 26.5t-108.5 72t-73 108t-26.5 134.5t26.5 134.5t73 108.5t109 72t133.5 26zM391 61q54 0 101 19.5t81.5 53.5t55 81t22.5 103h-522q2 -56 22.5 -103
t55.5 -81t82 -53.5t102 -19.5zM391 599q-50 0 -92.5 -15.5t-76.5 -43.5t-56.5 -67t-31.5 -85h511q-9 46 -31.5 85t-56 67t-76 43.5t-90.5 15.5z" />
    <glyph glyph-name="uni04E9" unicode="&#x4e9;" horiz-adv-x="610" 
d="M305 498q52 0 98.5 -19.5t81 -54t54.5 -80.5t20 -100q0 -53 -20 -99.5t-54.5 -81t-81 -54t-99.5 -19.5t-99 20t-80.5 54t-54.5 80t-20 100t19.5 100t54 80.5t81 54t100.5 19.5zM304 61q34 0 64 11.5t53 32.5t37.5 49.5t19.5 61.5h-348q4 -34 19 -62.5t38 -49t52.5 -32
t64.5 -11.5zM305 427q-33 0 -62 -10.5t-51.5 -29.5t-38 -45.5t-21.5 -57.5h344q-6 31 -21.5 57.5t-38 45.5t-51 29.5t-60.5 10.5z" />
    <glyph glyph-name="uni04EE" unicode="&#x4ee;" horiz-adv-x="610" 
d="M346 119q-29 -66 -77 -98t-114 -32q-19 0 -39 2.5t-38 7.5v68q18 -2 34 -4t30 -2q43 0 77.5 20t54.5 65l2 6l-233 508h89l185 -422l175 422h88zM455 770h-295v63h295v-63z" />
    <glyph glyph-name="uni04EF" unicode="&#x4ef;" horiz-adv-x="539" 
d="M407 642h-275v62h275v-62zM272 -68q-29 -66 -68.5 -94.5t-96.5 -28.5q-18 0 -37.5 2.5t-36.5 7.5v65q17 -2 31.5 -3.5t27.5 -1.5q35 0 62.5 15.5t47.5 62.5l26 59l-202 471h83l160 -388l161 388h82z" />
    <glyph glyph-name="uni04F2" unicode="&#x4f2;" horiz-adv-x="610" 
d="M346 119q-29 -66 -77 -98t-114 -32q-19 0 -39 2.5t-38 7.5v68q18 -2 34 -4t30 -2q43 0 77.5 20t54.5 65l2 6l-233 508h89l185 -422l175 422h88zM530 896l-112 -172h-56l85 186h83v-14zM348 896l-113 -172h-55l85 186h83v-14z" />
    <glyph glyph-name="uni04F3" unicode="&#x4f3;" horiz-adv-x="539" 
d="M487 766l-112 -200h-56l85 214h83v-14zM325 766l-113 -200h-55l85 214h83v-14zM272 -68q-29 -66 -68.5 -94.5t-96.5 -28.5q-18 0 -37.5 2.5t-36.5 7.5v65q17 -2 31.5 -3.5t27.5 -1.5q35 0 62.5 15.5t47.5 62.5l26 59l-202 471h83l160 -388l161 388h82z" />
    <glyph glyph-name="uni2009" unicode="&#x2009;" horiz-adv-x="147" 
 />
    <glyph glyph-name="endash" unicode="&#x2013;" horiz-adv-x="506" 
d="M462 282h-419v65h419v-65z" />
    <glyph glyph-name="emdash" unicode="&#x2014;" horiz-adv-x="1000" 
d="M950 282h-900v65h900v-65z" />
    <glyph glyph-name="uni2015" unicode="&#x2015;" horiz-adv-x="1000" 
d="M950 282h-900v65h900v-65z" />
    <glyph glyph-name="quoteleft" unicode="&#x2018;" horiz-adv-x="280" 
d="M173 403h-90l43 257h60z" />
    <glyph glyph-name="quoteright" unicode="&#x2019;" horiz-adv-x="280" 
d="M155 403h-61l13 257h90z" />
    <glyph glyph-name="quotesinglbase" unicode="&#x201a;" horiz-adv-x="280" 
d="M155 -167h-61l13 257h90z" />
    <glyph glyph-name="quotedblleft" unicode="&#x201c;" horiz-adv-x="463" 
d="M173 403h-90l43 257h60zM356 403h-90l43 257h60z" />
    <glyph glyph-name="quotedblright" unicode="&#x201d;" horiz-adv-x="463" 
d="M338 403h-61l13 257h90zM155 403h-61l13 257h90z" />
    <glyph glyph-name="quotedblbase" unicode="&#x201e;" horiz-adv-x="463" 
d="M155 -167h-61l13 257h90zM338 -167h-61l13 257h90z" />
    <glyph glyph-name="dagger" unicode="&#x2020;" horiz-adv-x="451" 
d="M264 617h125v-68h-125v-224h-76v224h-125v68h125v133h76v-133z" />
    <glyph glyph-name="daggerdbl" unicode="&#x2021;" horiz-adv-x="451" 
d="M264 647h125v-68h-125v-135h125v-69h-125v-104h-76v104h-125v69h125v135h-125v68h125v103h76v-103z" />
    <glyph glyph-name="bullet" unicode="&#x2022;" horiz-adv-x="377" 
d="M189 397q26 0 49.5 -9.5t41.5 -26.5t29 -41t11 -53t-11 -52.5t-29 -40.5t-41.5 -26.5t-49.5 -9.5t-50 9.5t-42 26.5t-29 40.5t-11 52.5t11 53t29 41t42 26.5t50 9.5z" />
    <glyph glyph-name="ellipsis" unicode="&#x2026;" horiz-adv-x="769" 
d="M385 115q26 0 44.5 -17.5t18.5 -45.5t-18.5 -45.5t-44.5 -17.5t-44.5 17.5t-18.5 45.5t18.5 45.5t44.5 17.5zM135 115q26 0 44.5 -17.5t18.5 -45.5t-18.5 -45.5t-44.5 -17.5t-44.5 17.5t-18.5 45.5t18.5 45.5t44.5 17.5zM634 115q26 0 44.5 -17.5t18.5 -45.5t-18.5 -45.5
t-44.5 -17.5t-44.5 17.5t-18.5 45.5t18.5 45.5t44.5 17.5z" />
    <glyph glyph-name="perthousand" unicode="&#x2030;" horiz-adv-x="1192" 
d="M980 313q34 0 64 -12.5t52 -34t35 -51t13 -63.5t-13 -63.5t-35 -51t-52 -34t-64 -12.5t-63.5 12.5t-51.5 34t-35 51t-13 63.5t13 63.5t35 51t51.5 34t63.5 12.5zM980 256q-43 0 -71 -29.5t-28 -74.5t28 -74t71 -29t71 29t28 74t-28 74.5t-71 29.5zM596 312
q34 0 63.5 -12.5t52 -34t35.5 -51t13 -63.5t-13 -63.5t-35.5 -51t-52 -34t-63.5 -12.5t-63.5 12.5t-51.5 34t-35 51t-13 63.5t13 63.5t35 51t51.5 34t63.5 12.5zM597 255q-44 0 -71.5 -29.5t-27.5 -74.5t27.5 -74t71.5 -29q42 0 70 29t28 74t-28 74.5t-70 29.5zM214 671
q34 0 63.5 -12.5t51.5 -34t35 -51t13 -63.5t-13 -63.5t-35 -51t-51.5 -34t-63.5 -12.5t-64 12.5t-52 34t-35 51t-13 63.5t13 63.5t35 51t52 34t64 12.5zM214 614q-43 0 -71 -29.5t-28 -74.5t28 -74.5t71 -29.5t71 29.5t28 74.5t-28 74.5t-71 29.5zM250 0h-68l377 660h70z
" />
    <glyph glyph-name="minute" unicode="&#x2032;" horiz-adv-x="248" 
d="M130 388h-62l41 272h92z" />
    <glyph glyph-name="second" unicode="&#x2033;" horiz-adv-x="431" 
d="M130 388h-62l41 272h92zM313 388h-62l41 272h92z" />
    <glyph glyph-name="guilsinglleft" unicode="&#x2039;" horiz-adv-x="306" 
d="M266 426l-141 -155l141 -157l-51 -43l-177 188v23l177 189z" />
    <glyph glyph-name="guilsinglright" unicode="&#x203a;" horiz-adv-x="306" 
d="M267 282v-23l-177 -188l-51 43l141 157l-141 155l51 45z" />
    <glyph glyph-name="fraction" unicode="&#x2044;" horiz-adv-x="238" 
d="M-37 0h-68l377 660h70z" />
    <glyph glyph-name="uni2070" unicode="&#x2070;" horiz-adv-x="410" 
d="M205 787q40 0 69.5 -16t48.5 -44.5t28 -67t9 -83.5t-9 -85t-28 -69.5t-48.5 -47t-69.5 -17.5t-69.5 17.5t-48.5 47t-28.5 69.5t-9.5 85t9.5 83.5t28.5 67t48.5 44.5t69.5 16zM205 726q-48 0 -68 -40.5t-20 -110.5q0 -35 5 -64t15.5 -50t27.5 -32.5t40 -11.5
q48 0 68.5 44.5t20.5 113.5q0 70 -20.5 110.5t-68.5 40.5z" />
    <glyph glyph-name="uni2074" unicode="&#x2074;" horiz-adv-x="356" 
d="M284 492h56v-55h-56v-73h-61v73h-207v18l129 325h68l-117 -288h127v130h61v-130z" />
    <glyph glyph-name="uni2075" unicode="&#x2075;" horiz-adv-x="366" 
d="M295 720h-163v-98q25 6 50 6q28 0 54.5 -8t46 -24t31.5 -40t12 -56q0 -33 -12 -59.5t-33 -45t-48.5 -28.5t-58.5 -10q-53 0 -89.5 26t-56.5 64l46 33q17 -27 40.5 -44.5t58.5 -17.5q37 0 61.5 21.5t24.5 57.5t-24.5 55t-71.5 19h-94v209h226v-60z" />
    <glyph glyph-name="uni2076" unicode="&#x2076;" horiz-adv-x="373" 
d="M178 637q5 1 9.5 1.5t9.5 0.5q26 0 50.5 -10.5t43 -29t30 -44t11.5 -55.5q0 -31 -11.5 -57t-31.5 -45t-46.5 -30t-56.5 -11t-56 10.5t-46 30t-31.5 46t-11.5 58.5q0 38 15.5 67t40.5 64l103 147h77zM186 584q-34 0 -56.5 -24.5t-22.5 -59.5q0 -36 22.5 -59t56.5 -23
q35 0 57.5 23t22.5 59q0 35 -22.5 59.5t-57.5 24.5z" />
    <glyph glyph-name="uni2077" unicode="&#x2077;" horiz-adv-x="327" 
d="M309 761l-198 -397h-72l181 356h-192v60h281v-19z" />
    <glyph glyph-name="uni2078" unicode="&#x2078;" horiz-adv-x="382" 
d="M190 787q55 0 92.5 -27.5t37.5 -79.5q0 -35 -18 -59t-51 -41q37 -15 62.5 -40.5t25.5 -67.5q0 -53 -41 -84t-108 -31q-66 0 -107 31t-41 85q0 40 24.5 66t62.5 41q-32 17 -50 41.5t-18 59.5q0 51 37.5 78.5t91.5 27.5zM275 475q0 31 -24.5 47.5t-60.5 30.5
q-36 -14 -59.5 -30.5t-23.5 -47.5q0 -28 21.5 -46t61.5 -18q42 0 63.5 18t21.5 46zM190 734q-29 0 -48.5 -15t-19.5 -42q0 -26 18.5 -40.5t49.5 -28.5q32 13 51 28t19 41q0 27 -20 42t-50 15z" />
    <glyph glyph-name="uni2079" unicode="&#x2079;" horiz-adv-x="373" 
d="M187 787q29 0 55.5 -10.5t46 -30t31 -46t11.5 -58.5q0 -38 -15.5 -67t-40.5 -64l-103 -147h-77l98 142q-4 -1 -8.5 -1h-9.5q-26 0 -50.5 10.5t-43 29t-30 44t-11.5 55.5q0 31 11.5 57t32 45t47 30t56.5 11zM187 726q-35 0 -57.5 -23t-22.5 -59q0 -35 22.5 -59.5
t57.5 -24.5q34 0 56.5 24.5t22.5 59.5q0 36 -22.5 59t-56.5 23z" />
    <glyph glyph-name="uni207A" unicode="&#x207a;" horiz-adv-x="427" 
d="M245 601h139v-57h-139v-144h-64v144h-139v57h139v144h64v-144z" />
    <glyph glyph-name="uni207B" unicode="&#x207b;" horiz-adv-x="427" 
d="M384 547h-342v52h342v-52z" />
    <glyph glyph-name="uni207C" unicode="&#x207c;" horiz-adv-x="427" 
d="M49 680h328v-57h-328v57zM49 522h328v-57h-328v57z" />
    <glyph glyph-name="uni207D" unicode="&#x207d;" horiz-adv-x="255" 
d="M233 861q-22 -14 -43 -36t-37.5 -56.5t-26.5 -82.5t-10 -114t10 -114t26.5 -82t37.5 -56.5t43 -35.5l-25 -41q-28 19 -55 45t-48 64.5t-34 92t-13 127.5q0 75 13 131t34 95.5t48 64t55 38.5z" />
    <glyph glyph-name="uni207E" unicode="&#x207e;" horiz-adv-x="255" 
d="M46 901q28 -14 55 -38.5t48 -64t34 -95.5t13 -131t-13 -130.5t-34 -95.5t-48 -65t-55 -38l-25 41q22 13 43 35.5t37.5 56.5t26.5 82t10 114t-10 114t-26.5 82.5t-37.5 56.5t-43 36z" />
    <glyph glyph-name="uni2080" unicode="&#x2080;" horiz-adv-x="410" 
d="M205 304q40 0 69.5 -16t48.5 -44.5t28 -67t9 -83.5t-9 -85t-28 -69.5t-48.5 -47t-69.5 -17.5t-69.5 17.5t-48.5 47t-28.5 69.5t-9.5 85t9.5 83.5t28.5 67t48.5 44.5t69.5 16zM205 243q-48 0 -68 -40.5t-20 -110.5q0 -35 5 -64t15.5 -50t27.5 -32.5t40 -11.5
q48 0 68.5 44.5t20.5 113.5q0 70 -20.5 110.5t-68.5 40.5z" />
    <glyph glyph-name="uni2081" unicode="&#x2081;" horiz-adv-x="353" 
d="M219 -59h90v-60h-262v60h105v296h-100v60h167v-356z" />
    <glyph glyph-name="uni2082" unicode="&#x2082;" horiz-adv-x="369" 
d="M178 304q30 0 55 -10t43 -27t28 -40.5t10 -51.5q0 -23 -7 -43.5t-19 -40t-28.5 -38t-34.5 -37.5l-71 -75h174v-60h-293v15l148 159q29 32 46.5 59t17.5 56q0 30 -18.5 51.5t-50.5 21.5q-33 0 -52 -21.5t-19 -54.5q0 -7 0.5 -15t1.5 -17h-65q-2 9 -3 18.5t-1 17.5
q0 25 9.5 49t27.5 42.5t43.5 30t57.5 11.5z" />
    <glyph glyph-name="uni2083" unicode="&#x2083;" horiz-adv-x="354" 
d="M304 278l-100 -135q19 -4 38.5 -13.5t35.5 -25t25.5 -38t9.5 -51.5q0 -32 -12 -58t-32.5 -44.5t-47.5 -28.5t-57 -10q-53 0 -89 26t-56 64l46 33q17 -27 39.5 -44.5t57.5 -17.5q36 0 60 21.5t24 58.5q0 35 -24.5 54t-70.5 19h-42v18l97 131h-158v60h256v-19z" />
    <glyph glyph-name="uni2084" unicode="&#x2084;" horiz-adv-x="356" 
d="M284 9h56v-55h-56v-73h-61v73h-207v18l129 325h68l-117 -288h127v130h61v-130z" />
    <glyph glyph-name="uni2085" unicode="&#x2085;" horiz-adv-x="366" 
d="M295 237h-163v-98q25 6 50 6q28 0 54.5 -8t46 -24t31.5 -40t12 -56q0 -33 -12 -59.5t-33 -45t-48.5 -28.5t-58.5 -10q-53 0 -89.5 26t-56.5 64l46 33q17 -27 40.5 -44.5t58.5 -17.5q37 0 61.5 21.5t24.5 57.5t-24.5 55t-71.5 19h-94v209h226v-60z" />
    <glyph glyph-name="uni2086" unicode="&#x2086;" horiz-adv-x="373" 
d="M178 154q5 1 9.5 1.5t9.5 0.5q26 0 50.5 -10.5t43 -29t30 -44t11.5 -55.5q0 -31 -11.5 -57t-31.5 -45t-46.5 -30t-56.5 -11t-56 10.5t-46 30t-31.5 46t-11.5 58.5q0 38 15.5 67t40.5 64l103 147h77zM186 101q-34 0 -56.5 -24.5t-22.5 -59.5q0 -36 22.5 -59t56.5 -23
q35 0 57.5 23t22.5 59q0 35 -22.5 59.5t-57.5 24.5z" />
    <glyph glyph-name="uni2087" unicode="&#x2087;" horiz-adv-x="327" 
d="M309 278l-198 -397h-72l181 356h-192v60h281v-19z" />
    <glyph glyph-name="uni2088" unicode="&#x2088;" horiz-adv-x="382" 
d="M190 304q55 0 92.5 -27.5t37.5 -79.5q0 -35 -18 -59t-51 -41q37 -15 62.5 -40.5t25.5 -67.5q0 -53 -41 -84t-108 -31q-66 0 -107 31t-41 85q0 40 24.5 66t62.5 41q-32 17 -50 41.5t-18 59.5q0 51 37.5 78.5t91.5 27.5zM275 -8q0 31 -24.5 47.5t-60.5 30.5
q-36 -14 -59.5 -30.5t-23.5 -47.5q0 -28 21.5 -46t61.5 -18q42 0 63.5 18t21.5 46zM190 251q-29 0 -48.5 -15t-19.5 -42q0 -26 18.5 -40.5t49.5 -28.5q32 13 51 28t19 41q0 27 -20 42t-50 15z" />
    <glyph glyph-name="uni2089" unicode="&#x2089;" horiz-adv-x="373" 
d="M187 304q29 0 55.5 -10.5t46 -30t31 -46t11.5 -58.5q0 -38 -15.5 -67t-40.5 -64l-103 -147h-77l98 142q-4 -1 -8.5 -1h-9.5q-26 0 -50.5 10.5t-43 29t-30 44t-11.5 55.5q0 31 11.5 57t32 45t47 30t56.5 11zM187 243q-35 0 -57.5 -23t-22.5 -59q0 -35 22.5 -59.5
t57.5 -24.5q34 0 56.5 24.5t22.5 59.5q0 36 -22.5 59t-56.5 23z" />
    <glyph glyph-name="uni208A" unicode="&#x208a;" horiz-adv-x="427" 
d="M245 117h139v-57h-139v-144h-64v144h-139v57h139v144h64v-144z" />
    <glyph glyph-name="uni208B" unicode="&#x208b;" horiz-adv-x="427" 
d="M384 63h-342v52h342v-52z" />
    <glyph glyph-name="uni208C" unicode="&#x208c;" horiz-adv-x="427" 
d="M49 196h328v-57h-328v57zM49 38h328v-57h-328v57z" />
    <glyph glyph-name="uni208D" unicode="&#x208d;" horiz-adv-x="255" 
d="M233 377q-22 -14 -43 -36t-37.5 -56.5t-26.5 -82.5t-10 -114t10 -114t26.5 -82t37.5 -56.5t43 -35.5l-25 -41q-28 19 -55 45t-48 64.5t-34 92t-13 127.5q0 75 13 131t34 95.5t48 64t55 38.5z" />
    <glyph glyph-name="uni208E" unicode="&#x208e;" horiz-adv-x="255" 
d="M46 417q28 -14 55 -38.5t48 -64t34 -95.5t13 -131t-13 -130.5t-34 -95.5t-48 -65t-55 -38l-25 41q22 13 43 35.5t37.5 56.5t26.5 82t10 114t-10 114t-26.5 82.5t-37.5 56.5t-43 36z" />
    <glyph glyph-name="lira" unicode="&#x20a4;" horiz-adv-x="529" 
d="M395 173h-131q-11 -63 -56 -105h276v-68h-427v20q48 29 83 67t46 86h-120v68h121q-4 22 -11.5 42.5t-18.5 40.5h-91v68h57q-11 23 -18 49t-7 55q0 39 14 71.5t39.5 55.5t60.5 35.5t77 12.5q76 0 128.5 -42t75.5 -121l-69 -26q-17 55 -48.5 86t-82.5 31q-28 0 -49.5 -9
t-36 -25t-22 -36.5t-7.5 -44.5q0 -25 7 -47.5t18 -44.5h192v-68h-156q9 -20 16.5 -40t10.5 -43h129v-68z" />
    <glyph glyph-name="peseta" unicode="&#x20a7;" horiz-adv-x="590" 
d="M591 421h-84q-6 -38 -24 -68.5t-46.5 -53t-66.5 -34.5t-84 -12h-102v-253h-78v421h-82v68h82v171h180q94 0 152 -47.5t69 -123.5h84v-68zM184 590v-102h242q-9 49 -45 75.5t-96 26.5h-101zM285 323q59 0 95 25.5t46 73.5h-242v-99h101z" />
    <glyph glyph-name="Euro" unicode="&#x20ac;" horiz-adv-x="681" 
d="M428 217h-231q24 -71 78.5 -113.5t135.5 -42.5q56 0 97 22t69 59l55 -45q-35 -50 -92 -79t-132 -29q-56 0 -103.5 16.5t-85 46.5t-64.5 72t-42 93h-108v68h95q-1 11 -1.5 22t-0.5 23q0 11 0.5 20.5t1.5 20.5h-93v68h105q14 51 41 94t65 73.5t86 47.5t104 17q75 0 132 -29
t92 -79l-55 -45q-28 37 -69 59t-97 22q-81 0 -136 -44t-79 -116h291l-17 -68h-289q-2 -11 -2 -20.5v-20.5q0 -12 0.5 -23t1.5 -22h264z" />
    <glyph glyph-name="uni20AE" unicode="&#x20ae;" horiz-adv-x="581" 
d="M512 245l-183 -69v-176h-78v146l-181 -68v74l181 68v89l-181 -68v73l181 68v208h-232v70h542v-70h-232v-179l183 69v-73l-183 -69v-89l183 69v-73z" />
    <glyph glyph-name="uni20B4" unicode="&#x20b4;" horiz-adv-x="542" 
d="M520 222h-356q-14 -22 -14 -52q0 -51 35 -80t90 -29q62 0 108 33t75 79l57 -42q-35 -64 -98 -103t-143 -39q-43 0 -80.5 12.5t-65 36t-43.5 57t-16 74.5q0 15 2 28t6 25h-55v64h98q21 19 47.5 35t57.5 33l27 15h-229v64h332q14 12 21.5 28.5t7.5 39.5q0 26 -10.5 44.5
t-27 30.5t-37 17.5t-41.5 5.5q-45 0 -81 -22.5t-62 -58.5l-55 41q29 51 80.5 81.5t119.5 30.5q41 0 76.5 -11.5t61.5 -33.5t41 -53t15 -70q0 -41 -17 -70h73v-64h-136q-16 -11 -33.5 -21.5t-35.5 -21.5l-53 -31l-16 -9h274v-64z" />
    <glyph glyph-name="uni20B8" unicode="&#x20b8;" horiz-adv-x="581" 
d="M561 434h-232v-434h-78v434h-232v70h542v-70zM561 590h-542v70h542v-70z" />
    <glyph glyph-name="uni20B9" unicode="&#x20b9;" horiz-adv-x="513" 
d="M439 443h-76q-8 -76 -63 -120.5t-147 -45.5l286 -277h-98l-286 277v68h92q60 0 93.5 25.5t41.5 72.5h-229v68h225q-11 38 -44 59.5t-87 21.5h-92v68h384v-68h-119q32 -34 41 -81h78v-68z" />
    <glyph glyph-name="uni20BA" unicode="&#x20ba;" horiz-adv-x="518" 
d="M387 355l-187 -87v-206q40 3 78.5 14.5t68.5 32t48 51t18 71.5q0 11 -1.5 27.5t-3.5 31.5h66q9 -32 9 -65q0 -63 -27 -107.5t-75.5 -73t-114.5 -42t-144 -13.5v243l-97 -44v73l97 44v90l-97 -44v73l97 44v192h78v-157l187 86v-73l-187 -86v-89l187 87v-73z" />
    <glyph glyph-name="uni20BD" unicode="&#x20bd;" horiz-adv-x="576" 
d="M328 660q46 0 83 -13.5t63.5 -37.5t40.5 -57.5t14 -74.5t-14.5 -74.5t-40.5 -57.5t-63 -37t-83 -13h-145v-93h265v-68h-265v-134h-78v134h-81v68h81v93h-81v68h81v297h223zM184 592v-229h143q61 0 93.5 31t32.5 82t-32.5 83.5t-93.5 32.5h-143z" />
    <glyph glyph-name="uni2105" unicode="&#x2105;" horiz-adv-x="811" 
d="M248 0h-68l377 660h70zM213 671q43 0 76.5 -19t53.5 -53l-45 -38q-16 21 -36.5 34.5t-48.5 13.5q-42 0 -68.5 -28.5t-26.5 -70.5q0 -43 26.5 -71.5t68.5 -28.5q28 0 48 13.5t37 35.5l45 -38q-20 -34 -53.5 -53.5t-76.5 -19.5q-34 0 -64 12.5t-52 34.5t-34.5 51.5
t-12.5 63.5t12.5 63.5t34.5 51t52 34t64 12.5zM597 312q34 0 63.5 -12.5t51.5 -34t35 -51.5t13 -64t-13 -63.5t-35 -51t-51.5 -34t-63.5 -12.5q-35 0 -64.5 12.5t-52 34t-35 51t-12.5 63.5t12.5 64t35 51.5t52 34t64.5 12.5zM597 250q-42 0 -68.5 -28t-26.5 -72
q0 -42 26.5 -70t68.5 -28t69 28t27 70q0 44 -27 72t-69 28z" />
    <glyph glyph-name="uni2113" unicode="&#x2113;" horiz-adv-x="422" 
d="M253 761q61 0 98.5 -35t37.5 -113q0 -97 -56 -189t-154 -185v-66q0 -59 27.5 -86.5t78.5 -27.5q20 0 42 3t45 7v-65q-22 -7 -48 -11t-52 -4q-80 0 -124.5 45t-44.5 133v5q-14 -11 -27 -22t-27 -22l-40 58q25 20 48 40l46 40v304q0 52 11.5 88t31.5 59t47.5 33.5
t59.5 10.5zM179 337q66 67 103.5 132.5t37.5 138.5q0 50 -18.5 68.5t-44.5 18.5q-16 0 -30.5 -6t-25 -20.5t-16.5 -37.5t-6 -57v-237z" />
    <glyph glyph-name="uni2116" unicode="&#x2116;" horiz-adv-x="1126" 
d="M540 162v498h78v-671h-29l-420 507v-496h-78v671h28zM912 559q34 0 63.5 -12.5t52 -34t35.5 -51t13 -63.5t-13 -63.5t-35.5 -51t-52 -34t-63.5 -12.5t-64 12.5t-52 34t-34.5 51t-12.5 63.5t12.5 63.5t34.5 51t52 34t64 12.5zM912 502q-43 0 -71 -29.5t-28 -74.5t28 -74
t71 -29q44 0 72 29t28 74t-28 74.5t-72 29.5zM1072 105h-318v56h318v-56z" />
    <glyph glyph-name="uni2117" unicode="&#x2117;" horiz-adv-x="781" 
d="M390 671q70 0 132.5 -26t109 -72t73.5 -108.5t27 -134.5t-27 -134.5t-73.5 -108.5t-109 -72t-132.5 -26t-132.5 26t-109 72t-73.5 108.5t-27 134.5q0 73 27.5 135t74 108t108.5 72t132 26zM390 616q-58 0 -109.5 -21t-89.5 -59t-60.5 -90.5t-22.5 -115.5t22.5 -115.5
t60.5 -90.5t89.5 -59t109.5 -21t109.5 21t90 59t61 90.5t22.5 115.5t-22.5 115.5t-61 90.5t-90 59t-109.5 21zM418 503q59 0 94.5 -32t35.5 -85q0 -52 -35.5 -84t-94.5 -32h-76v-120h-65v353h141zM344 446v-120h74q32 0 48.5 17t16.5 43t-16.5 43t-48.5 17h-74z" />
    <glyph glyph-name="trademark" unicode="&#x2122;" horiz-adv-x="959" 
d="M886 211h-68v294l-132 -179h-23l-133 179v-294h-67v456h24l187 -254l189 254h23v-456zM387 599h-154v-388h-66v388h-154v61h374v-61z" />
    <glyph glyph-name="uni2126" unicode="&#x2126;" horiz-adv-x="792" 
d="M395 671q71 0 133 -24.5t108.5 -68.5t73.5 -104t27 -131q0 -47 -12 -86.5t-33 -72.5t-51 -61.5t-66 -52.5h152v-70h-268v70q43 20 79 46.5t62 59.5t41 74t15 90q0 57 -19.5 104.5t-54.5 82t-83 53.5t-104 19t-103.5 -19t-82.5 -53t-55 -81.5t-20 -104.5q0 -48 14.5 -88.5
t40.5 -74t62 -60.5t80 -48v-70h-268v70h149q-72 48 -115.5 114.5t-43.5 158.5q0 71 26.5 131t73 104t109 68.5t133.5 24.5z" />
    <glyph glyph-name="estimated" unicode="&#x212e;" horiz-adv-x="795" 
d="M403 670q60 0 119 -20.5t106.5 -58.5t77 -91t29.5 -119q0 -11 -0.5 -20t-1.5 -17q-1 -9 -2 -17h-544v-202q34 -48 89.5 -76t130.5 -28q82 0 148 34t108 85l24 -21q-48 -60 -120 -94.5t-160 -34.5q-75 0 -138.5 26t-110 71.5t-72.5 107t-26 131.5q0 73 27.5 135.5t75 109
t109.5 73t131 26.5zM407 638q-72 0 -128.5 -28t-91.5 -76v-176h421v191q-37 43 -87.5 66t-113.5 23z" />
    <glyph glyph-name="uni2150" unicode="&#x2150;" horiz-adv-x="918" 
d="M219 304h90v-60h-262v60h105v296h-100v60h167v-356zM316 0h-68l377 660h70zM900 398l-198 -397h-72l181 356h-192v60h281v-19z" />
    <glyph glyph-name="uni2151" unicode="&#x2151;" horiz-adv-x="934" 
d="M219 304h90v-60h-262v60h105v296h-100v60h167v-356zM316 0h-68l377 660h70zM748 424q29 0 55.5 -10.5t46 -30t31 -46t11.5 -58.5q0 -38 -15.5 -67t-40.5 -64l-103 -147h-77l98 142q-4 -1 -8.5 -1h-9.5q-26 0 -50.5 10.5t-43 29t-30 44t-11.5 55.5q0 31 11.5 57t32 45
t47 30t56.5 11zM748 363q-35 0 -57.5 -23t-22.5 -59q0 -35 22.5 -59.5t57.5 -24.5q34 0 56.5 24.5t22.5 59.5q0 36 -22.5 59t-56.5 23z" />
    <glyph glyph-name="uni2152" unicode="&#x2152;" horiz-adv-x="1354" 
d="M219 304h90v-60h-262v60h105v296h-100v60h167v-356zM316 0h-68l377 660h70zM1149 424q40 0 69.5 -16t48.5 -44.5t28 -67t9 -83.5t-9 -85t-28 -69.5t-48.5 -47t-69.5 -17.5t-69.5 17.5t-48.5 47t-28.5 69.5t-9.5 85t9.5 83.5t28.5 67t48.5 44.5t69.5 16zM1149 363
q-48 0 -68 -40.5t-20 -110.5q0 -35 5 -64t15.5 -50t27.5 -32.5t40 -11.5q48 0 68.5 44.5t20.5 113.5q0 70 -20.5 110.5t-68.5 40.5zM810 61h90v-60h-262v60h105v296h-100v60h167v-356z" />
    <glyph glyph-name="uni2153" unicode="&#x2153;" horiz-adv-x="945" 
d="M219 304h90v-60h-262v60h105v296h-100v60h167v-356zM316 0h-68l377 660h70zM895 398l-100 -135q19 -4 38.5 -13.5t35.5 -25t25.5 -38t9.5 -51.5q0 -32 -12 -58t-32.5 -44.5t-47.5 -28.5t-57 -10q-53 0 -89 26t-56 64l46 33q17 -27 39.5 -44.5t57.5 -17.5q36 0 60 21.5
t24 58.5q0 35 -24.5 54t-70.5 19h-42v18l97 131h-158v60h256v-19z" />
    <glyph glyph-name="uni2154" unicode="&#x2154;" horiz-adv-x="961" 
d="M178 667q30 0 55 -10t43 -27t28 -40.5t10 -51.5q0 -23 -7 -43.5t-19 -40t-28.5 -38t-34.5 -37.5l-71 -75h174v-60h-293v15l148 159q29 32 46.5 59t17.5 56q0 30 -18.5 51.5t-50.5 21.5q-33 0 -52 -21.5t-19 -54.5q0 -7 0.5 -15t1.5 -17h-65q-2 9 -3 18.5t-1 17.5
q0 25 9.5 49t27.5 42.5t43.5 30t57.5 11.5zM332 0h-68l377 660h70zM911 398l-100 -135q19 -4 38.5 -13.5t35.5 -25t25.5 -38t9.5 -51.5q0 -32 -12 -58t-32.5 -44.5t-47.5 -28.5t-57 -10q-53 0 -89 26t-56 64l46 33q17 -27 39.5 -44.5t57.5 -17.5q36 0 60 21.5t24 58.5
q0 35 -24.5 54t-70.5 19h-42v18l97 131h-158v60h256v-19z" />
    <glyph glyph-name="uni2155" unicode="&#x2155;" horiz-adv-x="949" 
d="M219 304h90v-60h-262v60h105v296h-100v60h167v-356zM316 0h-68l377 660h70zM878 357h-163v-98q25 6 50 6q28 0 54.5 -8t46 -24t31.5 -40t12 -56q0 -33 -12 -59.5t-33 -45t-48.5 -28.5t-58.5 -10q-53 0 -89.5 26t-56.5 64l46 33q17 -27 40.5 -44.5t58.5 -17.5
q37 0 61.5 21.5t24.5 57.5t-24.5 55t-71.5 19h-94v209h226v-60z" />
    <glyph glyph-name="uni2156" unicode="&#x2156;" horiz-adv-x="965" 
d="M178 667q30 0 55 -10t43 -27t28 -40.5t10 -51.5q0 -23 -7 -43.5t-19 -40t-28.5 -38t-34.5 -37.5l-71 -75h174v-60h-293v15l148 159q29 32 46.5 59t17.5 56q0 30 -18.5 51.5t-50.5 21.5q-33 0 -52 -21.5t-19 -54.5q0 -7 0.5 -15t1.5 -17h-65q-2 9 -3 18.5t-1 17.5
q0 25 9.5 49t27.5 42.5t43.5 30t57.5 11.5zM332 0h-68l377 660h70zM894 357h-163v-98q25 6 50 6q28 0 54.5 -8t46 -24t31.5 -40t12 -56q0 -33 -12 -59.5t-33 -45t-48.5 -28.5t-58.5 -10q-53 0 -89.5 26t-56.5 64l46 33q17 -27 40.5 -44.5t58.5 -17.5q37 0 61.5 21.5
t24.5 57.5t-24.5 55t-71.5 19h-94v209h226v-60z" />
    <glyph glyph-name="uni2157" unicode="&#x2157;" horiz-adv-x="915" 
d="M304 641l-100 -135q19 -4 38.5 -13.5t35.5 -25t25.5 -38t9.5 -51.5q0 -32 -12 -58t-32.5 -44.5t-47.5 -28.5t-57 -10q-53 0 -89 26t-56 64l46 33q17 -27 39.5 -44.5t57.5 -17.5q36 0 60 21.5t24 58.5q0 35 -24.5 54t-70.5 19h-42v18l97 131h-158v60h256v-19zM282 0h-68
l377 660h70zM844 357h-163v-98q25 6 50 6q28 0 54.5 -8t46 -24t31.5 -40t12 -56q0 -33 -12 -59.5t-33 -45t-48.5 -28.5t-58.5 -10q-53 0 -89.5 26t-56.5 64l46 33q17 -27 40.5 -44.5t58.5 -17.5q37 0 61.5 21.5t24.5 57.5t-24.5 55t-71.5 19h-94v209h226v-60z" />
    <glyph glyph-name="uni2158" unicode="&#x2158;" horiz-adv-x="962" 
d="M284 372h56v-55h-56v-73h-61v73h-207v18l129 325h68l-117 -288h127v130h61v-130zM329 0h-68l377 660h70zM891 357h-163v-98q25 6 50 6q28 0 54.5 -8t46 -24t31.5 -40t12 -56q0 -33 -12 -59.5t-33 -45t-48.5 -28.5t-58.5 -10q-53 0 -89.5 26t-56.5 64l46 33
q17 -27 40.5 -44.5t58.5 -17.5q37 0 61.5 21.5t24.5 57.5t-24.5 55t-71.5 19h-94v209h226v-60z" />
    <glyph glyph-name="uni2159" unicode="&#x2159;" horiz-adv-x="884" 
d="M219 304h90v-60h-262v60h105v296h-100v60h167v-356zM316 0h-68l377 660h70zM689 274q5 1 9.5 1.5t9.5 0.5q26 0 50.5 -10.5t43 -29t30 -44t11.5 -55.5q0 -31 -11.5 -57t-31.5 -45t-46.5 -30t-56.5 -11t-56 10.5t-46 30t-31.5 46t-11.5 58.5q0 38 15.5 67t40.5 64l103 147
h77zM697 221q-34 0 -56.5 -24.5t-22.5 -59.5q0 -36 22.5 -59t56.5 -23q35 0 57.5 23t22.5 59q0 35 -22.5 59.5t-57.5 24.5z" />
    <glyph glyph-name="uni215A" unicode="&#x215a;" horiz-adv-x="862" 
d="M295 600h-163v-98q25 6 50 6q28 0 54.5 -8t46 -24t31.5 -40t12 -56q0 -33 -12 -59.5t-33 -45t-48.5 -28.5t-58.5 -10q-53 0 -89.5 26t-56.5 64l46 33q17 -27 40.5 -44.5t58.5 -17.5q37 0 61.5 21.5t24.5 57.5t-24.5 55t-71.5 19h-94v209h226v-60zM294 0h-68l377 660h70z
M667 274q5 1 9.5 1.5t9.5 0.5q26 0 50.5 -10.5t43 -29t30 -44t11.5 -55.5q0 -31 -11.5 -57t-31.5 -45t-46.5 -30t-56.5 -11t-56 10.5t-46 30t-31.5 46t-11.5 58.5q0 38 15.5 67t40.5 64l103 147h77zM675 221q-34 0 -56.5 -24.5t-22.5 -59.5q0 -36 22.5 -59t56.5 -23
q35 0 57.5 23t22.5 59q0 35 -22.5 59.5t-57.5 24.5z" />
    <glyph glyph-name="oneeighth" unicode="&#x215b;" horiz-adv-x="928" 
d="M219 304h90v-60h-262v60h105v296h-100v60h167v-356zM316 0h-68l377 660h70zM736 424q55 0 92.5 -27.5t37.5 -79.5q0 -35 -18 -59t-51 -41q37 -15 62.5 -40.5t25.5 -67.5q0 -53 -41 -84t-108 -31q-66 0 -107 31t-41 85q0 40 24.5 66t62.5 41q-32 17 -50 41.5t-18 59.5
q0 51 37.5 78.5t91.5 27.5zM821 112q0 31 -24.5 47.5t-60.5 30.5q-36 -14 -59.5 -30.5t-23.5 -47.5q0 -28 21.5 -46t61.5 -18q42 0 63.5 18t21.5 46zM736 371q-29 0 -48.5 -15t-19.5 -42q0 -26 18.5 -40.5t49.5 -28.5q32 13 51 28t19 41q0 27 -20 42t-50 15z" />
    <glyph glyph-name="threeeighths" unicode="&#x215c;" horiz-adv-x="894" 
d="M304 641l-100 -135q19 -4 38.5 -13.5t35.5 -25t25.5 -38t9.5 -51.5q0 -32 -12 -58t-32.5 -44.5t-47.5 -28.5t-57 -10q-53 0 -89 26t-56 64l46 33q17 -27 39.5 -44.5t57.5 -17.5q36 0 60 21.5t24 58.5q0 35 -24.5 54t-70.5 19h-42v18l97 131h-158v60h256v-19zM282 0h-68
l377 660h70zM702 424q55 0 92.5 -27.5t37.5 -79.5q0 -35 -18 -59t-51 -41q37 -15 62.5 -40.5t25.5 -67.5q0 -53 -41 -84t-108 -31q-66 0 -107 31t-41 85q0 40 24.5 66t62.5 41q-32 17 -50 41.5t-18 59.5q0 51 37.5 78.5t91.5 27.5zM787 112q0 31 -24.5 47.5t-60.5 30.5
q-36 -14 -59.5 -30.5t-23.5 -47.5q0 -28 21.5 -46t61.5 -18q42 0 63.5 18t21.5 46zM702 371q-29 0 -48.5 -15t-19.5 -42q0 -26 18.5 -40.5t49.5 -28.5q32 13 51 28t19 41q0 27 -20 42t-50 15z" />
    <glyph glyph-name="fiveeighths" unicode="&#x215d;" horiz-adv-x="906" 
d="M295 600h-163v-98q25 6 50 6q28 0 54.5 -8t46 -24t31.5 -40t12 -56q0 -33 -12 -59.5t-33 -45t-48.5 -28.5t-58.5 -10q-53 0 -89.5 26t-56.5 64l46 33q17 -27 40.5 -44.5t58.5 -17.5q37 0 61.5 21.5t24.5 57.5t-24.5 55t-71.5 19h-94v209h226v-60zM294 0h-68l377 660h70z
M714 424q55 0 92.5 -27.5t37.5 -79.5q0 -35 -18 -59t-51 -41q37 -15 62.5 -40.5t25.5 -67.5q0 -53 -41 -84t-108 -31q-66 0 -107 31t-41 85q0 40 24.5 66t62.5 41q-32 17 -50 41.5t-18 59.5q0 51 37.5 78.5t91.5 27.5zM799 112q0 31 -24.5 47.5t-60.5 30.5
q-36 -14 -59.5 -30.5t-23.5 -47.5q0 -28 21.5 -46t61.5 -18q42 0 63.5 18t21.5 46zM714 371q-29 0 -48.5 -15t-19.5 -42q0 -26 18.5 -40.5t49.5 -28.5q32 13 51 28t19 41q0 27 -20 42t-50 15z" />
    <glyph glyph-name="seveneighths" unicode="&#x215e;" horiz-adv-x="804" 
d="M309 641l-198 -397h-72l181 356h-192v60h281v-19zM192 0h-68l377 660h70zM612 424q55 0 92.5 -27.5t37.5 -79.5q0 -35 -18 -59t-51 -41q37 -15 62.5 -40.5t25.5 -67.5q0 -53 -41 -84t-108 -31q-66 0 -107 31t-41 85q0 40 24.5 66t62.5 41q-32 17 -50 41.5t-18 59.5
q0 51 37.5 78.5t91.5 27.5zM697 112q0 31 -24.5 47.5t-60.5 30.5q-36 -14 -59.5 -30.5t-23.5 -47.5q0 -28 21.5 -46t61.5 -18q42 0 63.5 18t21.5 46zM612 371q-29 0 -48.5 -15t-19.5 -42q0 -26 18.5 -40.5t49.5 -28.5q32 13 51 28t19 41q0 27 -20 42t-50 15z" />
    <glyph glyph-name="arrowleft" unicode="&#x2190;" horiz-adv-x="650" 
d="M231 282h-69l195 -195l-46 -46l-265 265v18l265 264l46 -45l-194 -194h434v-68z" />
    <glyph glyph-name="arrowup" unicode="&#x2191;" horiz-adv-x="650" 
d="M52 317l264 263h17l264 -263l-46 -46l-190 189v-415h-71v416l-192 -190z" />
    <glyph glyph-name="arrowright" unicode="&#x2192;" horiz-adv-x="650" 
d="M53 349h435l-194 194l46 45l265 -264v-18l-265 -265l-46 46l195 195h-71l-365 -1v68z" />
    <glyph glyph-name="arrowdown" unicode="&#x2193;" horiz-adv-x="650" 
d="M52 313l46 46l192 -191v417h71v-416l190 190l46 -46l-264 -264h-17z" />
    <glyph glyph-name="arrowboth" unicode="&#x2194;" horiz-adv-x="926" 
d="M569 543l46 45l265 -264v-18l-265 -265l-46 46l195 195h-69l-127 -1h-105h-105l-127 1h-69l195 -195l-46 -46l-265 265v18l265 264l46 -45l-194 -194h600z" />
    <glyph glyph-name="arrowupdn" unicode="&#x2195;" horiz-adv-x="631" 
d="M578 469l-46 -46l-181 181v-548l181 181l46 -46l-254 -254h-18l-254 254l46 46l182 -182v550l-182 -182l-46 46l254 254h18z" />
    <glyph glyph-name="arrowupleft" unicode="&#x2196;" horiz-adv-x="650" 
d="M117 499l13 13h381v-67h-279l48 -48l278 -277l-49 -48l-276 276l-47 46v-281h-69v386z" />
    <glyph glyph-name="arrowupright" unicode="&#x2197;" horiz-adv-x="650" 
d="M463 392l-45 -44l-276 -276l-49 48l277 277l48 48h-280v67h382l12 -13v-386h-69v279z" />
    <glyph glyph-name="arrowdownright" unicode="&#x2198;" horiz-adv-x="650" 
d="M138 165h281l-326 326l49 48l276 -276l45 -45v279h69v-385l-12 -13h-382v66z" />
    <glyph glyph-name="arrowdownleft" unicode="&#x2199;" horiz-adv-x="650" 
d="M117 112v385h69v-281l47 47l276 276l49 -48l-278 -277l-49 -49h280v-66h-381z" />
    <glyph glyph-name="partialdiff" unicode="&#x2202;" horiz-adv-x="578" 
d="M293 672q52 0 95 -19t74 -57t48 -95t17 -134q0 -82 -19.5 -151.5t-55.5 -120t-87 -79t-114 -28.5q-41 0 -78 13t-65 38t-45 62t-17 86q0 46 16.5 85.5t48 68t77 44.5t104.5 16q39 0 80 -6.5t77 -14.5q-2 60 -14 102t-32.5 68.5t-49 39t-62.5 12.5q-47 0 -81 -21t-62 -57
l-52 42q29 48 79.5 77t117.5 29zM256 56q39 0 72 18.5t57.5 52.5t40 81.5t20.5 106.5q-40 9 -80.5 14t-69.5 5q-47 0 -79.5 -12t-52.5 -32.5t-29.5 -46.5t-9.5 -53q0 -60 37 -97t94 -37z" />
    <glyph glyph-name="uni2206" unicode="&#x2206;" horiz-adv-x="663" 
d="M633 0h-602l287 671h28zM142 70h378l-189 448z" />
    <glyph glyph-name="product" unicode="&#x220f;" horiz-adv-x="692" 
d="M602 -121h-78v711h-355v-711h-78v781h511v-781z" />
    <glyph glyph-name="summation" unicode="&#x2211;" horiz-adv-x="574" 
d="M522 590h-334l197 -299v-21l-200 -321h349v-70h-469v21l237 379l-237 360v21h457v-70z" />
    <glyph glyph-name="minus" unicode="&#x2212;" 
d="M502 281h-446v68h446v-68z" />
    <glyph glyph-name="uni2219" unicode="&#x2219;" horiz-adv-x="270" 
d="M135 377q26 0 44.5 -17.5t18.5 -45.5t-18.5 -45.5t-44.5 -17.5t-44.5 17.5t-18.5 45.5t18.5 45.5t44.5 17.5z" />
    <glyph glyph-name="radical" unicode="&#x221a;" horiz-adv-x="733" 
d="M213 -133h-28v337h-158v69h233v-179l382 656h84z" />
    <glyph glyph-name="infinity" unicode="&#x221e;" horiz-adv-x="822" 
d="M209 482q33 0 61.5 -9t53 -24.5t45.5 -36t41 -42.5q19 22 40.5 42.5t45.5 36t52.5 24.5t61.5 9q40 0 73 -13.5t56.5 -36.5t36.5 -54t13 -65q0 -35 -13 -65.5t-36 -53.5t-56 -36t-72 -13q-34 0 -62.5 9.5t-53.5 25.5t-46.5 36.5t-40.5 43.5q-20 -23 -41.5 -43.5t-46 -36.5
t-53 -25.5t-61.5 -9.5q-39 0 -71 13t-55.5 36t-36 53.5t-12.5 65.5q0 34 12.5 65t36 54t56 36.5t72.5 13.5zM604 411q-44 0 -79 -28.5t-69 -67.5q34 -40 69.5 -69.5t79.5 -29.5q46 0 75.5 26t29.5 72q0 45 -30 71t-76 26zM216 216q44 0 78.5 29t68.5 69q-33 40 -68 68.5
t-79 28.5q-46 0 -75.5 -26t-29.5 -71q0 -46 29.5 -72t75.5 -26z" />
    <glyph glyph-name="integral" unicode="&#x222b;" horiz-adv-x="327" 
d="M258 787q17 0 34.5 -2t30.5 -5v-64q-15 1 -28 1.5t-21 0.5q-47 0 -76.5 -28t-28.5 -95q0 -27 5.5 -69.5t13 -92.5t16 -104.5t16 -106t12.5 -96t5 -75.5q0 -93 -46.5 -136t-121.5 -43q-17 0 -34 2t-30 5v64q15 -1 28 -1.5t21 -0.5q47 0 75.5 28t28.5 94q0 28 -5 71
t-13 93.5t-16.5 105t-16.5 105.5t-13 95t-5 75q0 46 12.5 80t35 56t53.5 32.5t68 10.5z" />
    <glyph glyph-name="approxequal" unicode="&#x2248;" 
d="M154 509q40 0 84 -27l94 -57q19 -11 33.5 -18t28.5 -7q19 0 28.5 13t9.5 31v19h63q1 -3 1.5 -11t0.5 -16q0 -45 -26 -75.5t-71 -30.5q-39 0 -83 26l-94 57q-18 11 -32.5 18.5t-28.5 7.5q-19 0 -28.5 -12.5t-9.5 -32.5v-19h-64q0 3 -0.5 11t-0.5 16q0 43 25.5 75t69.5 32z
M154 297q40 0 84 -27l94 -57q19 -11 33.5 -18t28.5 -7q19 0 28.5 13t9.5 31v19h63q1 -3 1.5 -11t0.5 -16q0 -45 -26 -75.5t-71 -30.5q-39 0 -83 26l-94 57q-18 11 -32.5 18.5t-28.5 7.5q-19 0 -28.5 -12.5t-9.5 -32.5v-19h-64q0 3 -0.5 11t-0.5 16q0 43 25.5 75t69.5 32z
" />
    <glyph glyph-name="notequal" unicode="&#x2260;" 
d="M493 177h-263l-69 -111h-72l70 111h-93v68h136l87 139h-223v69h267l67 107h71l-68 -107h90v-69h-133l-87 -139h220v-68z" />
    <glyph glyph-name="lessequal" unicode="&#x2264;" 
d="M489 454l-293 -110l293 -110v-73l-438 172v22l438 172v-73zM489 0h-427v68h427v-68z" />
    <glyph glyph-name="greaterequal" unicode="&#x2265;" 
d="M508 355v-22l-438 -172v73l293 110l-293 110v73zM497 0h-427v68h427v-68z" />
    <glyph glyph-name="uni24EA" unicode="&#x24ea;" horiz-adv-x="975" 
d="M487 761q90 0 168.5 -34t137 -92.5t92 -137t33.5 -167.5t-33.5 -167.5t-92 -137t-137 -92.5t-168.5 -34q-89 0 -167.5 34t-137 92.5t-92 137t-33.5 167.5t33.5 167.5t92 137t137 92.5t167.5 34zM488 561q43 0 75 -17t53 -47.5t31 -72.5t10 -91q0 -48 -10 -90.5t-30.5 -75
t-52.5 -51t-76 -18.5t-76 18.5t-52.5 51t-30 75t-9.5 90.5q0 49 10 91t31 72.5t52.5 47.5t74.5 17zM487 501q-54 0 -77 -45.5t-23 -122.5q0 -39 5.5 -71t17.5 -55t31 -36t46 -13t46.5 13t32 36t18 55t5.5 71q0 77 -23.5 122.5t-78.5 45.5zM488 699q-77 0 -144 -28.5
t-116.5 -78t-78.5 -117t-29 -145.5t29 -145.5t78.5 -117t116.5 -78t144 -28.5q76 0 143.5 28.5t117 78.5t78.5 117t29 145t-29 145t-78.5 117t-117 78.5t-143.5 28.5z" />
    <glyph glyph-name="uni24FF" unicode="&#x24ff;" horiz-adv-x="975" 
d="M487 761q90 0 168.5 -34t137 -92.5t92 -137t33.5 -167.5t-33.5 -167.5t-92 -137t-137 -92.5t-168.5 -34q-89 0 -167.5 34t-137 92.5t-92 137t-33.5 167.5t33.5 167.5t92 137t137 92.5t167.5 34zM487 561q-43 0 -75 -17t-53 -47.5t-31 -72.5t-10 -91q0 -48 10 -90.5
t30.5 -75t52.5 -51t76 -18.5q45 0 77.5 18.5t53.5 51t31 75t10 90.5q0 49 -10.5 91t-31.5 72.5t-53.5 47.5t-76.5 17zM487 497q53 0 75.5 -44.5t22.5 -119.5q0 -77 -23 -124t-75 -47t-74 47t-22 124q0 75 22 119.5t74 44.5z" />
    <glyph glyph-name="uni25A0" unicode="&#x25a0;" horiz-adv-x="730" 
d="M640 55h-550v550h550v-550z" />
    <glyph glyph-name="uni25A1" unicode="&#x25a1;" horiz-adv-x="730" 
d="M640 55h-550v550h550v-550zM168 534v-408h394v408h-394z" />
    <glyph glyph-name="uni25AA" unicode="&#x25aa;" horiz-adv-x="541" 
d="M461 54h-381v380h381v-380z" />
    <glyph glyph-name="uni25AB" unicode="&#x25ab;" horiz-adv-x="541" 
d="M461 54h-381v380h381v-380zM154 366v-244h233v244h-233z" />
    <glyph glyph-name="uni25B2" unicode="&#x25b2;" horiz-adv-x="730" 
d="M709 68l-7 -13h-674l-7 13l337 592h15z" />
    <glyph glyph-name="uni25B3" unicode="&#x25b3;" horiz-adv-x="730" 
d="M709 68l-7 -13h-674l-7 13l337 592h15zM144 133h442l-222 388z" />
    <glyph glyph-name="uni25B4" unicode="&#x25b4;" horiz-adv-x="528" 
d="M503 67l-7 -13h-464l-7 13l232 406h15z" />
    <glyph glyph-name="uni25B5" unicode="&#x25b5;" horiz-adv-x="528" 
d="M503 67l-7 -13h-464l-7 13l232 406h15zM136 119h256l-128 226z" />
    <glyph glyph-name="uni25B6" unicode="&#x25b6;" horiz-adv-x="645" 
d="M622 337v-15l-519 -333l-13 7v668l13 7z" />
    <glyph glyph-name="uni25B7" unicode="&#x25b7;" horiz-adv-x="645" 
d="M622 337v-15l-519 -333l-13 7v668l13 7zM168 539v-418l326 208z" />
    <glyph glyph-name="uni25B8" unicode="&#x25b8;" horiz-adv-x="480" 
d="M449 252v-15l-356 -228l-13 7v457l13 7z" />
    <glyph glyph-name="uni25B9" unicode="&#x25b9;" horiz-adv-x="480" 
d="M449 252v-15l-356 -228l-13 7v457l13 7zM151 360v-231l181 115z" />
    <glyph glyph-name="uni25BA" unicode="&#x25ba;" horiz-adv-x="961" 
d="M931 337v-15l-828 -333l-13 7v668l13 7z" />
    <glyph glyph-name="uni25BB" unicode="&#x25bb;" horiz-adv-x="961" 
d="M931 337v-15l-828 -333l-13 7v668l13 7zM168 564v-468l581 234z" />
    <glyph glyph-name="uni25BC" unicode="&#x25bc;" horiz-adv-x="730" 
d="M709 592.004l-7 12.999h-674l-7 -12.999l337 -591.964h15z" />
    <glyph glyph-name="uni25BD" unicode="&#x25bd;" horiz-adv-x="730" 
d="M709 592l-336 -592h-15l-337 592l7 13h674zM364 138l222 389h-442z" />
    <glyph glyph-name="uni25BE" unicode="&#x25be;" horiz-adv-x="528" 
d="M503 421l-231 -406h-15l-232 406l7 13h464z" />
    <glyph glyph-name="uni25BF" unicode="&#x25bf;" horiz-adv-x="528" 
d="M503 421l-231 -406h-15l-232 406l7 13h464zM264 142l128 226h-256z" />
    <glyph glyph-name="uni25C0" unicode="&#x25c0;" horiz-adv-x="645" 
d="M555 664v-668l-13 -7l-519 333v15l519 334z" />
    <glyph glyph-name="uni25C1" unicode="&#x25c1;" horiz-adv-x="682" 
d="M60.0381 337v-15l518.968 -333l13 7v668l-13 7zM514.01 539v-418l-325.979 208z" />
    <glyph glyph-name="uni25C2" unicode="&#x25c2;" horiz-adv-x="480" 
d="M400 473v-457l-13 -7l-356 228v15l356 228z" />
    <glyph glyph-name="uni25C3" unicode="&#x25c3;" horiz-adv-x="480" 
d="M400 473v-457l-13 -7l-356 228v15l356 228zM328 129v231l-181 -116z" />
    <glyph glyph-name="uni25C4" unicode="&#x25c4;" horiz-adv-x="961" 
d="M871 664v-668l-13 -7l-828 333v15l828 334z" />
    <glyph glyph-name="uni25C5" unicode="&#x25c5;" horiz-adv-x="961" 
d="M871 664v-668l-13 -7l-828 333v15l828 334zM793 96v468l-582 -234z" />
    <glyph glyph-name="lozenge" unicode="&#x25ca;" horiz-adv-x="665" 
d="M105 331l213 340h28l213 -341l-213 -341h-28zM332 558l-142 -227l143 -228l143 227z" />
    <glyph glyph-name="uni25CB" unicode="&#x25cb;" horiz-adv-x="776" 
d="M388 659q68 0 127.5 -26t104 -71t70.5 -105t26 -128t-26 -128t-70.5 -104.5t-104 -70t-127.5 -25.5t-128 25.5t-104.5 70t-70.5 104.5t-26 128t26 128t70.5 105t104.5 71t128 26zM388 587q-54 0 -100 -20t-80 -55t-53.5 -82t-19.5 -101t19.5 -100.5t53.5 -81t80 -54.5
t100 -20q53 0 99 20t80 54.5t53.5 81t19.5 100.5t-19.5 101t-53.5 82t-80 55t-99 20z" />
    <glyph glyph-name="uni25CF" unicode="&#x25cf;" horiz-adv-x="776" 
d="M388 659q68 0 127.5 -26t104 -71t70.5 -105t26 -128t-26 -128t-70.5 -104.5t-104 -70t-127.5 -25.5t-128 25.5t-104.5 70t-70.5 104.5t-26 128t26 128t70.5 105t104.5 71t128 26z" />
    <glyph glyph-name="pointingindexleftwhite" unicode="&#x261c;" horiz-adv-x="1216" 
d="M1140 523l-47 -176l86 -72v-27l-86 -73l47 -174l-25 -18l-223 143q-46 -24 -93.5 -43.5t-93.5 -33.5t-88 -21.5t-76 -7.5q-58 0 -81.5 20t-23.5 49q0 23 15 38q-21 7 -34 22t-13 37q0 15 7 26.5t18 19.5q-16 8 -26 21t-10 32q0 20 14 36l-194 6q-87 3 -125 23.5t-38 67.5
q0 26 11 42.5t34.5 26t59 13t84.5 3.5q43 0 89 -2.5t95 -7.5q0 46 26 68.5t58 22.5q14 0 34.5 -4.5t42.5 -18.5l238 -144q18 -5 34.5 -10.5t32.5 -11.5l226 144zM481 223q-17 -3 -17 -23q0 -9 5.5 -15.5t14.5 -6.5h110v-52q-14 -2 -32.5 -2.5t-34.5 -0.5h-9q-23 0 -23 -22
q0 -10 8.5 -17t34.5 -7q24 0 63.5 7t85.5 20.5t94.5 33t90.5 44.5v158q-60 24 -139 43.5t-165.5 34t-175.5 22t-168 7.5q-62 0 -85 -6t-23 -24q0 -17 18.5 -24t71.5 -9l135 -6q77 -4 133.5 -6t98.5 -4v-52l-98 2q-10 0 -16.5 -5.5t-6.5 -15.5t6 -16.5t15 -6.5h111v-51h-103z
M934 168l123 -77l-30 108l76 63l-76 61l31 109l-124 -79v-185zM522 524q-13 0 -21.5 -9t-9.5 -30q36 -5 72.5 -10.5t72.5 -12.5l-83 51l-15 7.5t-16 3.5z" />
    <glyph glyph-name="pointingindexrightwhite" unicode="&#x261e;" horiz-adv-x="1216" 
d="M339 395q16 6 33 11.5t35 10.5l237 144q23 14 43 18.5t34 4.5q33 0 58 -22.5t26 -68.5q49 5 95.5 7.5t89.5 2.5q97 0 143 -16.5t46 -68.5q0 -47 -38 -67.5t-125 -23.5l-195 -6q15 -17 15 -36t-10 -32t-27 -21q11 -8 18.5 -19.5t7.5 -26.5q0 -22 -13.5 -36.5t-33.5 -21.5
q15 -15 15 -39q0 -29 -23.5 -49t-82.5 -20q-34 0 -76 7.5t-88 21t-93.5 33.5t-92.5 44l-223 -143l-26 18l48 174l-86 73v27l85 72l-47 176l26 16zM734 101q0 20 -20 22h-12q-16 0 -34.5 0.5t-32.5 2.5v52h109q10 0 15.5 6.5t5.5 15.5q0 10 -5 15.5t-13 7.5h-102v51h110
q10 0 16 6.5t6 16.5t-6.5 15.5t-17.5 5.5l-97 -2v52q42 2 98 4t134 6l135 6q53 2 71 9t18 24q0 18 -22.5 24t-84.5 6q-80 0 -168.5 -7.5t-175 -22t-165.5 -34t-139 -43.5v-158q42 -25 90.5 -44.5t94.5 -33t85.5 -20.5t63.5 -7q26 0 34.5 7t8.5 17zM170 91l125 78v183
l-126 81l33 -110l-78 -61l78 -63zM592 462q36 7 72.5 12.5t73.5 10.5q-1 21 -10 30t-21 9q-9 0 -16 -3.5l-15 -7.5z" />
    <glyph glyph-name="heartsuitwhite" unicode="&#x2661;" horiz-adv-x="860" 
d="M613 671q39 0 74.5 -14t61.5 -40t41.5 -62t15.5 -80q0 -25 -6 -48t-18.5 -47t-33 -50.5t-50.5 -58.5l-261 -282h-15l-261 282q-30 32 -50.5 58.5t-33 50.5t-18.5 47t-6 48q0 44 15.5 80t41.5 62t61.5 40t74.5 14q66 0 114 -36t69 -92q21 56 69.5 92t114.5 36zM608 599
q-32 0 -57.5 -13.5t-45 -37t-34 -54t-23.5 -63.5h-37q-9 33 -23.5 63.5t-34.5 54t-45.5 37t-57.5 13.5q-51 0 -83.5 -33t-32.5 -86q0 -41 21.5 -78t66.5 -85l207 -228l208 228q43 48 65.5 85t22.5 78q0 53 -33 86t-84 33z" />
    <glyph glyph-name="heartsuitblack" unicode="&#x2665;" horiz-adv-x="860" 
d="M613 671q39 0 74.5 -14t61.5 -40t41.5 -62t15.5 -80q0 -25 -6 -48t-18.5 -47t-33 -50.5t-50.5 -58.5l-261 -282h-15l-261 282q-30 32 -50.5 58.5t-33 50.5t-18.5 47t-6 48q0 44 15.5 80t41.5 62t61.5 40t74.5 14q66 0 114 -36t69 -92q21 56 69.5 92t114.5 36z" />
    <glyph glyph-name="uni275B" unicode="&#x275b;" horiz-adv-x="655" 
d="M388 671q61 0 112 -18.5t93 -51.5l-32 -51q-75 57 -169 57q-59 0 -109.5 -21.5t-87.5 -59t-57.5 -88t-20.5 -109.5q0 -53 16.5 -99.5t45.5 -83.5q-9 28 -9 62q0 45 17 84.5t47 69.5t69.5 47t84.5 17t84.5 -17t69.5 -46.5t47 -69.5t17 -85q0 -42 -15.5 -81.5t-45 -69.5
t-73 -48.5t-99.5 -18.5q-67 0 -126 26t-103.5 72t-70 108t-25.5 133q0 70 25.5 132.5t70.5 109t107.5 73.5t136.5 27z" />
    <glyph glyph-name="uni275C" unicode="&#x275c;" horiz-adv-x="655" 
d="M266 -11q-61 0 -112 18.5t-93 51.5l32 51q75 -57 169 -57q59 0 109.5 21.5t87 59t57.5 88t21 109.5q0 53 -16.5 99t-46.5 84q5 -15 7.5 -30.5t2.5 -31.5q0 -45 -17 -84.5t-47 -69.5t-69.5 -47t-84.5 -17t-84.5 17t-69.5 46.5t-47 69.5t-17 85q0 42 15.5 81.5t45 69.5
t73 48.5t99.5 18.5q67 0 126 -26.5t103 -72t70 -107.5t26 -133t-25.5 -133t-70.5 -108.5t-107.5 -73.5t-136.5 -27z" />
    <glyph glyph-name="uni275D" unicode="&#x275d;" horiz-adv-x="1275" 
d="M1008 671q61 0 112 -18.5t93 -51.5l-32 -51q-75 57 -169 57q-59 0 -109.5 -21.5t-87.5 -59t-57.5 -88t-20.5 -109.5q0 -53 16.5 -99.5t45.5 -83.5q-9 28 -9 62q0 45 17 84.5t47 69.5t69.5 47t84.5 17t84.5 -17t69.5 -46.5t47 -69.5t17 -85q0 -42 -15.5 -81.5t-45 -69.5
t-73 -48.5t-99.5 -18.5q-67 0 -126 26t-103.5 72t-70 108t-25.5 133q0 70 25.5 132.5t70.5 109t107.5 73.5t136.5 27zM388 671q61 0 112 -18.5t93 -51.5l-32 -51q-75 57 -169 57q-59 0 -109.5 -21.5t-87.5 -59t-57.5 -88t-20.5 -109.5q0 -53 16.5 -99.5t45.5 -83.5
q-9 28 -9 62q0 45 17 84.5t47 69.5t69.5 47t84.5 17t84.5 -17t69.5 -46.5t47 -69.5t17 -85q0 -42 -15.5 -81.5t-45 -69.5t-73 -48.5t-99.5 -18.5q-67 0 -126 26t-103.5 72t-70 108t-25.5 133q0 70 25.5 132.5t70.5 109t107.5 73.5t136.5 27z" />
    <glyph glyph-name="uni275E" unicode="&#x275e;" horiz-adv-x="1275" 
d="M266 -11q-61 0 -112 18.5t-93 51.5l32 51q75 -57 169 -57q59 0 109.5 21.5t87 59t57.5 88t21 109.5q0 53 -16.5 99t-46.5 84q5 -15 7.5 -30.5t2.5 -31.5q0 -45 -17 -84.5t-47 -69.5t-69.5 -47t-84.5 -17t-84.5 17t-69.5 46.5t-47 69.5t-17 85q0 42 15.5 81.5t45 69.5
t73 48.5t99.5 18.5q67 0 126 -26.5t103 -72t70 -107.5t26 -133t-25.5 -133t-70.5 -108.5t-107.5 -73.5t-136.5 -27zM886 -11q-61 0 -112 18.5t-93 51.5l32 51q75 -57 169 -57q59 0 109.5 21.5t87 59t57.5 88t21 109.5q0 53 -16.5 99t-46.5 84q5 -15 7.5 -30.5t2.5 -31.5
q0 -45 -17 -84.5t-47 -69.5t-69.5 -47t-84.5 -17t-84.5 17t-69.5 46.5t-47 69.5t-17 85q0 42 15.5 81.5t45 69.5t73 48.5t99.5 18.5q67 0 126 -26.5t103 -72t70 -107.5t26 -133t-25.5 -133t-70.5 -108.5t-107.5 -73.5t-136.5 -27z" />
    <glyph glyph-name="uni2776" unicode="&#x2776;" horiz-adv-x="975" 
d="M487 761q90 0 168.5 -34t137 -92.5t92 -137t33.5 -167.5t-33.5 -167.5t-92 -137t-137 -92.5t-168.5 -34q-89 0 -167.5 34t-137 92.5t-92 137t-33.5 167.5t33.5 167.5t92 137t137 92.5t167.5 34zM363 554v-61h93v-327h-100v-61h265v61h-93v388h-165z" />
    <glyph glyph-name="uni2777" unicode="&#x2777;" horiz-adv-x="975" 
d="M487 761q90 0 168.5 -34t137 -92.5t92 -137t33.5 -167.5t-33.5 -167.5t-92 -137t-137 -92.5t-168.5 -34q-89 0 -167.5 34t-137 92.5t-92 137t-33.5 167.5t33.5 167.5t92 137t137 92.5t167.5 34zM483 561q-35 0 -64 -12t-49 -32t-31 -45.5t-11 -53.5q0 -20 5 -43h66
q-2 9 -3.5 19t-1.5 19q0 34 22.5 59t63.5 25q38 0 58.5 -23t20.5 -55q0 -35 -21 -64.5t-51 -61.5l-159 -172v-16h322v61h-198l93 97q17 18 33 36t28 37.5t19 41t7 45.5q0 30 -11 55.5t-30.5 43.5t-47 28.5t-60.5 10.5z" />
    <glyph glyph-name="uni2778" unicode="&#x2778;" horiz-adv-x="975" 
d="M487 761q90 0 168.5 -34t137 -92.5t92 -137t33.5 -167.5t-33.5 -167.5t-92 -137t-137 -92.5t-168.5 -34q-89 0 -167.5 34t-137 92.5t-92 137t-33.5 167.5t33.5 167.5t92 137t137 92.5t167.5 34zM349 554v-63h172l-110 -143v-20h50q51 0 77.5 -20.5t26.5 -58.5
q0 -39 -26.5 -63t-64.5 -24t-63 20t-44 48l-50 -36q22 -40 61.5 -68t96.5 -28q33 0 62.5 10.5t52 30.5t36 47.5t13.5 62.5q0 31 -10.5 55t-28 41t-39.5 27t-46 13l114 149v20h-280z" />
    <glyph glyph-name="uni2779" unicode="&#x2779;" horiz-adv-x="975" 
d="M487 761q90 0 168.5 -34t137 -92.5t92 -137t33.5 -167.5t-33.5 -167.5t-92 -137t-137 -92.5t-168.5 -34q-89 0 -167.5 34t-137 92.5t-92 137t-33.5 167.5t33.5 167.5t92 137t137 92.5t167.5 34zM438 554l-139 -351v-20h226v-78h70v78h62v63h-62v133h-70v-133h-139
l127 308h-75z" />
    <glyph glyph-name="uni277A" unicode="&#x277a;" horiz-adv-x="975" 
d="M487 761q90 0 168.5 -34t137 -92.5t92 -137t33.5 -167.5t-33.5 -167.5t-92 -137t-137 -92.5t-168.5 -34q-89 0 -167.5 34t-137 92.5t-92 137t-33.5 167.5t33.5 167.5t92 137t137 92.5t167.5 34zM368 554v-226h103q51 0 77.5 -20.5t26.5 -58.5q0 -40 -26.5 -64t-66.5 -24
t-65 20.5t-44 48.5l-50 -36q21 -40 61.5 -68.5t99.5 -28.5q33 0 62.5 11t52 31t36 48t13.5 63t-13 61.5t-34 44t-48.5 26t-56.5 8.5q-17 0 -31.5 -1t-28.5 -3v105h178v63h-246z" />
    <glyph glyph-name="uni277B" unicode="&#x277b;" horiz-adv-x="975" 
d="M487 761q90 0 168.5 -34t137 -92.5t92 -137t33.5 -167.5t-33.5 -167.5t-92 -137t-137 -92.5t-168.5 -34q-89 0 -167.5 34t-137 92.5t-92 137t-33.5 167.5t33.5 167.5t92 137t137 92.5t167.5 34zM477 342q38 0 63 -25.5t25 -63.5q0 -19 -6.5 -35.5t-18.5 -29t-28 -19.5
t-35 -7q-18 0 -34 7t-28 19.5t-18.5 29t-6.5 35.5q0 37 25 63t62 26zM493 554l-112 -158q-14 -20 -25.5 -37.5t-19.5 -34t-12.5 -34t-4.5 -37.5q0 -34 12.5 -62.5t34.5 -49t50.5 -32t60.5 -11.5t61 11.5t51 32t35 49t13 61.5q0 28 -9.5 52.5t-26 43.5t-38.5 31t-47 16
q-29 5 -54 -5l115 164h-84z" />
    <glyph glyph-name="uni277C" unicode="&#x277c;" horiz-adv-x="975" 
d="M487 761q90 0 168.5 -34t137 -92.5t92 -137t33.5 -167.5t-33.5 -167.5t-92 -137t-137 -92.5t-168.5 -34q-89 0 -167.5 34t-137 92.5t-92 137t-33.5 167.5t33.5 167.5t92 137t137 92.5t167.5 34zM344 555v-65h213l-201 -384h78l217 429v20h-307z" />
    <glyph glyph-name="uni277D" unicode="&#x277d;" horiz-adv-x="975" 
d="M487 761q90 0 168.5 -34t137 -92.5t92 -137t33.5 -167.5t-33.5 -167.5t-92 -137t-137 -92.5t-168.5 -34q-89 0 -167.5 34t-137 92.5t-92 137t-33.5 167.5t33.5 167.5t92 137t137 92.5t167.5 34zM487 313q38 -14 65 -32.5t27 -54.5q0 -31 -23 -51t-68 -20q-46 0 -69 20
t-23 52q0 35 27 53.5t64 32.5zM489 561q-30 0 -56 -7.5t-45.5 -22t-30.5 -36t-11 -49.5q0 -38 21.5 -64t58.5 -43q-44 -16 -72.5 -43.5t-28.5 -72.5q0 -29 12 -52t34 -39t52 -25t66 -9t65.5 9t51 25t33.5 39t12 51q0 46 -29.5 74t-69.5 44q38 18 58 44t20 62q0 28 -11 49.5
t-30 36t-45 22t-55 7.5zM488 504q32 0 52.5 -16.5t20.5 -45.5t-20.5 -45t-53.5 -28q-32 12 -52 28t-20 45t20.5 45.5t52.5 16.5z" />
    <glyph glyph-name="uni277E" unicode="&#x277e;" horiz-adv-x="975" 
d="M488 761q89 0 167.5 -34t137 -92.5t92 -137t33.5 -167.5t-33.5 -167.5t-92 -137t-137 -92.5t-167.5 -34q-90 0 -168.5 34t-137 92.5t-92 137t-33.5 167.5t33.5 167.5t92 137t137 92.5t168.5 34zM498 562q-32 0 -61 -11.5t-50.5 -32t-34.5 -49t-13 -61.5q0 -28 9.5 -52.5
t25.5 -43.5t38 -31t48 -16q29 -5 54 5l-115 -164h84l112 158q14 20 25.5 37.5t19.5 34t12.5 34t4.5 37.5q0 34 -13 62.5t-34.5 49t-50.5 32t-61 11.5zM498 498q38 0 62.5 -26.5t24.5 -64.5q0 -37 -24.5 -63t-62.5 -26q-37 0 -62.5 25.5t-25.5 63.5q0 19 7 35.5t19 29
t28 19.5t34 7z" />
    <glyph glyph-name="uni2780" unicode="&#x2780;" horiz-adv-x="975" 
d="M487 761q90 0 168.5 -34t137 -92.5t92 -137t33.5 -167.5t-33.5 -167.5t-92 -137t-137 -92.5t-168.5 -34q-89 0 -167.5 34t-137 92.5t-92 137t-33.5 167.5t33.5 167.5t92 137t137 92.5t167.5 34zM487 694q-75 0 -141 -28t-115 -77t-77.5 -115.5t-28.5 -143.5t28.5 -143.5
t77.5 -115.5t115 -77t141 -28q76 0 142 28t115 77t77 115.5t28 143.5t-28 143.5t-77 115.5t-115 77t-142 28zM528 166h93v-61h-265v61h100v327h-93v61h165v-388z" />
    <glyph glyph-name="uni2781" unicode="&#x2781;" horiz-adv-x="975" 
d="M487 761q90 0 168.5 -34t137 -92.5t92 -137t33.5 -167.5t-33.5 -167.5t-92 -137t-137 -92.5t-168.5 -34q-89 0 -167.5 34t-137 92.5t-92 137t-33.5 167.5t33.5 167.5t92 137t137 92.5t167.5 34zM487 694q-75 0 -141 -28t-115 -77t-77.5 -115.5t-28.5 -143.5t28.5 -143.5
t77.5 -115.5t115 -77t141 -28q76 0 142 28t115 77t77 115.5t28 143.5t-28 143.5t-77 115.5t-115 77t-142 28zM483 561q33 0 60.5 -10.5t47 -28.5t30.5 -43.5t11 -55.5q0 -24 -7 -45.5t-19 -41t-28 -37.5t-33 -36l-93 -97h198v-61h-322v16l159 172q30 32 51 61.5t21 64.5
q0 32 -20.5 55t-58.5 23q-41 0 -63.5 -25t-22.5 -59q0 -9 1.5 -19t3.5 -19h-66q-5 23 -5 43q0 28 11 53.5t31 45.5t49 32t64 12z" />
    <glyph glyph-name="uni2782" unicode="&#x2782;" horiz-adv-x="975" 
d="M487 761q90 0 168.5 -34t137 -92.5t92 -137t33.5 -167.5t-33.5 -167.5t-92 -137t-137 -92.5t-168.5 -34q-89 0 -167.5 34t-137 92.5t-92 137t-33.5 167.5t33.5 167.5t92 137t137 92.5t167.5 34zM629 534l-114 -149q24 -3 46 -13t39.5 -27t28 -41t10.5 -55
q0 -35 -13.5 -62.5t-36 -47.5t-52 -30.5t-62.5 -10.5q-57 0 -96.5 28t-61.5 68l50 36q19 -28 44 -48t63 -20t64.5 24t26.5 63q0 38 -26.5 58.5t-77.5 20.5h-50v20l110 143h-172v63h280v-20zM487 694q-75 0 -141 -28t-115 -77t-77.5 -115.5t-28.5 -143.5t28.5 -143.5
t77.5 -115.5t115 -77t141 -28q76 0 142 28t115 77t77 115.5t28 143.5t-28 143.5t-77 115.5t-115 77t-142 28z" />
    <glyph glyph-name="uni2783" unicode="&#x2783;" horiz-adv-x="975" 
d="M487 761q90 0 168.5 -34t137 -92.5t92 -137t33.5 -167.5t-33.5 -167.5t-92 -137t-137 -92.5t-168.5 -34q-89 0 -167.5 34t-137 92.5t-92 137t-33.5 167.5t33.5 167.5t92 137t137 92.5t167.5 34zM386 246h139v133h70v-133h62v-63h-62v-78h-70v78h-226v20l139 351h75z
M487 694q-75 0 -141 -28t-115 -77t-77.5 -115.5t-28.5 -143.5t28.5 -143.5t77.5 -115.5t115 -77t141 -28q76 0 142 28t115 77t77 115.5t28 143.5t-28 143.5t-77 115.5t-115 77t-142 28z" />
    <glyph glyph-name="uni2784" unicode="&#x2784;" horiz-adv-x="975" 
d="M487 761q90 0 168.5 -34t137 -92.5t92 -137t33.5 -167.5t-33.5 -167.5t-92 -137t-137 -92.5t-168.5 -34q-89 0 -167.5 34t-137 92.5t-92 137t-33.5 167.5t33.5 167.5t92 137t137 92.5t167.5 34zM615 491h-178v-105q14 2 28 3t31 1q29 0 56.5 -8.5t49.5 -26t35 -44
t13 -61.5t-13.5 -63t-36 -48t-53 -31t-63.5 -11q-59 0 -99 28.5t-62 68.5l51 36q19 -28 43.5 -48.5t64.5 -20.5t67 24t27 64q0 38 -27 58.5t-77 20.5h-104v226h247v-63zM487 694q-75 0 -141 -28t-115 -77t-77.5 -115.5t-28.5 -143.5t28.5 -143.5t77.5 -115.5t115 -77
t141 -28q76 0 142 28t115 77t77 115.5t28 143.5t-28 143.5t-77 115.5t-115 77t-142 28z" />
    <glyph glyph-name="uni2785" unicode="&#x2785;" horiz-adv-x="975" 
d="M487 761q90 0 168.5 -34t137 -92.5t92 -137t33.5 -167.5t-33.5 -167.5t-92 -137t-137 -92.5t-168.5 -34q-89 0 -167.5 34t-137 92.5t-92 137t-33.5 167.5t33.5 167.5t92 137t137 92.5t167.5 34zM477 342q-37 0 -62 -26t-25 -63q0 -19 6.5 -35.5t18.5 -29t28 -19.5t34 -7
q19 0 35 7t28 19.5t18.5 29t6.5 35.5q0 38 -25 63.5t-63 25.5zM462 390q25 10 54 5q25 -4 47 -16t38.5 -31t26 -43.5t9.5 -52.5q0 -33 -13 -61.5t-35 -49t-51 -32t-61 -11.5t-60.5 11.5t-50.5 32t-34.5 49t-12.5 62.5q0 20 4.5 37.5t12.5 34t19.5 34t25.5 37.5l112 158h84z
M487 694q-75 0 -141 -28t-115 -77t-77.5 -115.5t-28.5 -143.5t28.5 -143.5t77.5 -115.5t115 -77t141 -28q76 0 142 28t115 77t77 115.5t28 143.5t-28 143.5t-77 115.5t-115 77t-142 28z" />
    <glyph glyph-name="uni2786" unicode="&#x2786;" horiz-adv-x="975" 
d="M487 761q90 0 168.5 -34t137 -92.5t92 -137t33.5 -167.5t-33.5 -167.5t-92 -137t-137 -92.5t-168.5 -34q-89 0 -167.5 34t-137 92.5t-92 137t-33.5 167.5t33.5 167.5t92 137t137 92.5t167.5 34zM487 694q-75 0 -141 -28t-115 -77t-77.5 -115.5t-28.5 -143.5t28.5 -143.5
t77.5 -115.5t115 -77t141 -28q76 0 142 28t115 77t77 115.5t28 143.5t-28 143.5t-77 115.5t-115 77t-142 28zM651 535l-217 -429h-78l201 384h-213v65h307v-20z" />
    <glyph glyph-name="uni2787" unicode="&#x2787;" horiz-adv-x="975" 
d="M487 761q90 0 168.5 -34t137 -92.5t92 -137t33.5 -167.5t-33.5 -167.5t-92 -137t-137 -92.5t-168.5 -34q-89 0 -167.5 34t-137 92.5t-92 137t-33.5 167.5t33.5 167.5t92 137t137 92.5t167.5 34zM487 313q-37 -14 -64 -32.5t-27 -53.5q0 -32 23 -52t69 -20q45 0 68 20
t23 51q0 36 -27 54.5t-65 32.5zM489 561q29 0 55 -7.5t45 -22t30 -36t11 -49.5q0 -36 -20 -62t-58 -44q40 -16 69.5 -44t29.5 -74q0 -28 -12 -51t-33.5 -39t-51 -25t-65.5 -9t-66 9t-52 25t-34 39t-12 52q0 45 28.5 72.5t72.5 43.5q-37 17 -58.5 43t-21.5 64q0 28 11 49.5
t30.5 36t45.5 22t56 7.5zM487 694q-75 0 -141 -28t-115 -77t-77.5 -115.5t-28.5 -143.5t28.5 -143.5t77.5 -115.5t115 -77t141 -28q76 0 142 28t115 77t77 115.5t28 143.5t-28 143.5t-77 115.5t-115 77t-142 28zM488 504q-32 0 -52.5 -16.5t-20.5 -45.5t20 -45t52 -28
q33 12 53.5 28t20.5 45t-20.5 45.5t-52.5 16.5z" />
    <glyph glyph-name="uni2788" unicode="&#x2788;" horiz-adv-x="975" 
d="M488 761q89 0 167.5 -34t137 -92.5t92 -137t33.5 -167.5t-33.5 -167.5t-92 -137t-137 -92.5t-167.5 -34q-90 0 -168.5 34t-137 92.5t-92 137t-33.5 167.5t33.5 167.5t92 137t137 92.5t168.5 34zM488 694q-76 0 -142 -28t-115 -77t-77.5 -115.5t-28.5 -143.5t28.5 -143.5
t77.5 -115.5t115 -77t142 -28q75 0 141 28t115 77t77 115.5t28 143.5t-28 143.5t-77 115.5t-115 77t-141 28zM498 562q32 0 61 -11.5t50.5 -32t34.5 -49t13 -62.5q0 -20 -4.5 -37.5t-12.5 -34t-19.5 -34t-25.5 -37.5l-112 -158h-84l115 164q-25 -10 -54 -5q-26 4 -48 16
t-38 31t-25.5 43.5t-9.5 52.5q0 33 13 61.5t34.5 49t50.5 32t61 11.5zM498 498q-18 0 -34 -7t-28 -19.5t-19 -29t-7 -35.5q0 -38 25.5 -63.5t62.5 -25.5q38 0 62.5 26t24.5 63q0 38 -24.5 64.5t-62.5 26.5z" />
    <glyph glyph-name="uni27F5" unicode="&#x27f5;" horiz-adv-x="1216" 
d="M1163 281l-912 1h-69l195 -195l-46 -46l-265 265v18l265 264l46 -45l-194 -194h980v-68z" />
    <glyph glyph-name="uni27F6" unicode="&#x27f6;" horiz-adv-x="1216" 
d="M1150 324v-18l-265 -265l-46 46l195 195h-70l-912 -1v68h981l-194 194l46 45z" />
    <glyph glyph-name="uniF8FF" unicode="&#xf8ff;" horiz-adv-x="722" 
d="M99 660h524v-660h-524v660zM231 202q-2 26 -2 45v36q0 50 6 87.5t17 69.5q24 13 51 20q-24 -62 -40.5 -126.5t-24.5 -131.5h-7zM458 123q37 0 58.5 23t21.5 53q0 26 -16.5 55t-45.5 46l-24 -25q21 -20 33 -38t12 -38q0 -17 -9.5 -28t-27.5 -11q-11 0 -21 6t-21.5 21
t-24.5 40t-30 63q43 25 70 44t42.5 35.5t21 31t5.5 29.5q0 40 -27.5 61t-74.5 21q-8 0 -16.5 -0.5t-16.5 -1.5l26 55l-41 7l-33 -71q-26 -5 -52.5 -15t-50.5 -21q-14 -38 -18.5 -80t-4.5 -81q0 -51 6 -90t14 -68l42 -8q11 55 21 99.5t21 83.5t23.5 75t29.5 76q11 2 21.5 3
t19.5 1q70 0 70 -50q0 -12 -5 -22.5t-20 -24t-42.5 -31.5t-72.5 -44l-1 -6q18 -45 33 -78t31 -54.5t33.5 -32t40.5 -10.5z" />
    <glyph glyph-name="uni0414.loclBGR" horiz-adv-x="752" 
d="M725 -141h-78v141h-542v-141h-78v211h79l257 601h27l256 -601h79v-211zM189 70h374l-187 448z" />
    <glyph glyph-name="uni041B.loclBGR" horiz-adv-x="663" 
d="M633 0h-84l-218 518l-217 -518h-83l287 671h28z" />
    <glyph glyph-name="uni0410.ordn" horiz-adv-x="434" 
d="M410 244h-72l-28 71h-188l-26 -71h-73l183 423h22zM143 369h146l-73 176z" />
    <glyph glyph-name="uni0413.ordn" horiz-adv-x="340" 
d="M327 598h-193v-354h-67v416h260v-62z" />
    <glyph glyph-name="uni0415.ordn" horiz-adv-x="376" 
d="M337 599h-202v-106h159v-55h-159v-133h210v-61h-278v416h270v-61z" />
    <glyph glyph-name="uni0419.ordn" horiz-adv-x="488" 
d="M420 244h-68v286l-260 -293h-25v423h68v-285l260 292h25v-423zM341 810q0 -45 -29 -74t-74 -29t-74 29t-29 74h54q0 -25 13.5 -39t35.5 -14q21 0 34.5 14t13.5 39h55z" />
    <glyph glyph-name="uni041C.ordn" horiz-adv-x="527" 
d="M459 244h-67v257l-117 -157h-23l-118 157v-257h-67v423h25l171 -233l173 233h23v-423z" />
    <glyph glyph-name="uni041E.ordn" horiz-adv-x="507" 
d="M253 667q45 0 84.5 -16.5t69.5 -45.5t47 -68t17 -85t-17 -85t-47 -68t-69.5 -45.5t-84.5 -16.5t-85 16.5t-69 45.5t-46 68t-17 85t17 85t46 68t69 45.5t85 16.5zM254 604q-32 0 -59.5 -11t-47 -31.5t-30.5 -48.5t-11 -61t11 -61t30.5 -48.5t47 -31.5t59.5 -11
q31 0 58.5 11t47.5 31.5t31.5 48.5t11.5 61t-11.5 61t-31.5 48.5t-47.5 31.5t-58.5 11z" />
    <glyph glyph-name="uni0423.ordn" horiz-adv-x="404" 
d="M240 326q-19 -46 -52 -67.5t-78 -21.5q-14 0 -27 2t-25 4v60q21 -3 38 -3q23 0 44 9t35 32l-146 319h73l108 -250l98 250h72z" />
    <glyph glyph-name="uni0425.ordn" horiz-adv-x="359" 
d="M215 456l140 -212h-71l-104 159l-105 -159h-71l141 212l-132 204h71l96 -152l94 152h71z" />
    <glyph glyph-name="uni042B.ordn" horiz-adv-x="586" 
d="M307 507h99q66 0 105 -36.5t39 -95.5t-39 -95t-105 -36h-167v416h68v-153zM134 244h-67v416h67v-416zM307 447v-143h98q37 0 56.5 20t19.5 52q0 31 -19.5 51t-56.5 20h-98z" />
    <glyph glyph-name="uni042E.ordn" horiz-adv-x="699" 
d="M134 495h98q7 37 26 69t47 54.5t63.5 35.5t75.5 13q45 0 85 -16.5t70 -45.5t47.5 -68t17.5 -85t-17.5 -85t-47.5 -68t-70 -45.5t-85 -16.5q-43 0 -81 15t-67 41t-47 62.5t-21 78.5h-94v-190h-67v416h67v-165zM444 604q-32 0 -59 -11t-47 -31.5t-31.5 -48.5t-11.5 -61
t11.5 -61t31.5 -48.5t47 -31.5t59 -11t59.5 11t47.5 31.5t31.5 48.5t11.5 61t-11.5 61t-31.5 48.5t-47.5 31.5t-59.5 11z" />
    <glyph glyph-name="uni042F.ordn" horiz-adv-x="414" 
d="M346 244h-67v142h-76h-11l-94 -142h-77l104 159q-33 17 -52 48t-19 73q0 30 11 55t30.5 43t47 28t60.5 10h143v-416zM204 600q-39 0 -60 -22t-21 -54q0 -34 21 -56.5t60 -22.5h75v155h-75z" />
    <glyph glyph-name="uni0409.ss01" horiz-adv-x="992" 
d="M461 400h261q51 0 92 -15t69.5 -41.5t43.5 -63.5t15 -80q0 -44 -15 -80.5t-43.5 -63t-69.5 -41.5t-92 -15h-173l-218 518l-217 -518h-83l287 671h28zM491 330l111 -260h119q69 0 104.5 37t35.5 92q0 57 -35.5 94t-104.5 37h-230z" />
    <glyph glyph-name="uni0432.loclBGR" horiz-adv-x="581" 
d="M293 761q46 0 81.5 -15.5t59 -41t35.5 -59t12 -69.5q0 -54 -25 -96t-71 -65q63 -22 104.5 -73t41.5 -131q0 -51 -17.5 -92t-48.5 -70t-72 -44.5t-89 -15.5q-44 0 -83.5 13.5t-68.5 41.5t-46 70t-17 98v335q0 53 15.5 93t43 67t65 40.5t80.5 13.5zM166 372v-157
q0 -42 11 -71.5t29.5 -47.5t43 -26.5t52.5 -8.5q66 0 108 40.5t42 111.5q0 37 -13 67t-36 50t-55 31t-71 11h-111zM166 440h94q64 0 103 34.5t39 97.5q0 56 -32 87t-84 31q-25 0 -47 -8t-38 -25.5t-25.5 -44.5t-9.5 -65v-107z" />
    <glyph glyph-name="uni0433.loclBGR" horiz-adv-x="454" 
d="M222 498q33 0 63 -8.5t52.5 -25.5t36 -42t13.5 -58q0 -53 -33.5 -83.5t-87.5 -53.5l-48 -20q-36 -15 -60.5 -31.5t-24.5 -47.5q0 -34 27.5 -51t64.5 -17q46 0 79 21.5t62 53.5l50 -51q-30 -39 -78 -67t-113 -28q-33 0 -64 9t-55 26t-38 43t-14 61q0 53 34 87.5t96 60.5
l45 19q41 17 60 32.5t19 40.5q0 30 -23 44.5t-58 14.5t-63.5 -14t-51.5 -39l-52 47q29 35 69 56t93 21z" />
    <glyph glyph-name="uni0453.loclBGR" horiz-adv-x="454" 
d="M222 498q33 0 63 -8.5t52.5 -25.5t36 -42t13.5 -58q0 -53 -33.5 -83.5t-87.5 -53.5l-48 -20q-36 -15 -60.5 -31.5t-24.5 -47.5q0 -34 27.5 -51t64.5 -17q46 0 79 21.5t62 53.5l50 -51q-30 -39 -78 -67t-113 -28q-33 0 -64 9t-55 26t-38 43t-14 61q0 53 34 87.5t96 60.5
l45 19q41 17 60 32.5t19 40.5q0 30 -23 44.5t-58 14.5t-63.5 -14t-51.5 -39l-52 47q29 35 69 56t93 21zM376 766l-120 -200h-59l85 214h94v-14z" />
    <glyph glyph-name="uni0491.loclBGR" horiz-adv-x="454" 
d="M225 -11q-33 0 -64 9t-55 26t-38 43t-14 61q0 53 34 87.5t96 60.5l45 19q41 17 60 32.5t19 40.5q0 30 -23 44.5t-58 14.5t-63.5 -14t-51.5 -39l-52 47q23 29 55 48.5t73 25.5v117h77v-118q52 -9 87 -42t35 -88q0 -53 -33.5 -83.5t-87.5 -53.5l-48 -20
q-36 -15 -60.5 -31.5t-24.5 -47.5q0 -34 27.5 -51t64.5 -17q46 0 79 21.5t62 53.5l50 -51q-30 -39 -78 -67t-113 -28z" />
    <glyph glyph-name="uni0434.loclBGR" horiz-adv-x="638" 
d="M290 498q58 0 107.5 -24t78.5 -67v80h72v-440q0 -56 -17 -100.5t-48 -75t-74.5 -46.5t-96.5 -16q-39 0 -72.5 8t-62.5 21t-53 30t-42 35l45 54q36 -31 79.5 -54t103.5 -23q74 0 117.5 41t43.5 122v42q-30 -38 -78 -59t-103 -21q-51 0 -95 18.5t-76 51.5t-50 78t-18 98
t18 98t50 78t76 52t95 19zM303 425q-37 0 -68.5 -13t-55 -36t-36.5 -55t-13 -71t13 -71t36.5 -55t55 -35.5t68.5 -12.5q31 0 61.5 10t54.5 31.5t38.5 54.5t14.5 79t-14.5 79t-38.5 54t-54.5 31t-61.5 10z" />
    <glyph glyph-name="uni0436.loclBGR" horiz-adv-x="776" 
d="M427 0h-77l-1 750h77zM528 265l227 -265h-97l-222 264l201 223h99zM340 264l-223 -264h-97l227 265l-207 222h98z" />
    <glyph glyph-name="uni0437.loclBGR" horiz-adv-x="503" 
d="M229 498q43 0 78 -14.5t59 -38.5t37 -56.5t13 -68.5q0 -40 -18.5 -78t-58.5 -63q51 -23 79 -69t28 -100q0 -39 -13.5 -75.5t-39 -64t-63.5 -44.5t-87 -17q-61 0 -110.5 27t-87.5 75l51 49q29 -36 64 -58t79 -22q30 0 53.5 10.5t40 28.5t25.5 42t9 51q0 57 -38.5 92.5
t-105.5 35.5h-87v68h80q60 0 90.5 32t30.5 75q0 48 -30 80t-80 32q-39 0 -71 -20t-57 -49l-51 48q33 45 79.5 68.5t101.5 23.5z" />
    <glyph glyph-name="uni0438.loclBGR" horiz-adv-x="581" 
d="M492 194q0 -47 -15.5 -85t-42.5 -64.5t-64 -41t-79 -14.5t-79 14.5t-64.5 41t-43 64.5t-15.5 85v293h77v-298q0 -30 10 -54t27 -40.5t39.5 -25.5t48.5 -9t48.5 9t39.5 25.5t26.5 40.5t9.5 54v298h77v-293z" />
    <glyph glyph-name="uni0439.loclBGR" 
d="M482 194q0 -47 -15.5 -85t-42.5 -64.5t-64 -41t-79 -14.5t-79 14.5t-64.5 41t-43 64.5t-15.5 85v293h76v-298q0 -30 10 -54t27 -40.5t40 -25.5t49 -9t48.5 9t39.5 25.5t26.5 40.5t9.5 54v298h77v-293zM432 736q0 -32 -11.5 -60t-31.5 -48.5t-48 -32t-61 -11.5t-61 11.5
t-48 32t-31.5 48.5t-11.5 60h65q0 -42 25 -66.5t62 -24.5q38 0 63 24.5t25 66.5h64z" />
    <glyph glyph-name="uni045D.loclBGR" horiz-adv-x="581" 
d="M492 194q0 -47 -15.5 -85t-42.5 -64.5t-64 -41t-79 -14.5t-79 14.5t-64.5 41t-43 64.5t-15.5 85v293h77v-298q0 -30 10 -54t27 -40.5t39.5 -25.5t48.5 -9t48.5 9t39.5 25.5t26.5 40.5t9.5 54v298h77v-293zM320 566h-59l-120 200v14h94z" />
    <glyph glyph-name="uni043A.loclBGR" horiz-adv-x="519" 
d="M168 0h-77v750h77v-750zM269 273l230 -273h-99l-224 274l203 213h101z" />
    <glyph glyph-name="uni045C.loclBGR" horiz-adv-x="519" 
d="M443 766l-120 -200h-59l85 214h94v-14zM168 0h-77v750h77v-750zM269 273l230 -273h-99l-224 274l203 213h101z" />
    <glyph glyph-name="uni043B.loclBGR" horiz-adv-x="539" 
d="M512 0h-82l-161 366l-161 -366h-82l229 498h29z" />
    <glyph glyph-name="uni043F.loclBGR" horiz-adv-x="582" 
d="M313 498q43 0 76.5 -14t57 -39.5t35.5 -61t12 -77.5v-306h-77v297q0 58 -32 94t-89 36q-28 0 -51.5 -9.5t-40.5 -27t-26.5 -41.5t-9.5 -52v-297h-77v487h72v-54q26 30 64 47.5t86 17.5z" />
    <glyph glyph-name="uni0442.loclBGR" horiz-adv-x="891" 
d="M626 498q42 0 75 -14t55.5 -39.5t34 -61t11.5 -77.5v-306h-77v296q0 58 -30 94.5t-85 36.5q-27 0 -50 -10t-39.5 -26.5t-26 -39.5t-9.5 -48v-303h-77v296q0 58 -30.5 94.5t-85.5 36.5q-56 0 -90 -36.5t-34 -94.5v-296h-77v487h72v-52q25 29 62 46t83 17q55 0 92.5 -23
t57.5 -61q26 37 68.5 60.5t99.5 23.5z" />
    <glyph glyph-name="uni0447.loclBGR" horiz-adv-x="544" 
d="M454 0h-77v150q-23 -8 -52 -14t-61 -6q-46 0 -85.5 13.5t-68 40.5t-44.5 68t-16 96v139h76v-135q0 -80 40 -116t103 -36q26 0 54.5 5t53.5 15v267h77v-487z" />
    <glyph glyph-name="uni0446.loclBGR" horiz-adv-x="611" 
d="M492 127q0 -30 16 -46.5t40 -16.5h23v-205h-77v141q-50 13 -69 58q-26 -32 -65.5 -50.5t-89.5 -18.5q-87 0 -134 54t-47 144v300h77v-290q0 -63 32 -100t89 -37t92.5 36.5t35.5 92.5v298h77v-360z" />
    <glyph glyph-name="uni0448.loclBGR" horiz-adv-x="891" 
d="M800 0h-72v51q-26 -29 -62.5 -45.5t-82.5 -16.5q-55 0 -93 22.5t-58 61.5q-25 -37 -67 -60.5t-99 -23.5q-43 0 -76 14t-55.5 39.5t-34 61t-11.5 77.5v306h77v-297q0 -57 30 -93.5t85 -36.5q28 0 51 10t39.5 26.5t25.5 39t9 48.5v303h77v-297q0 -57 30.5 -93.5t85.5 -36.5
q56 0 90 36.5t34 93.5v297h77v-487z" />
    <glyph glyph-name="uni0449.loclBGR" horiz-adv-x="919" 
d="M800 127q0 -30 16 -46.5t40 -16.5h23v-205h-77v141q-24 6 -41.5 21t-27.5 36q-25 -32 -63.5 -50t-86.5 -18q-55 0 -93 22.5t-58 61.5q-25 -37 -67 -60.5t-99 -23.5q-43 0 -76 14t-55.5 39.5t-34 61t-11.5 77.5v306h77v-297q0 -57 30 -93.5t85 -36.5q28 0 51 10t39.5 26.5
t25.5 39t9 48.5v303h77v-297q0 -57 30.5 -93.5t85.5 -36.5q56 0 90 36.5t34 93.5v297h77v-360z" />
    <glyph glyph-name="uni044C.loclBGR" horiz-adv-x="538" 
d="M166 331h127q88 0 139 -44.5t51 -122.5q0 -41 -14 -73t-39 -55t-60.5 -35t-77.5 -12q-44 0 -81 13.5t-64 39t-42.5 62.5t-15.5 83v300h77v-156zM166 262v-77q0 -60 35 -93t89 -33q52 0 83.5 27t31.5 75q0 47 -30.5 74t-86.5 27h-122z" />
    <glyph glyph-name="uni044A.loclBGR" 
d="M187 330h128q88 0 139 -44t51 -122q0 -41 -14 -73t-39.5 -55t-60.5 -35t-77 -12q-44 0 -81.5 13.5t-64.5 39t-42.5 62.5t-15.5 83v231h-110v69h187v-157zM187 261v-76q0 -60 35 -93t91 -33q51 0 82 27t31 75q0 47 -30 73.5t-87 26.5h-122z" />
    <glyph glyph-name="uni044B.loclBGR" horiz-adv-x="777" 
d="M166 331h127q88 0 139 -44.5t51 -122.5q0 -41 -14 -73t-39 -55t-60.5 -35t-77.5 -12q-44 0 -81 13.5t-64 39t-42.5 62.5t-15.5 83v300h77v-156zM166 262v-77q0 -60 35 -93t89 -33q52 0 83.5 27t31.5 75q0 47 -30.5 74t-86.5 27h-122zM686 0h-77v487h77v-487z" />
    <glyph glyph-name="uni044E.loclBGR" horiz-adv-x="850" 
d="M168 293h125q9 44 31.5 81.5t55.5 65t75 43t89 15.5q52 0 98.5 -19.5t81.5 -54t55 -81t20 -100.5q0 -53 -20 -99t-55 -80.5t-81.5 -54.5t-98.5 -20q-51 0 -96 18t-79 50t-55.5 75t-24.5 93h-121v-225h-77v750h77v-457zM545 427q-38 0 -70.5 -14t-56 -39t-36.5 -58.5
t-13 -72.5t13 -72t36.5 -58t55.5 -39t70 -14q37 0 69.5 14t56 39t37 58t13.5 72t-13.5 72.5t-37 58.5t-55.5 39t-69 14z" />
    <glyph glyph-name="uni0431.loclSRB" horiz-adv-x="581" 
d="M470 682h-246q-34 0 -34 -25q0 -14 10.5 -25.5t30.5 -28.5l190 -173q25 -23 45.5 -46t34.5 -47.5t21.5 -51.5t7.5 -58q0 -52 -19 -95.5t-52 -75t-76.5 -49t-91.5 -17.5q-50 0 -94 18.5t-76.5 50t-51.5 74.5t-19 91t18.5 90t50 73.5t73 49.5t88.5 18l-107 98
q-33 30 -51 57t-18 56q0 37 27 60.5t75 23.5h264v-68zM292 383q-34 0 -64 -12t-52 -33.5t-34.5 -50.5t-12.5 -63q0 -35 12.5 -64.5t34.5 -51.5t52 -34.5t64 -12.5q33 0 62.5 12.5t51.5 34.5t35 51.5t13 64.5q0 34 -13 63t-35 50.5t-51.5 33.5t-62.5 12z" />
    <glyph glyph-name="uni0438.loclSRB" horiz-adv-x="585" 
d="M494 0h-77v318l-249 -249v-69h-77v487h77v-320l249 248v72h77v-487z" />
    <glyph glyph-name="uni0430.ordn" horiz-adv-x="364" 
d="M179 560q57 0 91.5 -32.5t34.5 -95.5v-188h-61v31q-17 -17 -40.5 -27.5t-55.5 -10.5q-50 0 -78.5 25t-28.5 66q0 42 31 65.5t82 23.5h85v19q0 32 -17.5 48.5t-49.5 16.5q-26 0 -46 -10.5t-39 -27.5l-34 43q26 26 57 40t69 14zM163 290q32 0 54 18.5t22 50.5v10h-76
q-26 0 -40 -11t-14 -28q0 -21 16.5 -30.5t37.5 -9.5z" />
    <glyph glyph-name="uni0433.ordn" horiz-adv-x="296" 
d="M285 496h-156v-252h-66v310h222v-58z" />
    <glyph glyph-name="uni0435.ordn" horiz-adv-x="384" 
d="M200 560q31 0 57 -10.5t45 -29.5t29.5 -45.5t10.5 -57.5q0 -11 -1 -22t-3 -18h-231q7 -39 33.5 -59t63.5 -20q47 0 88 39l37 -46q-23 -24 -54 -39t-70 -15q-35 0 -65.5 12.5t-52.5 34t-34.5 51t-12.5 64.5q0 34 12.5 63.5t34 51t50.5 34t63 12.5zM197 502
q-32 0 -56.5 -19t-32.5 -54h169q-2 36 -26 54.5t-54 18.5z" />
    <glyph glyph-name="uni0439.ordn" horiz-adv-x="401" 
d="M337 244h-67v185l-185 -192h-22v316h66v-185l186 191h22v-315zM300 708q0 -44 -28 -72.5t-72 -28.5t-72.5 28.5t-28.5 72.5h50q0 -26 14.5 -40t36.5 -14q21 0 35.5 14t14.5 40h50z" />
    <glyph glyph-name="uni043C.ordn" horiz-adv-x="466" 
d="M402 244h-66v176l-92 -106h-23l-92 106v-176h-66v316h24l145 -170l146 170h24v-316z" />
    <glyph glyph-name="uni043E.ordn" horiz-adv-x="409" 
d="M204 559q34 0 63.5 -12.5t52 -34t35.5 -51t13 -63.5t-13 -63.5t-35.5 -51t-52 -34t-63.5 -12.5t-64 12.5t-52 34t-34.5 51t-12.5 63.5t12.5 63.5t34.5 51t52 34t64 12.5zM204 502q-43 0 -71 -29.5t-28 -74.5t28 -74t71 -29q44 0 72 29t28 74t-28 74.5t-72 29.5z" />
    <glyph glyph-name="uni0443.ordn" horiz-adv-x="354" 
d="M188 208q-20 -44 -46.5 -64t-66.5 -20q-11 0 -24.5 1.5t-25.5 4.5v58q22 -3 36 -3q20 0 37 8.5t29 36.5l11 28l-119 296h71l85 -224l89 224h70z" />
    <glyph glyph-name="uni0445.ordn" horiz-adv-x="336" 
d="M204 404l115 -160h-73l-79 114l-79 -114h-72l114 160l-106 149h72l70 -101l72 101h72z" />
    <glyph glyph-name="uni044B.ordn" horiz-adv-x="519" 
d="M129 462h75q55 0 89 -29.5t34 -79.5q0 -51 -34 -80t-89 -29h-141v309h66v-91zM130 404v-102h67q65 0 65 51q0 24 -16.5 37.5t-48.5 13.5h-67zM455 244h-66v309h66v-309z" />
    <glyph glyph-name="uni044E.ordn" horiz-adv-x="559" 
d="M129 435h65q6 27 20.5 50t35.5 39.5t47.5 26t55.5 9.5q34 0 63.5 -12.5t52 -34t35.5 -51t13 -63.5q0 -35 -13 -64.5t-35.5 -51t-52 -34t-63.5 -12.5q-31 0 -59 10.5t-49.5 29.5t-35.5 45t-18 56h-62v-134h-66v310h66v-119zM352 499q-42 0 -70 -28.5t-28 -71.5t28 -72
t70 -29q20 0 38.5 7t32.5 20t22 31.5t8 41.5t-8 41.5t-22 32t-32.5 20.5t-38.5 7z" />
    <glyph glyph-name="uni044F.ordn" horiz-adv-x="380" 
d="M317 244h-66v89h-74h-2l-76 -89h-75l85 104q-26 14 -41 38t-15 56q0 53 35 82.5t89 29.5h140v-310zM184 497q-67 0 -67 -55q0 -25 17.5 -39t49.5 -14h67v108h-67z" />
    <glyph glyph-name="uni0433.loclBGR.ordn" horiz-adv-x="318" 
d="M157 560q46 0 76.5 -24t30.5 -65q0 -33 -22 -54t-57 -37l-31 -14q-17 -8 -27.5 -16t-10.5 -23q0 -17 12.5 -25t32.5 -8q44 0 84 44l38 -38q-22 -29 -53 -46t-70 -17q-45 0 -78 24t-33 70q0 37 23.5 56t58.5 36l31 15q17 8 26.5 14.5t9.5 20.5t-11 22t-30 8q-39 0 -73 -34
l-35 42q20 23 47.5 36t60.5 13z" />
    <glyph glyph-name="uni0439.loclBGR.ordn" horiz-adv-x="398" 
d="M335 371q0 -31 -10.5 -55.5t-29 -42t-43.5 -27t-53 -9.5t-52.5 9.5t-43 27t-29 42t-10.5 55.5v182h66v-182q0 -34 20 -53.5t49 -19.5q30 0 49.5 19.5t19.5 53.5v182h67v-182zM299 708q0 -44 -28 -72.5t-72 -28.5t-72.5 28.5t-28.5 72.5h50q0 -26 14.5 -40t36.5 -14t36 14
t14 40h50z" />
    <glyph glyph-name="uni044E.loclBGR.ordn" horiz-adv-x="559" 
d="M129 435h66q6 27 20.5 50t35.5 39.5t47 26t55 9.5q34 0 64 -12.5t52.5 -34t35.5 -51t13 -63.5q0 -35 -13 -64.5t-35.5 -51t-52.5 -34t-64 -12.5q-31 0 -58.5 10.5t-49 29.5t-35 45t-17.5 56h-64v-134h-66v473h66v-282zM352 499q-41 0 -69 -28.5t-28 -71.5t27.5 -72
t68.5 -29q21 0 39 8t31.5 21.5t21.5 32t8 39.5t-8 39.5t-21.5 32t-31.5 21t-38 7.5z" />
    <glyph glyph-name="uni0430.ss01.ordn" horiz-adv-x="423" 
d="M192 560q35 0 63.5 -13t46.5 -36v43h57v-309h-57v42q-18 -23 -46.5 -36t-62.5 -13t-62 12.5t-48.5 34t-31.5 51t-11 63.5t11 63.5t31.5 51.5t48.5 34t61 12zM202 499q-42 0 -69 -26.5t-27 -72.5q0 -47 27 -74t70 -27q18 0 35 5.5t30.5 17.5t21.5 31t8 46t-8 46t-21.5 31
t-31 17.5t-35.5 5.5z" />
    <glyph glyph-name="uni0443.ss01.ordn" horiz-adv-x="397" 
d="M333 266q0 -69 -40 -105.5t-102 -36.5q-42 0 -73.5 16t-54.5 42l35 46q20 -20 42 -31.5t50 -11.5q32 0 54 19t22 61v24q-33 -33 -85 -33q-54 0 -83.5 34.5t-29.5 88.5v175h66v-166q0 -30 17.5 -51t47.5 -21t48.5 20.5t18.5 50.5v167h67v-288z" />
    <glyph glyph-name="uni0430.ss01" horiz-adv-x="638" 
d="M291 498q58 0 106.5 -24t77.5 -66v79h72v-487h-77v71q-30 -39 -77.5 -60.5t-101.5 -21.5q-52 0 -96 19.5t-76.5 54t-50.5 81t-18 100.5t18 100t50 80.5t76 54t97 19.5zM302 427q-38 0 -69.5 -14t-54.5 -38.5t-36 -58.5t-13 -73q0 -40 13 -73.5t36.5 -58t55 -38
t68.5 -13.5q31 0 61.5 10.5t54.5 33t38.5 57.5t14.5 83t-14.5 82.5t-38.5 57t-54.5 33t-61.5 10.5z" />
    <glyph glyph-name="uni0434.ss01" horiz-adv-x="598" 
d="M571 -141h-76v141h-391v-141h-77v209h62l197 430h28l196 -430h61v-209zM171 68h258l-129 292z" />
    <glyph glyph-name="uni0443.ss01" horiz-adv-x="579" 
d="M495 23q0 -52 -16.5 -92t-45 -67t-67 -41t-83.5 -14q-64 0 -114.5 26t-88.5 69l47 53q35 -35 70 -55.5t83 -20.5q29 0 54 8t44 25t29.5 43t10.5 62v51q-26 -29 -63 -45t-84 -16q-44 0 -77 14.5t-56 40.5t-34.5 61t-11.5 77v285h76v-275q0 -58 31.5 -95t89.5 -37
q57 0 93 36t36 93v278h77v-464z" />
    <glyph glyph-name="uni045E.ss01" horiz-adv-x="579" 
d="M495 23q0 -52 -16.5 -92t-45 -67t-67 -41t-83.5 -14q-64 0 -114.5 26t-88.5 69l47 53q35 -35 70 -55.5t83 -20.5q29 0 54 8t44 25t29.5 43t10.5 62v51q-26 -29 -63 -45t-84 -16q-44 0 -77 14.5t-56 40.5t-34.5 61t-11.5 77v285h76v-275q0 -58 31.5 -95t89.5 -37
q57 0 93 36t36 93v278h77v-464zM444 736q0 -32 -11.5 -60t-31.5 -48.5t-48 -32t-61 -11.5t-61 11.5t-48 32t-31.5 48.5t-11.5 60h65q0 -42 25 -66.5t62 -24.5q38 0 63 24.5t25 66.5h64z" />
    <glyph glyph-name="uni0444.ss01" horiz-adv-x="1018" 
d="M547 415q29 39 76 61t103 22q52 0 96.5 -19.5t76.5 -54t50 -80.5t18 -100t-18 -100.5t-50.5 -81t-76.5 -54t-96 -19.5q-54 0 -102 21.5t-77 60.5v-251h-77v251q-30 -39 -77.5 -60.5t-101.5 -21.5q-52 0 -96 19.5t-76.5 54t-50.5 81t-18 100.5t18 100t50 80.5t76 54
t97 19.5q55 0 102.5 -22t76.5 -61v335h77v-335zM717 427q-32 0 -62.5 -10.5t-54.5 -33t-38.5 -57t-14.5 -82.5t14.5 -83t38.5 -57.5t54.5 -33t62.5 -10.5q37 0 68.5 13.5t54.5 38t36 58t13 73.5t-13 73.5t-35.5 58t-54.5 38.5t-69 14zM302 427q-38 0 -69.5 -14t-54.5 -38.5
t-36 -58t-13 -73.5t13 -73.5t36.5 -58t55 -38t68.5 -13.5q31 0 61.5 10.5t54.5 33t38.5 57.5t14.5 83t-14.5 82.5t-38.5 57t-54.5 33t-61.5 10.5z" />
    <glyph glyph-name="uni0459.ss01" horiz-adv-x="799" 
d="M359 330h197q86 0 136.5 -45t50.5 -120t-50.5 -120t-136.5 -45h-131l-156 366l-161 -366h-82l229 498h29zM390 261l86 -193h75q54 0 82.5 26.5t28.5 69.5t-28.5 70t-82.5 27h-161z" />
    <glyph glyph-name="uni04EF.ss01" horiz-adv-x="579" 
d="M495 23q0 -52 -16.5 -92t-45 -67t-67 -41t-83.5 -14q-64 0 -114.5 26t-88.5 69l47 53q35 -35 70 -55.5t83 -20.5q29 0 54 8t44 25t29.5 43t10.5 62v51q-26 -29 -63 -45t-84 -16q-44 0 -77 14.5t-56 40.5t-34.5 61t-11.5 77v285h76v-275q0 -58 31.5 -95t89.5 -37
q57 0 93 36t36 93v278h77v-464zM429 642h-275v62h275v-62z" />
    <glyph glyph-name="uni04F3.ss01" horiz-adv-x="579" 
d="M495 23q0 -52 -16.5 -92t-45 -67t-67 -41t-83.5 -14q-64 0 -114.5 26t-88.5 69l47 53q35 -35 70 -55.5t83 -20.5q29 0 54 8t44 25t29.5 43t10.5 62v51q-26 -29 -63 -45t-84 -16q-44 0 -77 14.5t-56 40.5t-34.5 61t-11.5 77v285h76v-275q0 -58 31.5 -95t89.5 -37
q57 0 93 36t36 93v278h77v-464zM509 766l-112 -200h-56l85 214h83v-14zM347 766l-113 -200h-55l85 214h83v-14z" />
    <glyph glyph-name="zero.lf" horiz-adv-x="615" 
d="M307 671q63 0 108.5 -25.5t75.5 -70t44 -106t14 -133.5q0 -71 -14 -134t-43 -110t-75 -75t-110 -28t-109.5 28t-75 75t-43 110t-13.5 134q0 72 14.5 133.5t44 106t75 70t107.5 25.5zM307 599q-44 0 -74.5 -19.5t-49.5 -54t-27.5 -83.5t-8.5 -107q0 -59 8.5 -109t28 -87
t49.5 -57.5t74 -20.5t74.5 20.5t50 57.5t28 87t8.5 109q0 58 -8.5 107t-28 83.5t-50 54t-74.5 19.5z" />
    <glyph glyph-name="one.lf" horiz-adv-x="379" 
d="M270 0h-78v568l-143 -45l-19 67l212 70h28v-660z" />
    <glyph glyph-name="two.lf" 
d="M270 671q46 0 84.5 -15.5t66 -42.5t43 -63.5t15.5 -78.5q0 -36 -11 -67.5t-29.5 -61.5t-44 -59t-53.5 -59l-146 -154h311v-70h-459v20l235 250q54 56 85 100.5t31 96.5q0 26 -8.5 50t-25 42t-40 29t-53.5 11q-31 0 -55.5 -11.5t-41.5 -30t-26 -43t-9 -51.5q0 -11 1.5 -26
t4.5 -29h-80q-4 14 -5.5 29.5t-1.5 28.5q0 38 14.5 75t41.5 66t66.5 46.5t89.5 17.5z" />
    <glyph glyph-name="three.lf" horiz-adv-x="538" 
d="M467 637l-176 -225q36 -3 70.5 -17.5t61.5 -39.5t44 -61.5t17 -84.5q0 -51 -19.5 -92t-51.5 -69.5t-75 -43.5t-89 -15q-41 0 -75 11.5t-62 30t-49.5 43.5t-36.5 52l55 39q13 -20 29.5 -39t37 -33.5t45.5 -23t56 -8.5q33 0 61.5 10.5t49 30t32 46.5t11.5 60q0 64 -43 100
t-124 36h-66v23l173 221h-272v72h396v-23z" />
    <glyph glyph-name="four.lf" horiz-adv-x="548" 
d="M430 191h96v-68h-96v-123h-78v123h-331v22l216 515h80l-197 -469h232v220h78v-220z" />
    <glyph glyph-name="five.lf" horiz-adv-x="555" 
d="M444 590h-262v-185q22 3 44.5 5.5t49.5 2.5q43 0 84 -12.5t72.5 -37.5t50.5 -63.5t19 -90.5q0 -51 -19.5 -92t-52 -69.5t-75 -43.5t-88.5 -15q-42 0 -77 11t-63.5 30t-50.5 43.5t-37 51.5l55 40q13 -21 30 -39.5t38 -33t47 -23t58 -8.5q33 0 61 10.5t48.5 29.5t32.5 46.5
t12 60.5q0 66 -43.5 101.5t-124.5 35.5h-149v315h340v-70z" />
    <glyph glyph-name="six.lf" horiz-adv-x="551" 
d="M229 418q24 9 56 9q43 0 82.5 -16.5t68.5 -45.5t46.5 -68.5t17.5 -85.5q0 -47 -17.5 -87.5t-48.5 -70.5t-72 -47t-88 -17q-46 0 -87 17t-71.5 46.5t-48 70.5t-17.5 89q0 31 7 57.5t19.5 51t29 49.5t35.5 52l164 238h93zM274 361q-31 0 -58 -11.5t-46.5 -32t-31 -48
t-11.5 -58.5q0 -32 11.5 -60t31 -48t46.5 -31.5t58 -11.5t58.5 11.5t47.5 31.5t31.5 48t11.5 60q0 31 -11.5 58.5t-31.5 48t-47.5 32t-58.5 11.5z" />
    <glyph glyph-name="seven.lf" horiz-adv-x="501" 
d="M476 637l-334 -637h-85l313 590h-335v70h441v-23z" />
    <glyph glyph-name="eight.lf" horiz-adv-x="578" 
d="M288 671q41 0 77.5 -10.5t64 -31.5t43.5 -51.5t16 -70.5q0 -57 -32.5 -96.5t-92.5 -65.5q30 -11 58 -26.5t50 -36.5t35 -49.5t13 -64.5q0 -40 -16.5 -73t-47 -56.5t-73.5 -36.5t-95 -13t-95 13t-73.5 37t-47 57t-16.5 73q0 35 12.5 62.5t33.5 49t49.5 37.5t60.5 27
q-57 26 -91 64.5t-34 97.5q0 40 16 70.5t43.5 51.5t64 31.5t77.5 10.5zM441 171q0 28 -12 49t-33 36.5t-49 28t-59 23.5q-32 -11 -60 -23.5t-48.5 -28t-32.5 -36.5t-12 -49q0 -51 39.5 -83t113.5 -32q75 0 114 32t39 83zM288 604q-53 0 -88.5 -26t-35.5 -74
q0 -46 33.5 -72.5t89.5 -49.5q28 11 51 23t39.5 26t25.5 32t9 41q0 48 -35.5 74t-88.5 26z" />
    <glyph glyph-name="nine.lf" horiz-adv-x="551" 
d="M275 671q46 0 87 -17t72 -46.5t48.5 -70.5t17.5 -89q0 -31 -7 -57.5t-19.5 -51t-29 -49.5t-35.5 -52l-164 -238h-93l169 242q-26 -9 -56 -9q-44 0 -83 16.5t-68 45.5t-46.5 68.5t-17.5 85.5q0 47 17.5 87.5t48.5 70.5t71.5 47t87.5 17zM275 600q-31 0 -58 -11.5
t-47 -31.5t-31.5 -47.5t-11.5 -59.5t11.5 -59.5t31.5 -48t47 -32t58 -11.5t58.5 11.5t47 32t31 48t11.5 59.5t-11.5 59.5t-31 47.5t-47 31.5t-58.5 11.5z" />
    <glyph glyph-name="zero.slash.lf" horiz-adv-x="615" 
d="M307 671q63 0 108.5 -25.5t75.5 -70t44 -106t14 -133.5q0 -71 -14 -134t-43 -110t-75 -75t-110 -28t-109.5 28t-75 75t-43 110t-13.5 134q0 72 14.5 133.5t44 106t75 70t107.5 25.5zM307 599q-44 0 -74.5 -19.5t-49.5 -54t-27.5 -83.5t-8.5 -107q0 -63 9 -114l285 284
q-19 45 -51.5 69.5t-82.5 24.5zM468 335q0 28 -2 53.5t-6 48.5l-283 -283q19 -44 50.5 -68.5t79.5 -24.5q44 0 74.5 20.5t50 57.5t28 87t8.5 109z" />
    <glyph glyph-name="zero.slash" horiz-adv-x="663" 
d="M331 544q58 0 109.5 -21.5t90 -59t60.5 -88.5t22 -109t-22 -109t-60.5 -88.5t-90 -59t-110.5 -21.5t-110 21.5t-88.5 59t-59.5 88.5t-22 109t22 109t60 88.5t89 59t110 21.5zM533 266q0 35 -10 65t-27 56l-287 -288q25 -19 56 -29.5t66 -10.5q43 0 80 16t64 44t42.5 65.5
t15.5 81.5zM331 473q-44 0 -81 -16t-63.5 -43.5t-41.5 -65.5t-15 -82q0 -68 36 -121l287 288q-26 19 -56.5 29.5t-65.5 10.5z" />
    <glyph glyph-name="zero.tf" 
d="M280 671q59 0 102.5 -25t72 -69.5t42 -106t13.5 -134.5q0 -72 -13 -135t-41 -110.5t-71.5 -74.5t-104.5 -27t-105 27t-72 74.5t-41 110.5t-13 135q0 73 13.5 134.5t42 106t72 69.5t103.5 25zM280 599q-41 0 -69.5 -19t-46.5 -53.5t-26 -83.5t-8 -108q0 -60 8 -110
t26 -86.5t46.5 -57t69.5 -20.5q40 0 68.5 20.5t46.5 57t26 86.5t8 110q0 59 -8 108t-25.5 83.5t-46 53.5t-69.5 19z" />
    <glyph glyph-name="one.tf" 
d="M518 0h-448v70h196v501l-180 -48l-19 67l249 70h28v-590h174v-70z" />
    <glyph glyph-name="two.tf" 
d="M279 671q46 0 84.5 -15.5t66 -42.5t43 -63.5t15.5 -78.5q0 -36 -11 -67.5t-29.5 -61.5t-44 -59t-53.5 -59l-146 -154h311v-70h-459v20l235 250q54 56 85 100.5t31 96.5q0 26 -8.5 50t-25 42t-40 29t-53.5 11q-31 0 -55.5 -11.5t-41.5 -30t-26 -43t-9 -51.5q0 -11 1.5 -26
t4.5 -29h-80q-4 14 -5.5 29.5t-1.5 28.5q0 38 14.5 75t41.5 66t66.5 46.5t89.5 17.5z" />
    <glyph glyph-name="three.tf" 
d="M471 637l-177 -225q34 -3 68.5 -17t62.5 -39.5t45 -62t17 -85.5q0 -51 -19 -91.5t-51 -69t-74.5 -43.5t-89.5 -15q-41 0 -75 11.5t-62 30t-50 43.5t-37 52l56 39q13 -20 29.5 -39t36.5 -33.5t45.5 -23t56.5 -8.5q33 0 61.5 10.5t49 30t32 46.5t11.5 60q0 64 -43.5 100.5
t-124.5 36.5h-65v22l174 223h-274v70h397v-23z" />
    <glyph glyph-name="four.tf" 
d="M432 191h88v-68h-88v-123h-78v123h-329v22l203 515h81l-185 -469h230v220h78v-220z" />
    <glyph glyph-name="five.tf" 
d="M448 590h-264v-185q22 4 45 6t51 2q43 0 84 -12.5t72 -37.5t50 -63.5t19 -90.5q0 -51 -19.5 -92t-51.5 -69.5t-74.5 -43.5t-88.5 -15q-42 0 -77 11t-63.5 30t-50.5 43.5t-37 51.5l55 40q13 -21 29.5 -39.5t37.5 -33t47.5 -23t58.5 -8.5q33 0 61 10.5t48.5 29.5t32.5 46.5
t12 60.5q0 66 -44 101t-125 35h-149v316h341v-70z" />
    <glyph glyph-name="six.tf" 
d="M235 418q24 9 56 9q43 0 82.5 -16.5t68.5 -45.5t46.5 -68.5t17.5 -85.5q0 -47 -18 -87.5t-48.5 -70.5t-72 -47t-87.5 -17t-87 17t-71.5 46.5t-48.5 70.5t-18 89q0 31 7 57.5t19.5 51t29.5 49.5t36 52l164 238h92zM280 361q-31 0 -58 -11.5t-46.5 -32t-31 -48t-11.5 -58.5
q0 -32 11.5 -60t31 -48t46.5 -31.5t58 -11.5t58.5 11.5t47 31.5t31 48t11.5 60q0 31 -11.5 58.5t-31 48t-47 32t-58.5 11.5z" />
    <glyph glyph-name="seven.tf" 
d="M508 637l-335 -637h-84l313 590h-335v70h441v-23z" />
    <glyph glyph-name="eight.tf" 
d="M280 671q42 0 78.5 -10.5t63.5 -31.5t43 -51.5t16 -70.5q0 -108 -125 -162q30 -11 58 -26.5t50 -36.5t35 -49.5t13 -64.5q0 -40 -16.5 -73t-47 -56.5t-73.5 -36.5t-95 -13t-94.5 13t-73 37t-47 57t-16.5 73q0 34 12 61t32.5 49t49 38t61.5 28q-57 26 -90.5 64.5
t-33.5 97.5q0 40 15.5 70.5t42.5 51.5t63.5 31.5t78.5 10.5zM432 171q0 28 -11.5 48.5t-32 36t-48.5 28t-61 24.5q-32 -11 -59.5 -23.5t-48 -28t-32.5 -36.5t-12 -49q0 -51 38.5 -83t114.5 -32q75 0 113.5 32t38.5 83zM280 604q-52 0 -87.5 -26t-35.5 -74q0 -45 33 -72
t90 -50q27 11 49.5 23t39 26t26 32t9.5 41q0 48 -35 74t-89 26z" />
    <glyph glyph-name="nine.tf" 
d="M280 671q46 0 87.5 -17t72 -46.5t48.5 -70.5t18 -89q0 -31 -7 -57.5t-19.5 -51t-29.5 -49.5t-36 -52l-164 -238h-92l168 242q-26 -9 -56 -9q-44 0 -83 16.5t-68 45.5t-46.5 68.5t-17.5 85.5q0 47 18 87.5t48.5 70.5t71.5 47t87 17zM280 600q-31 0 -58 -11.5t-46.5 -31.5
t-31 -47.5t-11.5 -59.5t11.5 -59.5t31 -48t46.5 -32t58 -11.5t58.5 11.5t47 32t31 48t11.5 59.5t-11.5 59.5t-31 47.5t-47 31.5t-58.5 11.5z" />
    <glyph glyph-name="zero.slash.tf" 
d="M280 671q59 0 102.5 -25t72 -69.5t42 -106t13.5 -134.5q0 -72 -13 -135t-41 -110.5t-71.5 -74.5t-104.5 -27t-105 27t-72 74.5t-41 110.5t-13 135q0 73 13.5 134.5t42 106t72 69.5t103.5 25zM280 603q-42 0 -71 -19.5t-47.5 -54.5t-27 -84.5t-8.5 -109.5q0 -29 1.5 -56.5
t6.5 -52.5l277 277q-18 48 -50 74t-81 26zM435 335q0 26 -1.5 50.5t-5.5 46.5l-276 -276q18 -46 49 -72.5t79 -26.5q42 0 71 21t48 58t27.5 88t8.5 111z" />
    <glyph glyph-name="zero.tosf" 
d="M280 544q54 0 100 -21t79.5 -58.5t52.5 -88t19 -110.5q0 -59 -19 -110t-52.5 -88.5t-80 -58.5t-100.5 -21t-100 21t-79 58.5t-52 88.5t-19 110q0 60 19 110.5t52.5 88t79.5 58.5t100 21zM280 473q-39 0 -71 -15.5t-54 -43t-34 -65.5t-12 -83t12 -83t34 -65.5t53.5 -43
t70.5 -15.5t71 15.5t54.5 43.5t34.5 65.5t12 82.5t-12 83t-34.5 65.5t-54 43t-70.5 15.5z" />
    <glyph glyph-name="one.tosf" 
d="M336 68h178v-68h-451v68h195v394h-178v71h256v-465z" />
    <glyph glyph-name="two.tosf" 
d="M270 544q43 0 79.5 -13.5t63 -38t41 -58t14.5 -72.5q0 -38 -13 -69.5t-36.5 -59.5t-54.5 -54t-67 -53l-79 -58h277v-68h-455v20l196 145q31 23 59 45.5t49 45.5t33 49t12 56q0 48 -31.5 80t-88.5 32q-30 0 -53.5 -10t-39 -26.5t-23.5 -38t-8 -44.5t5 -51h-76q-8 29 -8 57
q0 35 14 68t40.5 59t64.5 41.5t85 15.5z" />
    <glyph glyph-name="three.tosf" 
d="M471 510l-174 -221q34 -3 68 -17.5t61 -40t44 -61.5t17 -84q0 -51 -19.5 -91.5t-51.5 -69t-74.5 -43.5t-88.5 -15q-41 0 -75 11t-62 30t-50 43.5t-37 51.5l56 40q13 -21 29.5 -40t36.5 -33.5t45.5 -23t56.5 -8.5q33 0 61.5 10.5t49.5 30t32.5 47t11.5 60.5
q0 64 -44 100.5t-125 36.5h-60v23l168 216h-273v71h397v-23z" />
    <glyph glyph-name="four.tosf" 
d="M425 68h89v-68h-89v-121h-77v121h-329v23l200 510h81l-182 -465h230v222h77v-222z" />
    <glyph glyph-name="five.tosf" 
d="M449 462h-264v-179q22 4 45 6t50 2q43 0 84 -12.5t72 -37.5t50 -63.5t19 -90.5q0 -51 -19 -92t-51.5 -69.5t-74.5 -43.5t-88 -15q-42 0 -77.5 11t-64 30t-50 43.5t-36.5 51.5l54 40q13 -21 30 -40t38 -33.5t47 -23t59 -8.5t61 11t48.5 30.5t32.5 47t12 60.5q0 65 -44 101
t-125 36h-149v309h341v-71z" />
    <glyph glyph-name="six.tosf" 
d="M235 418q24 9 56 9q43 0 82.5 -16.5t68.5 -45.5t46.5 -68.5t17.5 -85.5q0 -47 -18 -87.5t-48.5 -70.5t-72 -47t-87.5 -17t-87 17t-71.5 46.5t-48.5 70.5t-18 89q0 31 7 57.5t19.5 51t29.5 49.5t36 52l164 238h92zM280 361q-31 0 -58 -11.5t-46.5 -32t-31 -48t-11.5 -58.5
q0 -32 11.5 -60t31 -48t46.5 -31.5t58 -11.5t58.5 11.5t47 31.5t31 48t11.5 60q0 31 -11.5 58.5t-31 48t-47 32t-58.5 11.5z" />
    <glyph glyph-name="seven.tosf" 
d="M508 510l-332 -631h-84l310 583h-335v71h441v-23z" />
    <glyph glyph-name="eight.tosf" 
d="M280 671q42 0 78.5 -10.5t63.5 -31.5t43 -51.5t16 -70.5q0 -108 -125 -162q30 -11 58 -26.5t50 -36.5t35 -49.5t13 -64.5q0 -40 -16.5 -73t-47 -56.5t-73.5 -36.5t-95 -13t-94.5 13t-73 37t-47 57t-16.5 73q0 34 12 61t32.5 49t49 38t61.5 28q-57 26 -90.5 64.5
t-33.5 97.5q0 40 15.5 70.5t42.5 51.5t63.5 31.5t78.5 10.5zM432 171q0 28 -11.5 48.5t-32 36t-48.5 28t-61 24.5q-32 -11 -59.5 -23.5t-48 -28t-32.5 -36.5t-12 -49q0 -51 38.5 -83t114.5 -32q75 0 113.5 32t38.5 83zM280 604q-52 0 -87.5 -26t-35.5 -74q0 -45 33 -72
t90 -50q27 11 49.5 23t39 26t26 32t9.5 41q0 48 -35 74t-89 26z" />
    <glyph glyph-name="nine.tosf" 
d="M280 544q46 0 87.5 -17t72 -46.5t48.5 -70t18 -88.5q0 -30 -6.5 -55.5t-18.5 -50t-29 -49.5t-38 -55l-160 -233h-93l165 237q-26 -9 -56 -9q-44 0 -83 16.5t-68 45.5t-46.5 68t-17.5 85q0 48 18 88.5t48.5 70t71.5 46.5t87 17zM280 474q-31 0 -58 -11.5t-46.5 -32
t-31 -48t-11.5 -59.5t11.5 -59.5t31 -48t46.5 -32t58 -11.5t58.5 11.5t47 32t31 48t11.5 59.5t-11.5 59.5t-31 48t-47 32t-58.5 11.5z" />
    <glyph glyph-name="zero.slash.tosf" 
d="M280 544q54 0 100 -21t79.5 -58.5t52.5 -88t19 -110.5q0 -59 -19 -110t-52.5 -88.5t-80 -58.5t-100.5 -21t-100 21t-79 58.5t-52 88.5t-19 110q0 60 19 110.5t52.5 88t79.5 58.5t100 21zM455 266q0 62 -23 110l-272 -273q23 -23 53 -36t67 -13q40 0 72.5 16t55.5 44.5
t35 67.5t12 84zM280 477q-41 0 -73.5 -16t-55 -44t-35 -66.5t-12.5 -84.5q0 -61 22 -111l272 272q-22 23 -52 36.5t-66 13.5z" />
    <glyph glyph-name="zero.dnom" horiz-adv-x="410" 
d="M205 424q40 0 69.5 -16t48.5 -44.5t28 -67t9 -83.5t-9 -85t-28 -69.5t-48.5 -47t-69.5 -17.5t-69.5 17.5t-48.5 47t-28.5 69.5t-9.5 85t9.5 83.5t28.5 67t48.5 44.5t69.5 16zM205 363q-48 0 -68 -40.5t-20 -110.5q0 -35 5 -64t15.5 -50t27.5 -32.5t40 -11.5
q48 0 68.5 44.5t20.5 113.5q0 70 -20.5 110.5t-68.5 40.5z" />
    <glyph glyph-name="one.dnom" horiz-adv-x="353" 
d="M219 61h90v-60h-262v60h105v296h-100v60h167v-356z" />
    <glyph glyph-name="two.dnom" horiz-adv-x="369" 
d="M178 424q30 0 55 -10t43 -27t28 -40.5t10 -51.5q0 -23 -7 -43.5t-19 -40t-28.5 -38t-34.5 -37.5l-71 -75h174v-60h-293v15l148 159q29 32 46.5 59t17.5 56q0 30 -18.5 51.5t-50.5 21.5q-33 0 -52 -21.5t-19 -54.5q0 -7 0.5 -15t1.5 -17h-65q-2 9 -3 18.5t-1 17.5
q0 25 9.5 49t27.5 42.5t43.5 30t57.5 11.5z" />
    <glyph glyph-name="three.dnom" horiz-adv-x="354" 
d="M304 398l-100 -135q19 -4 38.5 -13.5t35.5 -25t25.5 -38t9.5 -51.5q0 -32 -12 -58t-32.5 -44.5t-47.5 -28.5t-57 -10q-53 0 -89 26t-56 64l46 33q17 -27 39.5 -44.5t57.5 -17.5q36 0 60 21.5t24 58.5q0 35 -24.5 54t-70.5 19h-42v18l97 131h-158v60h256v-19z" />
    <glyph glyph-name="four.dnom" horiz-adv-x="356" 
d="M284 129h56v-55h-56v-73h-61v73h-207v18l129 325h68l-117 -288h127v130h61v-130z" />
    <glyph glyph-name="five.dnom" horiz-adv-x="366" 
d="M295 357h-163v-98q25 6 50 6q28 0 54.5 -8t46 -24t31.5 -40t12 -56q0 -33 -12 -59.5t-33 -45t-48.5 -28.5t-58.5 -10q-53 0 -89.5 26t-56.5 64l46 33q17 -27 40.5 -44.5t58.5 -17.5q37 0 61.5 21.5t24.5 57.5t-24.5 55t-71.5 19h-94v209h226v-60z" />
    <glyph glyph-name="six.dnom" horiz-adv-x="373" 
d="M178 274q5 1 9.5 1.5t9.5 0.5q26 0 50.5 -10.5t43 -29t30 -44t11.5 -55.5q0 -31 -11.5 -57t-31.5 -45t-46.5 -30t-56.5 -11t-56 10.5t-46 30t-31.5 46t-11.5 58.5q0 38 15.5 67t40.5 64l103 147h77zM186 221q-34 0 -56.5 -24.5t-22.5 -59.5q0 -36 22.5 -59t56.5 -23
q35 0 57.5 23t22.5 59q0 35 -22.5 59.5t-57.5 24.5z" />
    <glyph glyph-name="seven.dnom" horiz-adv-x="327" 
d="M309 398l-198 -397h-72l181 356h-192v60h281v-19z" />
    <glyph glyph-name="eight.dnom" horiz-adv-x="382" 
d="M190 424q55 0 92.5 -27.5t37.5 -79.5q0 -35 -18 -59t-51 -41q37 -15 62.5 -40.5t25.5 -67.5q0 -53 -41 -84t-108 -31q-66 0 -107 31t-41 85q0 40 24.5 66t62.5 41q-32 17 -50 41.5t-18 59.5q0 51 37.5 78.5t91.5 27.5zM275 112q0 31 -24.5 47.5t-60.5 30.5
q-36 -14 -59.5 -30.5t-23.5 -47.5q0 -28 21.5 -46t61.5 -18q42 0 63.5 18t21.5 46zM190 371q-29 0 -48.5 -15t-19.5 -42q0 -26 18.5 -40.5t49.5 -28.5q32 13 51 28t19 41q0 27 -20 42t-50 15z" />
    <glyph glyph-name="nine.dnom" horiz-adv-x="373" 
d="M187 424q29 0 55.5 -10.5t46 -30t31 -46t11.5 -58.5q0 -38 -15.5 -67t-40.5 -64l-103 -147h-77l98 142q-4 -1 -8.5 -1h-9.5q-26 0 -50.5 10.5t-43 29t-30 44t-11.5 55.5q0 31 11.5 57t32 45t47 30t56.5 11zM187 363q-35 0 -57.5 -23t-22.5 -59q0 -35 22.5 -59.5
t57.5 -24.5q34 0 56.5 24.5t22.5 59.5q0 36 -22.5 59t-56.5 23z" />
    <glyph glyph-name="zero.numr" horiz-adv-x="410" 
d="M205 667q40 0 69.5 -16t48.5 -44.5t28 -67t9 -83.5t-9 -85t-28 -69.5t-48.5 -47t-69.5 -17.5t-69.5 17.5t-48.5 47t-28.5 69.5t-9.5 85t9.5 83.5t28.5 67t48.5 44.5t69.5 16zM205 606q-48 0 -68 -40.5t-20 -110.5q0 -35 5 -64t15.5 -50t27.5 -32.5t40 -11.5
q48 0 68.5 44.5t20.5 113.5q0 70 -20.5 110.5t-68.5 40.5z" />
    <glyph glyph-name="one.numr" horiz-adv-x="353" 
d="M219 304h90v-60h-262v60h105v296h-100v60h167v-356z" />
    <glyph glyph-name="two.numr" horiz-adv-x="369" 
d="M178 667q30 0 55 -10t43 -27t28 -40.5t10 -51.5q0 -23 -7 -43.5t-19 -40t-28.5 -38t-34.5 -37.5l-71 -75h174v-60h-293v15l148 159q29 32 46.5 59t17.5 56q0 30 -18.5 51.5t-50.5 21.5q-33 0 -52 -21.5t-19 -54.5q0 -7 0.5 -15t1.5 -17h-65q-2 9 -3 18.5t-1 17.5
q0 25 9.5 49t27.5 42.5t43.5 30t57.5 11.5z" />
    <glyph glyph-name="three.numr" horiz-adv-x="354" 
d="M304 641l-100 -135q19 -4 38.5 -13.5t35.5 -25t25.5 -38t9.5 -51.5q0 -32 -12 -58t-32.5 -44.5t-47.5 -28.5t-57 -10q-53 0 -89 26t-56 64l46 33q17 -27 39.5 -44.5t57.5 -17.5q36 0 60 21.5t24 58.5q0 35 -24.5 54t-70.5 19h-42v18l97 131h-158v60h256v-19z" />
    <glyph glyph-name="four.numr" horiz-adv-x="356" 
d="M284 372h56v-55h-56v-73h-61v73h-207v18l129 325h68l-117 -288h127v130h61v-130z" />
    <glyph glyph-name="five.numr" horiz-adv-x="366" 
d="M295 600h-163v-98q25 6 50 6q28 0 54.5 -8t46 -24t31.5 -40t12 -56q0 -33 -12 -59.5t-33 -45t-48.5 -28.5t-58.5 -10q-53 0 -89.5 26t-56.5 64l46 33q17 -27 40.5 -44.5t58.5 -17.5q37 0 61.5 21.5t24.5 57.5t-24.5 55t-71.5 19h-94v209h226v-60z" />
    <glyph glyph-name="six.numr" horiz-adv-x="373" 
d="M178 517q5 1 9.5 1.5t9.5 0.5q26 0 50.5 -10.5t43 -29t30 -44t11.5 -55.5q0 -31 -11.5 -57t-31.5 -45t-46.5 -30t-56.5 -11t-56 10.5t-46 30t-31.5 46t-11.5 58.5q0 38 15.5 67t40.5 64l103 147h77zM186 464q-34 0 -56.5 -24.5t-22.5 -59.5q0 -36 22.5 -59t56.5 -23
q35 0 57.5 23t22.5 59q0 35 -22.5 59.5t-57.5 24.5z" />
    <glyph glyph-name="seven.numr" horiz-adv-x="327" 
d="M309 641l-198 -397h-72l181 356h-192v60h281v-19z" />
    <glyph glyph-name="eight.numr" horiz-adv-x="382" 
d="M190 667q55 0 92.5 -27.5t37.5 -79.5q0 -35 -18 -59t-51 -41q37 -15 62.5 -40.5t25.5 -67.5q0 -53 -41 -84t-108 -31q-66 0 -107 31t-41 85q0 40 24.5 66t62.5 41q-32 17 -50 41.5t-18 59.5q0 51 37.5 78.5t91.5 27.5zM275 355q0 31 -24.5 47.5t-60.5 30.5
q-36 -14 -59.5 -30.5t-23.5 -47.5q0 -28 21.5 -46t61.5 -18q42 0 63.5 18t21.5 46zM190 614q-29 0 -48.5 -15t-19.5 -42q0 -26 18.5 -40.5t49.5 -28.5q32 13 51 28t19 41q0 27 -20 42t-50 15z" />
    <glyph glyph-name="nine.numr" horiz-adv-x="373" 
d="M187 667q29 0 55.5 -10.5t46 -30t31 -46t11.5 -58.5q0 -38 -15.5 -67t-40.5 -64l-103 -147h-77l98 142q-4 -1 -8.5 -1h-9.5q-26 0 -50.5 10.5t-43 29t-30 44t-11.5 55.5q0 31 11.5 57t32 45t47 30t56.5 11zM187 606q-35 0 -57.5 -23t-22.5 -59q0 -35 22.5 -59.5
t57.5 -24.5q34 0 56.5 24.5t22.5 59.5q0 36 -22.5 59t-56.5 23z" />
    <glyph glyph-name="backslash.case" horiz-adv-x="604" 
d="M97 760l499 -860h-90l-499 860h90z" />
    <glyph glyph-name="periodcentered.case" horiz-adv-x="270" 
d="M135 417q26 0 44.5 -17.5t18.5 -45.5t-18.5 -45.5t-44.5 -17.5t-44.5 17.5t-18.5 45.5t18.5 45.5t44.5 17.5z" />
    <glyph glyph-name="bullet.case" horiz-adv-x="377" 
d="M189 437q26 0 49.5 -9.5t41.5 -26.5t29 -41t11 -53t-11 -52.5t-29 -40.5t-41.5 -26.5t-49.5 -9.5t-50 9.5t-42 26.5t-29 40.5t-11 52.5t11 53t29 41t42 26.5t50 9.5z" />
    <glyph glyph-name="slash.case" horiz-adv-x="603" 
d="M97 -100h-90l499 860h90z" />
    <glyph glyph-name="comma.subs" horiz-adv-x="210" 
d="M117 -232h-54l7 209h78z" />
    <glyph glyph-name="period.subs" horiz-adv-x="210" 
d="M105 -27q21 0 36 -14t15 -37q0 -22 -15 -36t-36 -14t-36 14t-15 36q0 23 15 37t36 14z" />
    <glyph glyph-name="braceleft.case" horiz-adv-x="397" 
d="M283 -100q-62 0 -100 30t-38 103q0 25 4 54t8.5 57t8.5 52.5t4 41.5q0 58 -60 58h-57v68h57q60 0 60 58q0 16 -4 41t-8.5 53t-8.5 57t-4 54q0 73 38 103t100 30h63v-68h-50q-37 0 -57.5 -19.5t-20.5 -64.5q0 -20 4 -45.5t9 -51.5t9 -51t4 -45q0 -35 -13.5 -54t-39.5 -31
q26 -12 39.5 -31t13.5 -54q0 -20 -4 -45t-9 -51t-9 -51t-4 -46q0 -45 20.5 -64.5t57.5 -19.5h50v-68h-63z" />
    <glyph glyph-name="braceright.case" horiz-adv-x="397" 
d="M50 -32h50q37 0 57.5 19.5t20.5 64.5q0 21 -4 46t-8.5 51t-8.5 51t-4 45q0 35 13 54t39 31q-26 12 -39 31t-13 54q0 20 4 45t8.5 51t8.5 51.5t4 45.5q0 45 -20 64.5t-58 19.5h-50v68h63q62 0 100 -30t38 -103q0 -25 -4 -54t-8.5 -57t-8.5 -53t-4 -41q0 -58 60 -58h57v-68
h-57q-60 0 -60 -58q0 -17 4 -41.5t8.5 -52.5t8.5 -57t4 -54q0 -73 -38 -103t-100 -30h-63v68z" />
    <glyph glyph-name="bracketleft.case" horiz-adv-x="343" 
d="M292 692h-117v-722h117v-70h-191v860h191v-68z" />
    <glyph glyph-name="bracketright.case" horiz-adv-x="343" 
d="M241 -100h-191v70h117v722h-117v68h191v-860z" />
    <glyph glyph-name="parenleft.case" horiz-adv-x="333" 
d="M305 712q-28 -18 -55 -47t-48.5 -74t-34.5 -108.5t-13 -150.5t13 -150.5t34.5 -108.5t48.5 -74t55 -46l-33 -53q-36 18 -71 50t-62.5 84t-44 125.5t-16.5 172.5q0 100 16.5 173.5t44 125t62.5 84t71 50.5z" />
    <glyph glyph-name="parenright.case" horiz-adv-x="333" 
d="M62 765q36 -18 70.5 -50.5t62 -84t44 -125t16.5 -173.5q0 -99 -16.5 -172.5t-44 -125.5t-62 -84t-70.5 -50l-34 53q28 17 55 46t48.5 74t35 108.5t13.5 150.5t-13.5 150.5t-35 108.5t-48.5 74t-55 47z" />
    <glyph glyph-name="emdash.case" horiz-adv-x="1000" 
d="M950 322h-900v65h900v-65z" />
    <glyph glyph-name="endash.case" horiz-adv-x="506" 
d="M462 322h-419v65h419v-65z" />
    <glyph glyph-name="uni2015.case" horiz-adv-x="1000" 
d="M950 322h-900v65h900v-65z" />
    <glyph glyph-name="hyphen.case" horiz-adv-x="346" 
d="M292 322h-239v65h239v-65z" />
    <glyph glyph-name="uni00AD.case" horiz-adv-x="346" 
d="M292 322h-239v65h239v-65z" />
    <glyph glyph-name="guillemotleft.case" horiz-adv-x="504" 
d="M266 466l-141 -155l141 -157l-51 -43l-177 188v23l177 189zM464 466l-141 -155l141 -157l-51 -43l-177 188v23l177 189z" />
    <glyph glyph-name="guillemotright.case" horiz-adv-x="504" 
d="M267 322v-23l-177 -188l-51 43l141 157l-141 155l51 45zM465 322v-23l-177 -188l-51 43l141 157l-141 155l51 45z" />
    <glyph glyph-name="guilsinglleft.case" horiz-adv-x="306" 
d="M266 466l-141 -155l141 -157l-51 -43l-177 188v23l177 189z" />
    <glyph glyph-name="guilsinglright.case" horiz-adv-x="306" 
d="M267 322v-23l-177 -188l-51 43l141 157l-141 155l51 45z" />
    <glyph glyph-name="comma.sups" horiz-adv-x="210" 
d="M117 253h-54l7 209h78z" />
    <glyph glyph-name="period.sups" horiz-adv-x="210" 
d="M105 458q21 0 36 -14.5t15 -37.5q0 -22 -15 -36t-36 -14t-36 14t-15 36q0 23 15 37.5t36 14.5z" />
    <glyph glyph-name="cent.tf" 
d="M333 581q57 -6 101 -34t73 -71l-53 -43q-24 31 -53.5 51t-67.5 25v-363q38 5 67.5 25t52.5 52l53 -44q-29 -44 -73 -72t-100 -33v-168h-77v172q-44 9 -81.5 31t-64.5 55t-42.5 75t-15.5 89q0 46 15.5 87.5t42.5 74.5t64.5 55.5t81.5 31.5v173h77v-169zM131 328
q0 -64 34 -112t91 -65v352q-57 -17 -91 -64.5t-34 -110.5z" />
    <glyph glyph-name="currency.tf" 
d="M176 483q47 30 105 30t105 -30l83 82l46 -46l-80 -80q17 -22 27 -49t10 -57q0 -31 -10 -58t-27 -50l79 -80l-45 -45l-82 81q-47 -30 -107 -30q-58 0 -105 30l-82 -81l-46 46l80 80q-17 22 -26 49t-9 57q0 60 36 107l-81 80l47 46zM282 442q-49 0 -80 -31t-31 -79
t30.5 -79t80.5 -31q48 0 79.5 31t31.5 79q0 24 -8.5 44t-23.5 35t-35 23t-44 8z" />
    <glyph glyph-name="dollar.tf" 
d="M314 633q54 -8 91.5 -36.5t62.5 -70.5l-54 -41q-22 32 -46 51t-54 25v-200l21 -8q65 -27 105.5 -66t40.5 -101q0 -34 -12.5 -62.5t-35 -49.5t-53 -34t-66.5 -17v-117h-77v118q-64 10 -111.5 46t-77.5 91l56 40q24 -41 56.5 -69t76.5 -38v223l-6 3q-27 11 -52.5 25.5
t-45 33.5t-31 44t-11.5 58q0 31 11 56t30.5 44.5t46.5 32t58 17.5v119h77v-117zM403 185q0 37 -25 59t-64 40v-191q38 7 63.5 30.5t25.5 61.5zM169 482q0 -34 19.5 -53t48.5 -34v164q-28 -7 -48 -25.5t-20 -51.5z" />
    <glyph glyph-name="Euro.tf" 
d="M424 217h-232q24 -71 79.5 -113.5t137.5 -42.5q31 0 59 6t54 17l19 -65q-60 -30 -135 -30q-57 0 -105 16.5t-86 46.5t-65 72t-41 93h-97v68h84q-1 11 -1.5 22t-0.5 23q0 11 0.5 20.5t1.5 20.5h-82v68h94q14 51 40.5 94t64.5 73.5t86.5 47.5t105.5 17q72 0 135 -29
l-19 -66q-26 11 -53.5 17t-58.5 6q-83 0 -138.5 -44t-79.5 -116h293l-17 -68h-291q-2 -11 -2 -20.5v-20.5v-23t2 -22h266z" />
    <glyph glyph-name="florin.tf" 
d="M447 330h-143l-38 -306q-11 -81 -55 -119t-122 -38q-18 0 -35 2t-32 5v65q31 -3 53 -3q51 0 79 20t36 74l37 300h-107v69h116l14 114q11 81 55 119.5t122 38.5q37 0 67 -8v-64q-16 1 -29 1.5t-24 0.5q-51 0 -79.5 -20t-35.5 -73l-14 -109h135v-69z" />
    <glyph glyph-name="uni20B4.tf" 
d="M529 222h-356q-14 -22 -14 -52q0 -51 35 -80t90 -29q62 0 108 33t75 79l57 -42q-35 -64 -98 -103t-143 -39q-43 0 -80.5 12.5t-65 36t-43.5 57t-16 74.5q0 15 2 28t6 25h-55v64h98q21 19 47.5 35t57.5 33l27 15h-229v64h332q14 12 21.5 28.5t7.5 39.5q0 26 -10.5 44.5
t-27 30.5t-37 17.5t-41.5 5.5q-45 0 -81 -22.5t-62 -58.5l-55 41q29 51 80.5 81.5t119.5 30.5q41 0 76.5 -11.5t61.5 -33.5t41 -53t15 -70q0 -41 -17 -70h73v-64h-136q-16 -11 -33.5 -21.5t-35.5 -21.5l-53 -31l-16 -9h274v-64z" />
    <glyph glyph-name="lira.tf" 
d="M419 173h-146q-11 -63 -56 -105h289v-68h-440v20q48 29 83.5 67t46.5 86h-120v68h121q-4 23 -12 43t-19 40h-90v68h54q-10 21 -16.5 44.5t-6.5 50.5q0 40 15 74t41.5 58.5t63.5 38t81 13.5q76 0 128.5 -42t75.5 -121l-69 -26q-17 55 -48.5 86t-82.5 31q-30 0 -53.5 -10
t-39 -27t-24 -39.5t-8.5 -46.5q0 -23 6.5 -43.5t16.5 -40.5h209v-68h-172q10 -19 17 -39.5t11 -43.5h144v-68z" />
    <glyph glyph-name="uni20BA.tf" 
d="M416 363l-202 -93v-208q46 2 88 13t73.5 31.5t50.5 51.5t19 73q0 11 -1 27.5t-3 31.5h67q9 -32 9 -65q0 -63 -27.5 -107.5t-77.5 -73t-120.5 -42t-155.5 -13.5v245l-98 -45v73l98 45v89l-98 -44v73l98 45v190h78v-155l202 93v-74l-202 -92v-89l202 93v-73z" />
    <glyph glyph-name="peseta.tf" 
d="M548 420h-72q-13 -75 -71 -121t-148 -46h-85v-253h-75v420h-77v70h77v170h160q45 0 82.5 -12.5t66 -35t46.5 -53.5t24 -69h72v-70zM172 591v-102h223q-10 48 -46 75t-93 27h-84zM256 323q57 0 92.5 25t45.5 73h-222v-98h84z" />
    <glyph glyph-name="uni20BD.tf" 
d="M327 660q46 0 83 -13.5t63.5 -37.5t40.5 -57.5t14 -74.5t-14.5 -74.5t-40.5 -57.5t-63 -37t-83 -13h-127v-93h250v-68h-250v-134h-78v134h-81v68h81v93h-81v68h81v297h205zM201 592v-229h125q61 0 93.5 31t32.5 82t-32.5 83.5t-93.5 32.5h-125z" />
    <glyph glyph-name="uni20B9.tf" 
d="M496 442h-76q-10 -76 -69 -120.5t-151 -44.5h-14l310 -277h-98l-314 277v68h113q60 0 94 25.5t42 71.5h-251v68h248q-11 39 -45 60.5t-88 21.5h-113v68h412v-68h-122q34 -34 44 -82h78v-68z" />
    <glyph glyph-name="sterling.tf" 
d="M427 246h-153q3 -17 3 -33q0 -43 -15.5 -80.5t-44.5 -64.5h289v-68h-440v20q57 35 95.5 82t38.5 110q0 9 -1 17.5t-3 16.5h-120v68h95q-10 20 -21.5 39.5t-21 40.5t-15.5 44t-6 50q0 40 15 73.5t41.5 58t63.5 38t81 13.5q76 0 128.5 -42t75.5 -121l-69 -26q-17 55 -49 86
t-83 31q-30 0 -53 -10t-38.5 -27t-24 -39.5t-8.5 -46.5q0 -23 6.5 -43t16 -39.5t21 -39t21.5 -40.5h175v-68z" />
    <glyph glyph-name="uni20B8.tf" 
d="M492 245l-173 -68v-177h-78v146l-172 -68v74l172 67v89l-172 -67v73l172 67v209h-207v70h492v-70h-207v-178l173 68v-73l-173 -68v-89l173 68v-73z" />
    <glyph glyph-name="uni20AE.tf" 
d="M40 504h481v-70h-202v-434h-78v434h-201v70zM521 590h-481v70h481v-70z" />
    <glyph glyph-name="yen.tf" 
d="M508 130h-189v-130h-78v130h-188v69h188v92h-188v68h173l-201 301h86l168 -260l170 260h85l-201 -301h175v-68h-189v-92h189v-69z" />
    <glyph glyph-name="section.case" horiz-adv-x="579" 
d="M321 727q48 0 90 -20t79 -68l-56 -46q-29 32 -57 47.5t-60 15.5q-37 0 -58 -18t-21 -50q0 -20 8 -36.5t21 -31.5t30.5 -29t36.5 -30l105 -88q48 -39 76 -74.5t28 -81.5q0 -50 -33 -83.5t-92 -43.5q1 -3 1 -6.5v-6.5q0 -29 -11 -55t-31.5 -45.5t-50.5 -31t-68 -11.5
q-48 0 -90.5 20t-79.5 68l56 47q29 -33 57 -48t60 -15q37 0 58 17.5t21 50.5q0 20 -8 36.5t-21 31.5t-30 29t-36 30l-106 87q-48 40 -76 75.5t-28 81.5q0 49 33 82.5t91 43.5v14q0 29 11 54.5t32 45t51 31t68 11.5zM282 405q-32 26 -58.5 51t-43.5 54q-30 -8 -48 -23
t-18 -44q0 -12 4 -22.5t13 -21.5t23.5 -24t36.5 -31l105 -87q32 -27 58.5 -52t43.5 -54q30 8 48 23t18 44q0 12 -3.5 22.5t-12.5 21.5t-24 24t-37 31z" />
    <glyph glyph-name="acute.case" horiz-adv-x="239" 
d="M209 896l-120 -172h-59l85 186h94v-14z" />
    <glyph glyph-name="breve.case" horiz-adv-x="364" 
d="M334 892q0 -33 -11.5 -61t-31.5 -48.5t-48 -32t-61 -11.5t-61 11.5t-48 32t-31.5 48.5t-11.5 61h65q0 -43 25 -67.5t62 -24.5q38 0 62.5 24.5t24.5 67.5h65z" />
    <glyph glyph-name="dieresis.case" horiz-adv-x="402" 
d="M317 863q23 0 39 -15.5t16 -38.5q0 -22 -16 -37.5t-39 -15.5q-21 0 -38 15.5t-17 37.5q0 23 17 38.5t38 15.5zM85 863q23 0 39 -15t16 -38t-16 -38t-39 -15q-21 0 -38 15t-17 38t17 38t38 15z" />
    <glyph glyph-name="grave.case" horiz-adv-x="235" 
d="M204 724h-59l-120 172v14h94z" />
    <glyph glyph-name="hungarumlaut.case" horiz-adv-x="410" 
d="M380 896l-112 -172h-56l85 186h83v-14zM198 896l-113 -172h-55l85 186h83v-14z" />
    <glyph glyph-name="acute.loclPLK.case" horiz-adv-x="199" 
d="M75 910h94v-14l-80 -172h-59z" />
    <glyph glyph-name="macron.case" horiz-adv-x="355" 
d="M325 770h-295v63h295v-63z" />
    <glyph glyph-name="dieresis.i" horiz-adv-x="351" 
d="M267 727q23 0 39 -15.5t16 -38.5q0 -22 -16 -37.5t-39 -15.5q-21 0 -38 15.5t-17 37.5q0 23 17 38.5t38 15.5zM85 727q23 0 39 -15.5t16 -38.5q0 -22 -16 -37.5t-39 -15.5q-22 0 -38.5 15.5t-16.5 37.5q0 23 16.5 38.5t38.5 15.5z" />
    <glyph glyph-name="commaaccentup" horiz-adv-x="151" 
d="M106 566h-76l32 214h59z" />
    </font>
</defs>
</svg>
