<?xml version="1.0" standalone="no"?>
  <!DOCTYPE svg PUBLIC "-//W3C//DTD SVG 1.1//EN" "http://www.w3.org/Graphics/SVG/1.1/DTD/svg11.dtd" >
  <svg>
  <metadata>
  Created by font-carrier
  </metadata>
  <defs>
  <font id="DINPro-Bold" horiz-adv-x="1222" vert-adv-y="1222" >
    <font-face
      
      font-family="DIN Pro Bold"
      
      font-weight="400"
      
      font-stretch="normal"
      
      units-per-em="1000"
      
      ascent="1015"
      
      descent="-206"
      
    />
      <missing-glyph />

      

      
      <glyph glyph-name="uni21" unicode="&#x21;" d="M273 712L240 223L144 223L112 712L273 712M267 0L118 0L118 148L267 148L267 0Z"  horiz-adv-x="347" vert-adv-y="1000"  />

      
      <glyph glyph-name="uni22" unicode="&#x22;" d="M190 501L68 501L68 712L190 712L190 501M395 501L274 501L274 712L395 712L395 501Z"  horiz-adv-x="464" vert-adv-y="1000"  />

      
      <glyph glyph-name="uni23" unicode="&#x23;" d="M643 420L554 420L538 312L607 312L607 190L518 190L488 0L351 0L382 190L266 190L236 0L99 0L129 190L60 190L60 312L149 312L165 420L95 420L95 541L184 541L212 718L349 718L321 541L437 541L465 718L601 718L574 541L643 541L643 420M417 420L302 420L285 312L401 312L417 420Z"  horiz-adv-x="691" vert-adv-y="1000"  />

      
      <glyph glyph-name="uni24" unicode="&#x24;" d="M571 210Q571 121 512 65.50Q453 10 356-2L356-114L255-114L255-6Q107-1 19 88L109 178Q166 121 268 118L268 299L236 303Q146 315 98 363Q47 414 47 502Q47 589 102.50 647.50Q158 706 255 716L255 806L356 806L356 717Q476 710 553 635L465 548Q421 590 342 596L342 422L380 416Q471 402 516 360Q571 308 571 210M435 206Q435 245 413 266Q393 285 342 292L342 120Q435 131 435 206M268 428L268 595Q226 589 203.50 565Q181 541 181 507Q181 476 202 456Q225 434 268 428Z"  horiz-adv-x="619" vert-adv-y="1000"  />

      
      <glyph glyph-name="uni25" unicode="&#x25;" d="M248 486L248 577Q248 634 198 634Q147 634 147 577L147 486Q147 429 198 429Q248 429 248 486M342 482Q342 417 301 381Q260 345 198 345Q136 345 94 381Q52 417 52 482L52 581Q52 646 94 682Q136 718 198 718Q260 718 301 682Q342 646 342 581L342 482M702 134L702 226Q702 283 651 283Q600 283 600 226L600 134Q600 78 651 78Q702 78 702 134M796 131Q796 66 754.50 30Q713-6 651-6Q589-6 547.50 30Q506 66 506 131L506 230Q506 295 547.50 331Q589 367 651 367Q713 367 754.50 331Q796 295 796 230L796 131M644 712L307 0L205 0L542 712L644 712Z"  horiz-adv-x="848" vert-adv-y="1000"  />

      
      <glyph glyph-name="uni26" unicode="&#x26;" d="M696 0L531 0L479 62Q454 41 436 29.50Q418 18 379.50 6Q341-6 295-6Q179-6 119.50 51Q60 108 60 210Q60 316 188 401Q117 482 117 552Q117 626 168 672Q219 718 307 718Q390 718 439.50 671Q489 624 489 550Q489 479 416 426L365 389L485 247Q518 291 521 372L644 372Q636 227 568 151L696 0M400 154L258 321Q221 295 203.50 271Q186 247 186 212Q186 168 217 140Q248 112 294 112Q352 112 400 154M366 549Q366 574 350 590.50Q334 607 307 607Q279 607 263.50 591Q248 575 248 549Q248 537 255.50 522Q263 507 270.50 497.50Q278 488 295 469L325 489Q366 518 366 549Z"  horiz-adv-x="721" vert-adv-y="1000"  />

      
      <glyph glyph-name="uni27" unicode="&#x27;" d="M191 501L68 501L68 712L191 712L191 501Z"  horiz-adv-x="259" vert-adv-y="1000"  />

      
      <glyph glyph-name="uni28" unicode="&#x28;" d="M80 138L80 574Q80 659 106 703Q128 742 194 806L282 718Q240 676 226 652Q211 624 211 568L211 144Q211 89 226 60Q240 36 282-6L194-94Q128-30 106 9Q80 52 80 138Z"  horiz-adv-x="336" vert-adv-y="1000"  />

      
      <glyph glyph-name="uni29" unicode="&#x29;" d="M256 138Q256 52 230 9Q208-30 142-94L54-6Q96 36 110 60Q125 89 125 144L125 568Q125 624 110 652Q96 676 54 718L142 806Q208 742 230 703Q256 659 256 574L256 138Z"  horiz-adv-x="336" vert-adv-y="1000"  />

      
      <glyph glyph-name="uni2a" unicode="&#x2a;" d="M440 460L394 381L289 447L293 322L201 322L206 447L100 381L55 460L165 518L55 576L100 656L206 589L201 714L293 714L289 589L394 656L440 576L329 518L440 460Z"  horiz-adv-x="494" vert-adv-y="1000"  />

      
      <glyph glyph-name="uni2b" unicode="&#x2b;" d="M493 216L333 216L333 56L211 56L211 216L50 216L50 338L211 338L211 498L333 498L333 338L493 338L493 216Z"  horiz-adv-x="543" vert-adv-y="1000"  />

      
      <glyph glyph-name="uni2c" unicode="&#x2c;" d="M211-55L68-165L68 142L211 142L211-55Z"  horiz-adv-x="279" vert-adv-y="1000"  />

      
      <glyph glyph-name="uni2d" unicode="&#x2d;" d="M367 225L59 225L59 346L367 346L367 225Z"  horiz-adv-x="426" vert-adv-y="1000"  />

      
      <glyph glyph-name="uni2e" unicode="&#x2e;" d="M217 0L68 0L68 148L217 148L217 0Z"  horiz-adv-x="285" vert-adv-y="1000"  />

      
      <glyph glyph-name="uni2f" unicode="&#x2f;" d="M407 786L122-74L0-74L285 786L407 786Z"  horiz-adv-x="403" vert-adv-y="1000"  />

      
      <glyph glyph-name="uni30" unicode="&#x30;" d="M488 206Q488 108 425.50 51Q363-6 272-6Q181-6 118 51Q55 108 55 206L55 506Q55 604 118 661Q181 718 272 718Q363 718 425.50 661Q488 604 488 506L488 206M358 207L358 504Q358 549 334.50 575Q311 601 272 601Q233 601 209 575Q185 549 185 504L185 207Q185 162 209 136.50Q233 111 272 111Q311 111 334.50 136.50Q358 162 358 207Z"  horiz-adv-x="543" vert-adv-y="1000"  />

      
      <glyph glyph-name="uni31" unicode="&#x31;" d="M378 0L248 0L248 572L103 446L103 586L248 712L378 712L378 0Z"  horiz-adv-x="543" vert-adv-y="1000"  />

      
      <glyph glyph-name="uni32" unicode="&#x32;" d="M492 0L59 0L59 117L325 426Q362 470 362 512Q362 552 339.50 576.50Q317 601 276 601Q239 601 214 579.50Q189 558 189 510L59 510Q59 605 120.50 661.50Q182 718 276 718Q372 718 432 662Q492 606 492 511Q492 463 475 430Q458 397 416 348L217 117L492 117L492 0Z"  horiz-adv-x="543" vert-adv-y="1000"  />

      
      <glyph glyph-name="uni33" unicode="&#x33;" d="M495 206Q495 104 430.50 49Q366-6 269-6Q174-6 108.50 46.50Q43 99 42 204L172 204Q173 158 200.50 134.50Q228 111 269 111Q312 111 338.50 137Q365 163 365 210Q365 255 338.50 281.50Q312 308 265 308L246 308L246 421L265 421Q310 421 332.50 445.50Q355 470 355 510Q355 553 330 577Q305 601 268 601Q231 601 206.50 578Q182 555 180 515L50 515Q52 608 114 663Q176 718 268 718Q363 718 424 661Q485 604 485 514Q485 412 403 368Q495 319 495 206Z"  horiz-adv-x="543" vert-adv-y="1000"  />

      
      <glyph glyph-name="uni34" unicode="&#x34;" d="M512 101L447 101L447 0L322 0L322 101L31 101L31 224L275 712L417 712L173 224L322 224L322 357L447 357L447 224L512 224L512 101Z"  horiz-adv-x="543" vert-adv-y="1000"  />

      
      <glyph glyph-name="uni35" unicode="&#x35;" d="M494 240Q494 175 481 132Q468 89 431 52Q373-6 274-6Q172-6 115 51Q64 102 57 199L187 199Q198 111 274 111Q313 111 336 134Q364 162 364 240Q364 368 277 368Q210 368 191 310L72 310L72 712L478 712L478 595L190 595L190 442Q228 478 297 478Q382 478 430 430Q494 366 494 240Z"  horiz-adv-x="543" vert-adv-y="1000"  />

      
      <glyph glyph-name="uni36" unicode="&#x36;" d="M492 216Q492 113 429.50 53.50Q367-6 270-6Q173-6 110.50 52.50Q48 111 48 214Q48 282 108 404L258 712L400 712L252 418Q274 427 305 427Q381 427 436.50 369Q492 311 492 216M362 215Q362 262 336.50 290.50Q311 319 270 319Q229 319 203.50 291Q178 263 178 215Q178 167 203.50 139Q229 111 270 111Q311 111 336.50 139Q362 167 362 215Z"  horiz-adv-x="543" vert-adv-y="1000"  />

      
      <glyph glyph-name="uni37" unicode="&#x37;" d="M503 595L272 0L131 0L362 595L174 595L174 483L50 483L50 712L503 712L503 595Z"  horiz-adv-x="543" vert-adv-y="1000"  />

      
      <glyph glyph-name="uni38" unicode="&#x38;" d="M410 367Q500 307 500 207Q500 107 435.50 50.50Q371-6 272-6Q173-6 108.50 50.50Q44 107 44 207Q44 308 133 367Q53 423 53 515Q53 607 116.50 662.50Q180 718 272 718Q364 718 427 662.50Q490 607 490 515Q490 423 410 367M341.50 139.50Q341.50 139.50 355.75 153.75Q370 168 370 209Q370 250 341.50 279Q313 308 272 308Q231 308 202.50 279Q174 250 174 209Q174 168 202.50 139.50Q231 111 272 111Q313 111 341.50 139.50M360 511Q360 549 335 575Q310 601 272 601Q234 601 208.50 575Q183 549 183 511Q183 472 208.50 446.50Q234 421 272 421Q310 421 335 446.50Q360 472 360 511Z"  horiz-adv-x="543" vert-adv-y="1000"  />

      
      <glyph glyph-name="uni39" unicode="&#x39;" d="M495 498Q495 428 436 308L285 0L144 0L292 294Q270 285 239 285Q163 285 107 343Q51 401 51 496Q51 599 113.50 658.50Q176 718 273 718Q370 718 432.50 659.50Q495 601 495 498M339.50 421Q339.50 421 352.25 435Q365 449 365 497Q365 545 339.50 573Q314 601 273 601Q232 601 206.50 573Q181 545 181 497Q181 450 206.50 421.50Q232 393 273 393Q314 393 339.50 421Z"  horiz-adv-x="543" vert-adv-y="1000"  />

      
      <glyph glyph-name="uni3a" unicode="&#x3a;" d="M241 271L93 271L93 419L241 419L241 271M241 0L93 0L93 148L241 148L241 0Z"  horiz-adv-x="309" vert-adv-y="1000"  />

      
      <glyph glyph-name="uni3b" unicode="&#x3b;" d="M238-55L96-165L96 142L238 142L238-55M241 271L93 271L93 419L241 419L241 271Z"  horiz-adv-x="309" vert-adv-y="1000"  />

      
      <glyph glyph-name="uni3c" unicode="&#x3c;" d="M475 42L69 229L69 342L475 529L475 392L234 285L475 179L475 42Z"  horiz-adv-x="543" vert-adv-y="1000"  />

      
      <glyph glyph-name="uni3d" unicode="&#x3d;" d="M493 333L50 333L50 455L493 455L493 333M493 116L50 116L50 238L493 238L493 116Z"  horiz-adv-x="543" vert-adv-y="1000"  />

      
      <glyph glyph-name="uni3e" unicode="&#x3e;" d="M475 229L69 42L69 179L310 285L69 392L69 529L475 342L475 229Z"  horiz-adv-x="543" vert-adv-y="1000"  />

      
      <glyph glyph-name="uni3f" unicode="&#x3f;" d="M487 518Q487 458 438 393L364 295Q346 272 346 244L346 223L216 223L216 253Q216 307 254 357L328 452Q357 490 357 519Q357 555 335 578Q313 601 276 601Q238 601 217 577.50Q196 554 196 518L66 518Q66 609 126 663.50Q186 718 276 718Q365 718 426 664Q487 610 487 518M350 0L212 0L212 133L350 133L350 0Z"  horiz-adv-x="523" vert-adv-y="1000"  />

      
      <glyph glyph-name="uni40" unicode="&#x40;" d="M700 0L579 0L579 46Q531-6 459-6Q380-6 333 44Q304 75 295 116Q286 157 286 231Q286 304 295 344.50Q304 385 332 416Q378 467 458 467Q531 467 576 418L576 463Q576 530 541 565Q506 600 441 600L317 600Q252 600 217 565Q182 530 182 463L182 174Q182 137 191.50 117Q201 97 226 75L136-15Q92 25 74.50 63Q57 101 57 167L57 466Q57 593 119 655Q180 716 307 716L451 716Q578 716 639 655Q700 594 700 466L700 0M557.50 135Q557.50 135 566.75 151.50Q576 168 576 231Q576 294 557.50 326.50Q539 359 493 359Q447 359 429 327Q411 295 411 231Q411 167 429 134.50Q447 102 493 102Q539 102 557.50 135Z"  horiz-adv-x="758" vert-adv-y="1000"  />

      
      <glyph glyph-name="uni41" unicode="&#x41;" d="M633 0L488 0L446 126L193 126L150 0L5 0L264 712L373 712L633 0M409 243L322 502L232 243L409 243Z"  horiz-adv-x="638" vert-adv-y="1000"  />

      
      <glyph glyph-name="uni42" unicode="&#x42;" d="M599 205Q599 108 539 54Q479 0 381 0L83 0L83 712L369 712Q472 712 530.50 658Q589 604 589 512Q589 458 561.50 419.50Q534 381 501 365Q599 319 599 205M436 149Q436 149 448 161.50Q460 174 460 212Q460 250 436 274.50Q412 299 367 299L222 299L222 124L367 124Q412 124 436 149M426 446.50Q426 446.50 438 457.75Q450 469 450 506Q450 543 426 565.50Q402 588 358 588L222 588L222 424L358 424Q402 424 426 446.50Z"  horiz-adv-x="658" vert-adv-y="1000"  />

      
      <glyph glyph-name="uni43" unicode="&#x43;" d="M583 219Q564 110 494 52Q424-6 322-6Q208-6 131 69Q82 118 70.50 176.50Q59 235 59 356Q59 477 70.50 535.50Q82 594 131 643Q208 718 322 718Q424 718 494 660Q564 602 583 493L441 493Q417 594 322 594Q265 594 233 557Q213 534 205.50 494.50Q198 455 198 356Q198 257 205.50 217.50Q213 178 233 155Q265 118 322 118Q418 118 442 219L583 219Z"  horiz-adv-x="620" vert-adv-y="1000"  />

      
      <glyph glyph-name="uni44" unicode="&#x44;" d="M592.50 513.50Q592.50 513.50 596.25 487.25Q600 461 600 356Q600 251 592.50 198.50Q585 146 555 104Q480 0 340 0L83 0L83 712L340 712Q480 712 555 608Q585 566 592.50 513.50M456 228Q456 228 458.50 247Q461 266 461 356Q461 446 456 484Q451 522 432 544Q397 588 328 588L222 588L222 124L328 124Q397 124 432 168Q451 190 456 228Z"  horiz-adv-x="659" vert-adv-y="1000"  />

      
      <glyph glyph-name="uni45" unicode="&#x45;" d="M552 0L83 0L83 712L552 712L552 588L222 588L222 421L503 421L503 297L222 297L222 124L552 124L552 0Z"  horiz-adv-x="605" vert-adv-y="1000"  />

      
      <glyph glyph-name="uni46" unicode="&#x46;" d="M552 588L222 588L222 413L503 413L503 289L222 289L222 0L83 0L83 712L552 712L552 588Z"  horiz-adv-x="590" vert-adv-y="1000"  />

      
      <glyph glyph-name="uni47" unicode="&#x47;" d="M590 292Q590 213 575 164Q560 115 522 75Q445-6 321-6Q208-6 131 69Q82 118 70.50 176.50Q59 235 59 356Q59 477 70.50 535.50Q82 594 131 643Q208 718 321 718Q438 718 505.50 653Q573 588 589 490L449 490Q425 594 321 594Q267 594 232 556Q212 533 205 494Q198 455 198 356Q198 256 205 217Q212 178 232 155Q266 118 321 118Q385 118 420 158Q452 194 452 253L452 279L321 279L321 396L590 396L590 292Z"  horiz-adv-x="649" vert-adv-y="1000"  />

      
      <glyph glyph-name="uni48" unicode="&#x48;" d="M602 0L463 0L463 298L222 298L222 0L83 0L83 712L222 712L222 421L463 421L463 712L602 712L602 0Z"  horiz-adv-x="685" vert-adv-y="1000"  />

      
      <glyph glyph-name="uni49" unicode="&#x49;" d="M222 0L83 0L83 712L222 712L222 0Z"  horiz-adv-x="305" vert-adv-y="1000"  />

      
      <glyph glyph-name="uni4a" unicode="&#x4a;" d="M437 234Q437 121 364 57.50Q291-6 186-6Q128-6 85 11Q42 28 3 67L95 158Q135 118 186 118Q238 118 268 149Q298 180 298 240L298 712L437 712L437 234Z"  horiz-adv-x="511" vert-adv-y="1000"  />

      
      <glyph glyph-name="uni4b" unicode="&#x4b;" d="M659 0L497 0L314 324L222 214L222 0L83 0L83 712L222 712L222 402L473 712L642 712L406 429L659 0Z"  horiz-adv-x="665" vert-adv-y="1000"  />

      
      <glyph glyph-name="uni4c" unicode="&#x4c;" d="M545 0L83 0L83 712L222 712L222 124L545 124L545 0Z"  horiz-adv-x="575" vert-adv-y="1000"  />

      
      <glyph glyph-name="uni4d" unicode="&#x4d;" d="M728 0L589 0L589 415L453 145L359 145L222 415L222 0L83 0L83 712L220 712L406 327L591 712L728 712L728 0Z"  horiz-adv-x="811" vert-adv-y="1000"  />

      
      <glyph glyph-name="uni4e" unicode="&#x4e;" d="M628 0L504 0L222 437L222 0L83 0L83 712L207 712L489 276L489 712L628 712L628 0Z"  horiz-adv-x="711" vert-adv-y="1000"  />

      
      <glyph glyph-name="uni4f" unicode="&#x4f;" d="M573 535Q573 535 579 505.50Q585 476 585 356Q585 236 573 177Q561 118 512 69Q437-6 322-6Q206-6 131 69Q82 118 70.50 176.50Q59 235 59 356Q59 477 70.50 535.50Q82 594 131 643Q206 718 322 718Q437 718 512 643Q561 594 573 535M446 356Q446 455 438.50 494Q431 533 411 556Q378 594 322 594Q267 594 232 556Q212 533 205 494Q198 455 198 356Q198 257 205 218.50Q212 180 232 157Q268 118 322 118Q377 118 411 157Q431 181 438.50 219.50Q446 258 446 356Z"  horiz-adv-x="644" vert-adv-y="1000"  />

      
      <glyph glyph-name="uni50" unicode="&#x50;" d="M530.50 648Q530.50 648 562.25 616Q594 584 594 490Q594 396 530.50 332Q467 268 359 268L222 268L222 0L83 0L83 712L359 712Q467 712 530.50 648M427 419.50Q427 419.50 441 432.75Q455 446 455 490Q455 534 427 561Q399 588 352 588L222 588L222 393L352 393Q399 393 427 419.50Z"  horiz-adv-x="628" vert-adv-y="1000"  />

      
      <glyph glyph-name="uni51" unicode="&#x51;" d="M585 356Q585 253 577.50 200Q570 147 541 104L602 43L529-30L465 32Q405-6 322-6Q208-6 131 69Q82 118 70.50 176.50Q59 235 59 356Q59 477 70.50 535.50Q82 594 131 643Q208 718 322 718Q437 718 512 643Q561 594 573 535Q585 476 585 356M446 356Q446 455 438.50 494Q431 533 411 556Q378 594 322 594Q267 594 232 556Q212 533 205 494Q198 455 198 356Q198 257 205 218.50Q212 180 232 157Q268 118 322 118Q348 118 368 131L306 192L379 266L433 212Q446 252 446 356Z"  horiz-adv-x="643" vert-adv-y="1000"  />

      
      <glyph glyph-name="uni52" unicode="&#x52;" d="M622 0L461 0L322 284L222 284L222 0L83 0L83 712L362 712Q468 712 530.50 649Q593 586 593 494Q593 423 556 375Q519 327 463 307L622 0M426 426Q426 426 440 439Q454 452 454 494Q454 536 426 562Q398 588 353 588L222 588L222 400L353 400Q398 400 426 426Z"  horiz-adv-x="654" vert-adv-y="1000"  />

      
      <glyph glyph-name="uni53" unicode="&#x53;" d="M543 210Q543 109 469 51.50Q395-6 279-6Q194-6 132 15.50Q70 37 19 88L109 178Q169 118 280 118Q342 118 374.50 141Q407 164 407 207Q407 244 385 266Q366 284 321 290L236 303Q146 316 98 362Q47 412 47 502Q47 599 114 658.50Q181 718 295 718Q439 718 525 635L437 548Q387 597 291 597Q238 597 210 571.50Q182 546 182 507Q182 475 202 456Q225 435 267 429L352 416Q443 403 488 360Q543 309 543 210Z"  horiz-adv-x="591" vert-adv-y="1000"  />

      
      <glyph glyph-name="uni54" unicode="&#x54;" d="M541 588L355 588L355 0L216 0L216 588L30 588L30 712L541 712L541 588Z"  horiz-adv-x="571" vert-adv-y="1000"  />

      
      <glyph glyph-name="uni55" unicode="&#x55;" d="M596 244Q596 133 521 63.50Q446-6 334-6Q222-6 147 63.50Q72 133 72 244L72 712L211 712L211 249Q211 188 244 153Q277 118 334 118Q391 118 424.50 153Q458 188 458 249L458 712L596 712L596 244Z"  horiz-adv-x="668" vert-adv-y="1000"  />

      
      <glyph glyph-name="uni56" unicode="&#x56;" d="M578 712L342 0L238 0L3 712L147 712L290 248L433 712L578 712Z"  horiz-adv-x="581" vert-adv-y="1000"  />

      
      <glyph glyph-name="uni57" unicode="&#x57;" d="M881 712L690 0L574 0L443 432L312 0L196 0L6 712L151 712L261 263L391 712L495 712L625 263L736 712L881 712Z"  horiz-adv-x="887" vert-adv-y="1000"  />

      
      <glyph glyph-name="uni58" unicode="&#x58;" d="M598 0L439 0L301 248L164 0L5 0L226 365L19 712L177 712L301 482L426 712L583 712L376 365L598 0Z"  horiz-adv-x="603" vert-adv-y="1000"  />

      
      <glyph glyph-name="uni59" unicode="&#x59;" d="M569 712L355 292L355 0L217 0L217 292L3 712L154 712L287 425L418 712L569 712Z"  horiz-adv-x="572" vert-adv-y="1000"  />

      
      <glyph glyph-name="uni5a" unicode="&#x5a;" d="M508 0L40 0L40 112L344 588L53 588L53 712L508 712L508 602L203 124L508 124L508 0Z"  horiz-adv-x="548" vert-adv-y="1000"  />

      
      <glyph glyph-name="uni5b" unicode="&#x5b;" d="M337-74L80-74L80 786L337 786L337 669L210 669L210 43L337 43L337-74Z"  horiz-adv-x="378" vert-adv-y="1000"  />

      
      <glyph glyph-name="uni5c" unicode="&#x5c;" d="M403-74L281-74L0 773L122 773L403-74Z"  horiz-adv-x="403" vert-adv-y="1000"  />

      
      <glyph glyph-name="uni5d" unicode="&#x5d;" d="M299-74L42-74L42 42L169 42L169 670L42 670L42 786L299 786L299-74Z"  horiz-adv-x="378" vert-adv-y="1000"  />

      
      <glyph glyph-name="uni5e" unicode="&#x5e;" d="M539 389L403 389L301 577L199 389L63 389L241 719L361 719L539 389Z"  horiz-adv-x="602" vert-adv-y="1000"  />

      
      <glyph glyph-name="uni5f" unicode="&#x5f;" d="M602-178L0-178L0-91L602-91L602-178Z"  horiz-adv-x="602" vert-adv-y="1000"  />

      
      <glyph glyph-name="uni60" unicode="&#x60;" d="M305 604L218 604L104 774L241 774L305 604Z"  horiz-adv-x="500" vert-adv-y="1000"  />

      
      <glyph glyph-name="uni61" unicode="&#x61;" d="M467 0L340 0L340 45Q313 18 284.50 6.50Q256-5 212-5Q125-5 79 41Q36 86 36 158Q36 224 82 266.50Q128 309 216 309L337 309L337 335Q337 378 314 397.50Q291 417 240 417Q179 417 140 372L58 453Q96 495 137.50 511Q179 527 245 527Q467 527 467 343L467 0M337 192L337 220L238 220Q161 220 161 160Q161 101 240 101Q291 101 317 126Q337 143 337 192Z"  horiz-adv-x="534" vert-adv-y="1000"  />

      
      <glyph glyph-name="uni62" unicode="&#x62;" d="M509 261Q509 180 499 128Q489 76 455 41Q410-6 329-6Q248-6 199 49L199 0L73 0L73 712L203 712L203 475Q248 527 329 527Q410 527 455 480Q489 445 499 393Q509 341 509 261M376 201.50Q376 201.50 377.50 213.25Q379 225 379 261Q379 297 376 320.50Q373 344 364.50 366Q356 388 337.50 399Q319 410 291 410Q263 410 244.50 399Q226 388 217.50 366Q209 344 206 320.50Q203 297 203 261Q203 225 206 201.50Q209 178 217.50 155.50Q226 133 244.50 122Q263 111 291 111Q319 111 337.50 122Q356 133 364.50 155.50Q373 178 376 201.50Z"  horiz-adv-x="560" vert-adv-y="1000"  />

      
      <glyph glyph-name="uni63" unicode="&#x63;" d="M452 65Q384-6 280-6Q247-6 216 1.50Q185 9 153.50 27.50Q122 46 99 75.50Q76 105 61.50 152.50Q47 200 47 261Q47 322 61.50 369.50Q76 417 99 446Q122 475 153.50 494Q185 513 216 520Q247 527 280 527Q385 527 452 457L364 369Q326 410 280 410Q234 410 206 376Q177 340 177 261Q177 181 206 145Q234 111 280 111Q326 111 364 152L452 65Z"  horiz-adv-x="480" vert-adv-y="1000"  />

      
      <glyph glyph-name="uni64" unicode="&#x64;" d="M488 0L361 0L361 49Q312-6 232-6Q150-6 105 41Q71 76 61 128Q51 180 51 261Q51 341 61 393Q71 445 105 480Q150 527 231 527Q311 527 358 475L358 712L488 712L488 0M358 261Q358 334 340.50 372Q323 410 269 410Q241 410 222.50 399Q204 388 195.50 366Q187 344 184 320.50Q181 297 181 261Q181 225 184 201.50Q187 178 195.50 155.50Q204 133 222.50 122Q241 111 269 111Q297 111 315.50 122Q334 133 343 155Q352 177 355 201.50Q358 226 358 261Z"  horiz-adv-x="561" vert-adv-y="1000"  />

      
      <glyph glyph-name="uni65" unicode="&#x65;" d="M501 220L175 220Q175 168 205 136Q235 104 289 104Q329 104 354.50 115.50Q380 127 407 153L486 76Q444 33 399.50 13.50Q355-6 288-6Q238-6 197.50 6.50Q157 19 122 48Q87 77 67 131Q47 185 47 261Q47 386 109 456.50Q171 527 274 527Q381 527 441 457.50Q501 388 501 275L501 220M373 309Q372 343 361 365Q337 419 274 419Q211 419 187 365Q176 343 175 309L373 309Z"  horiz-adv-x="548" vert-adv-y="1000"  />

      
      <glyph glyph-name="uni66" unicode="&#x66;" d="M315 407L219 407L219 0L89 0L89 407L35 407L35 506L89 506L89 571Q89 632 128 676Q167 720 241 720L315 720L315 610L264 610Q219 610 219 563L219 506L315 506L315 407Z"  horiz-adv-x="342" vert-adv-y="1000"  />

      
      <glyph glyph-name="uni67" unicode="&#x67;" d="M482 19Q482-76 419.50-136.50Q357-197 253-197Q191-197 147-182Q103-167 64-129L145-47Q186-87 247-87Q301-87 326.50-55.50Q352-24 352 21L352 74Q305 22 228 22Q150 22 104 68Q70 102 60.50 148.50Q51 195 51 275Q51 355 60.50 401Q70 447 104 481Q150 527 229 527Q306 527 356 472L356 521L482 521L482 19M352 275Q352 338 335 374Q318 410 266 410Q238 410 220.50 399.50Q203 389 194.50 368Q186 347 183.50 326Q181 305 181 275Q181 245 183.50 224Q186 203 194 182Q202 161 220 150Q238 139 266 139Q294 139 312 150Q330 161 338 182Q346 203 349 224Q352 245 352 275Z"  horiz-adv-x="555" vert-adv-y="1000"  />

      
      <glyph glyph-name="uni68" unicode="&#x68;" d="M506 0L376 0L376 315Q376 364 350.50 387Q325 410 290 410Q254 410 228.50 387Q203 364 203 315L203 0L73 0L73 712L203 712L203 473Q252 527 330 527Q407 527 453 481Q506 428 506 333L506 0Z"  horiz-adv-x="573" vert-adv-y="1000"  />

      
      <glyph glyph-name="uni69" unicode="&#x69;" d="M203 0L73 0L73 506L203 506L203 0M204 610L71 610L71 716L204 716L204 610Z"  horiz-adv-x="275" vert-adv-y="1000"  />

      
      <glyph glyph-name="uni6a" unicode="&#x6a;" d="M203-46Q203-107 164.50-151Q126-195 51-195L-23-195L-23-85L27-85Q73-85 73-38L73 506L203 506L203-46M204 610L71 610L71 716L204 716L204 610Z"  horiz-adv-x="275" vert-adv-y="1000"  />

      
      <glyph glyph-name="uni6b" unicode="&#x6b;" d="M547 0L386 0L258 217L203 155L203 0L73 0L73 712L203 712L203 308L376 521L533 521L347 311L547 0Z"  horiz-adv-x="559" vert-adv-y="1000"  />

      
      <glyph glyph-name="uni6c" unicode="&#x6c;" d="M294 0L220 0Q145 0 106.50 44Q68 88 68 149L68 712L198 712L198 157Q198 110 244 110L294 110L294 0Z"  horiz-adv-x="325" vert-adv-y="1000"  />

      
      <glyph glyph-name="uni6d" unicode="&#x6d;" d="M809 0L679 0L679 315Q679 364 653.50 387Q628 410 593 410Q558 410 532 387.50Q506 365 506 318L506 0L376 0L376 315Q376 364 350.50 387Q325 410 290 410Q254 410 228.50 387Q203 364 203 315L203 0L73 0L73 521L200 521L200 473Q252 527 330 527Q420 527 468 461Q531 527 624 527Q706 527 752 481Q809 424 809 333L809 0Z"  horiz-adv-x="876" vert-adv-y="1000"  />

      
      <glyph glyph-name="uni6e" unicode="&#x6e;" d="M506 0L376 0L376 315Q376 364 350.50 387Q325 410 290 410Q254 410 228.50 387Q203 364 203 315L203 0L73 0L73 521L200 521L200 473Q251 527 330 527Q407 527 453 481Q506 428 506 333L506 0Z"  horiz-adv-x="573" vert-adv-y="1000"  />

      
      <glyph glyph-name="uni6f" unicode="&#x6f;" d="M492 261Q492 186 479.50 139.50Q467 93 433 58Q371-6 271-6Q172-6 110 58Q76 94 63.50 140.50Q51 187 51 261Q51 335 63.50 381Q76 427 110 463Q172 527 271 527Q373 527 433 463Q467 427 479.50 381Q492 335 492 261M362 261Q362 358 332 387Q309 410 271 410Q234 410 211 387Q181 358 181 261Q181 163 211 134Q234 111 271 111Q309 111 332 134Q362 163 362 261Z"  horiz-adv-x="543" vert-adv-y="1000"  />

      
      <glyph glyph-name="uni70" unicode="&#x70;" d="M509 261Q509 180 499 128Q489 76 455 41Q410-6 329-6Q248-6 203 46L203-191L73-191L73 521L199 521L199 472Q248 527 329 527Q410 527 455 480Q489 445 499 393Q509 341 509 261M376 201.50Q376 201.50 377.50 213.25Q379 225 379 261Q379 297 376 320.50Q373 344 364.50 366Q356 388 337.50 399Q319 410 291 410Q263 410 244.50 399Q226 388 217.50 366Q209 344 206 320.50Q203 297 203 261Q203 225 206 201.50Q209 178 217.50 155.50Q226 133 244.50 122Q263 111 291 111Q319 111 337.50 122Q356 133 364.50 155.50Q373 178 376 201.50Z"  horiz-adv-x="560" vert-adv-y="1000"  />

      
      <glyph glyph-name="uni71" unicode="&#x71;" d="M488-191L358-191L358 46Q311-6 231-6Q150-6 105 41Q71 76 61 128Q51 180 51 261Q51 341 61 393Q71 445 105 480Q150 527 232 527Q312 527 361 472L361 521L488 521L488-191M358 261Q358 334 340.50 372Q323 410 269 410Q241 410 222.50 399Q204 388 195.50 366Q187 344 184 320.50Q181 297 181 261Q181 225 184 201.50Q187 178 195.50 155.50Q204 133 222.50 122Q241 111 269 111Q323 111 340.50 149Q358 187 358 261Z"  horiz-adv-x="561" vert-adv-y="1000"  />

      
      <glyph glyph-name="uni72" unicode="&#x72;" d="M454 478L356 379Q325 410 287 410Q254 410 228.50 385Q203 360 203 314L203 0L73 0L73 521L200 521L200 471Q220 495 255.50 511Q291 527 331 527Q405 527 454 478Z"  horiz-adv-x="455" vert-adv-y="1000"  />

      
      <glyph glyph-name="uni73" unicode="&#x73;" d="M465 164Q465 81 403 37.50Q341-6 244-6Q172-6 120 9Q68 24 22 69L107 154Q155 105 246 105Q284 105 311 118.50Q338 132 338 159Q338 202 283 207L199 215Q49 230 49 361Q49 439 107.50 483Q166 527 250 527Q383 527 449 466L369 385Q330 420 248 420Q211 420 192.50 405.50Q174 391 174 370Q174 331 228 325L310 317Q465 302 465 164Z"  horiz-adv-x="501" vert-adv-y="1000"  />

      
      <glyph glyph-name="uni74" unicode="&#x74;" d="M307 0L236 0Q162 0 123.50 44Q85 88 85 149L85 407L30 407L30 506L85 506L85 660L215 660L215 506L307 506L307 407L215 407L215 157Q215 110 260 110L307 110L307 0Z"  horiz-adv-x="352" vert-adv-y="1000"  />

      
      <glyph glyph-name="uni75" unicode="&#x75;" d="M500 0L373 0L373 48Q322-6 243-6Q166-6 120 40Q67 93 67 188L67 521L197 521L197 206Q197 157 222.50 134Q248 111 283 111Q319 111 344.50 134Q370 157 370 206L370 521L500 521L500 0Z"  horiz-adv-x="573" vert-adv-y="1000"  />

      
      <glyph glyph-name="uni76" unicode="&#x76;" d="M489 521L298 0L196 0L4 521L141 521L247 199L352 521L489 521Z"  horiz-adv-x="493" vert-adv-y="1000"  />

      
      <glyph glyph-name="uni77" unicode="&#x77;" d="M755 521L596 0L489 0L380 327L271 0L164 0L4 521L142 521L226 199L332 521L427 521L534 199L618 521L755 521Z"  horiz-adv-x="759" vert-adv-y="1000"  />

      
      <glyph glyph-name="uni78" unicode="&#x78;" d="M515 0L359 0L263 156L168 0L12 0L192 266L19 521L175 521L263 372L352 521L508 521L335 266L515 0Z"  horiz-adv-x="527" vert-adv-y="1000"  />

      
      <glyph glyph-name="uni79" unicode="&#x79;" d="M490 521L267-84Q250-129 228-151Q188-191 116-191L65-191L65-74L95-74Q123-74 136.50-64.50Q150-55 160-27L182 37L4 521L141 521L249 199L353 521L490 521Z"  horiz-adv-x="494" vert-adv-y="1000"  />

      
      <glyph glyph-name="uni7a" unicode="&#x7a;" d="M434 0L37 0L37 99L268 404L50 404L50 521L434 521L434 422L200 117L434 117L434 0Z"  horiz-adv-x="478" vert-adv-y="1000"  />

      
      <glyph glyph-name="uni7b" unicode="&#x7b;" d="M414-74L312-74Q237-74 200-37Q158 5 158 74L158 219Q158 262 141 279Q122 298 89 298L43 298L43 414L89 414Q122 414 141 433Q158 450 158 493L158 638Q158 707 200 749Q237 786 312 786L414 786L414 669L361 669Q318 669 304 655Q288 638 288 591L288 456Q288 423 275 400.50Q262 378 250 370.50Q238 363 219 356Q238 349 250 341.50Q262 334 275 311.50Q288 289 288 256L288 121Q288 74 304 57Q318 43 361 43L414 43L414-74Z"  horiz-adv-x="457" vert-adv-y="1000"  />

      
      <glyph glyph-name="uni7c" unicode="&#x7c;" d="M240-74L110-74L110 786L240 786L240-74Z"  horiz-adv-x="350" vert-adv-y="1000"  />

      
      <glyph glyph-name="uni7d" unicode="&#x7d;" d="M414 298L368 298Q335 298 316 279Q299 262 299 219L299 74Q299 5 257-37Q220-74 145-74L43-74L43 43L96 43Q139 43 153 57Q169 74 169 121L169 256Q169 289 182 311.50Q195 334 207 341.50Q219 349 238 356Q219 363 207 370.50Q195 378 182 400.50Q169 423 169 456L169 591Q169 638 153 655Q139 669 96 669L43 669L43 786L145 786Q220 786 257 749Q299 707 299 638L299 493Q299 450 316 433Q335 414 368 414L414 414L414 298Z"  horiz-adv-x="457" vert-adv-y="1000"  />

      
      <glyph glyph-name="uni7e" unicode="&#x7e;" d="M569 281Q522 234 485.50 214.50Q449 195 404 195Q351 195 287 229Q241 253 205 253Q161 253 119 211L37 293Q85 341 120.50 360Q156 379 201 379Q254 379 318 345Q364 321 399 321Q444 321 486 363L569 281Z"  horiz-adv-x="606" vert-adv-y="1000"  />

      
      <glyph glyph-name="unia1" unicode="&#xa1;" d="M236-191L75-191L107 298L204 298L236-191M224 388L87 388L87 521L224 521L224 388Z"  horiz-adv-x="347" vert-adv-y="1000"  />

      
      <glyph glyph-name="unia2" unicode="&#xa2;" d="M469 180Q411 119 333 105L333 0L232 0L232 105Q149 122 98 188.50Q47 255 47 366Q47 477 98 543.50Q149 610 232 627L232 712L333 712L333 627Q411 613 469 552L383 468Q352 500 319 509L319 223Q352 232 383 264L469 180M246 225L246 507Q225 501 208 481Q177 442 177 366Q177 290 208 251Q223 231 246 225Z"  horiz-adv-x="499" vert-adv-y="1000"  />

      
      <glyph glyph-name="unia3" unicode="&#xa3;" d="M534 0L101 0L101 297L40 297L40 397L101 397L101 478Q101 591 174 654.50Q247 718 352 718Q410 718 452.50 701Q495 684 534 645L443 554Q403 594 352 594Q300 594 269.50 563Q239 532 239 472L239 397L352 397L352 297L239 297L239 124L534 124L534 0Z"  horiz-adv-x="579" vert-adv-y="1000"  />

      
      <glyph glyph-name="unia4" unicode="&#xa4;" d="M610 96L525 10L451 83Q397 51 334 51Q272 51 218 83L144 10L58 96L132 169Q99 225 99 286Q99 347 132 403L58 476L144 562L218 489Q272 521 334 521Q397 521 451 489L525 562L610 476L537 403Q569 349 569 286Q569 223 537 169L610 96M417.50 203Q417.50 203 434.75 220Q452 237 452 286Q452 335 417.50 369Q383 403 334 403Q285 403 251 369Q217 335 217 286Q217 237 251 203Q285 169 334 169Q383 169 417.50 203Z"  horiz-adv-x="669" vert-adv-y="1000"  />

      
      <glyph glyph-name="unia5" unicode="&#xa5;" d="M568 712L432 442L506 442L506 342L381 342L355 292L355 241L506 241L506 141L355 141L355 0L217 0L217 141L65 141L65 241L217 241L217 292L191 342L65 342L65 442L140 442L3 712L154 712L286 424L418 712L568 712Z"  horiz-adv-x="571" vert-adv-y="1000"  />

      
      <glyph glyph-name="unia6" unicode="&#xa6;" d="M240 436L110 436L110 786L240 786L240 436M240-74L110-74L110 276L240 276L240-74Z"  horiz-adv-x="353" vert-adv-y="1000"  />

      
      <glyph glyph-name="unia7" unicode="&#xa7;" d="M473 274Q473 224 445 184Q417 144 383 125Q464 84 464-14Q464-101 405.50-149Q347-197 266-197Q185-197 126.50-152.50Q68-108 67-19L192-19Q194-47 213.50-64.50Q233-82 266-82Q300-82 319.50-64.50Q339-47 339-18Q339 33 269 56L207 77Q132 102 96.50 145Q61 188 61 265Q61 316 89 355.50Q117 395 152 414Q76 454 76 545Q76 618 126 668Q176 718 268 718Q362 718 410.50 670Q459 622 460 546L338 546Q335 607 268 607Q234 607 216 590.50Q198 574 198 548Q198 504 265 482L327 462Q402 438 437.50 394Q473 350 473 274M348 269Q348 312 323 337Q300 358 267 358Q231 358 210 337Q186 313 186 269Q186 226 210 202Q231 181 267 181Q302 181 323 202Q348 227 348 269Z"  horiz-adv-x="531" vert-adv-y="1000"  />

      
      <glyph glyph-name="unia8" unicode="&#xa8;" d="M416 606L305 606L305 731L416 731L416 606M195 606L84 606L84 731L195 731L195 606Z"  horiz-adv-x="500" vert-adv-y="1000"  />

      
      <glyph glyph-name="unia9" unicode="&#xa9;" d="M678 612Q678 612 731 559Q784 506 784 356Q784 206 678 100Q572-6 422-6Q272-6 166 100Q60 206 60 356Q60 506 166 612Q272 718 422 718Q572 718 678 612M618 155.50Q618 155.50 657.50 195.75Q697 236 697 356Q697 476 618 556.50Q539 637 422 637Q305 637 225.50 556.50Q146 476 146 356Q146 236 225.50 155.50Q305 75 422 75Q539 75 618 155.50M561 212Q503 160 429 160Q351 160 300.50 211.50Q250 263 250 356Q250 449 300.50 501Q351 553 429 553Q500 553 561 500L505 444Q467 476 429 476Q383 476 359 444Q335 412 335 356Q335 300 359 268Q383 236 429 236Q467 236 505 268L561 212Z"  horiz-adv-x="844" vert-adv-y="1000"  />

      
      <glyph glyph-name="uniaa" unicode="&#xaa;" d="M392 296L289 296L289 332Q249 292 188 292Q119 292 83 330Q48 365 48 422Q48 475 84.50 509Q121 543 190 543L287 543L287 563Q287 597 269 612.50Q251 628 210 628Q181 628 164.50 620.50Q148 613 131 594L64 659Q94 692 128 704.50Q162 717 215 717Q392 717 392 570L392 296M287 449L287 472L206 472Q179 472 164.50 459.50Q150 447 150 425Q150 379 207 379Q252 379 272 398Q287 412 287 449Z"  horiz-adv-x="454" vert-adv-y="1000"  />

      
      <glyph glyph-name="uniab" unicode="&#xab;" d="M562 27L312 275L562 523L562 368L466 275L562 182L562 27M283 27L34 275L283 523L283 368L189 275L283 182L283 27Z"  horiz-adv-x="628" vert-adv-y="1000"  />

      
      <glyph glyph-name="uniac" unicode="&#xac;" d="M497 94L376 94L376 239L46 239L46 360L497 360L497 94Z"  horiz-adv-x="543" vert-adv-y="1000"  />

      
      <glyph glyph-name="uniad" unicode="&#xad;" d="M367 225L59 225L59 346L367 346L367 225Z"  horiz-adv-x="426" vert-adv-y="1000"  />

      
      <glyph glyph-name="uniae" unicode="&#xae;" d="M678 612Q678 612 731 559Q784 506 784 356Q784 206 678 100Q572-6 422-6Q272-6 166 100Q60 206 60 356Q60 506 166 612Q272 718 422 718Q572 718 678 612M618.50 155.50Q618.50 155.50 658.25 195.75Q698 236 698 356Q698 476 618.50 556.50Q539 637 422 637Q305 637 225.50 556.50Q146 476 146 356Q146 236 225.50 155.50Q305 75 422 75Q539 75 618.50 155.50M585 164L487 164L417 313L376 313L376 164L290 164L290 549L447 549Q504 549 539.50 513.50Q575 478 575 428Q575 391 555 364.50Q535 338 504 326L585 164M474 392.50Q474 392.50 481.50 399.75Q489 407 489 428Q489 449 474 463.50Q459 478 436 478L376 478L376 378L436 378Q459 378 474 392.50Z"  horiz-adv-x="844" vert-adv-y="1000"  />

      
      <glyph glyph-name="uniaf" unicode="&#xaf;" d="M408 623L91 623L91 711L408 711L408 623Z"  horiz-adv-x="500" vert-adv-y="1000"  />

      
      <glyph glyph-name="unib0" unicode="&#xb0;" d="M423 542Q423 466 369.50 412Q316 358 239 358Q162 358 108.50 412Q55 466 55 542Q55 619 109 673Q163 727 239 727Q315 727 369 673Q423 619 423 542M295 485Q295 485 306.50 496.50Q318 508 318 542Q318 576 294.50 599Q271 622 238 622Q205 622 182.50 599Q160 576 160 542Q160 508 183 485Q206 462 239 462Q272 462 295 485Z"  horiz-adv-x="478" vert-adv-y="1000"  />

      
      <glyph glyph-name="unib1" unicode="&#xb1;" d="M493 341L333 341L333 180L211 180L211 341L50 341L50 462L211 462L211 623L333 623L333 462L493 462L493 341M493 0L50 0L50 122L493 122L493 0Z"  horiz-adv-x="543" vert-adv-y="1000"  />

      
      <glyph glyph-name="unib2" unicode="&#xb2;" d="M306 285L34 285L34 370L190 541Q212 564 212 588Q212 608 201 619.50Q190 631 170 631Q128 631 128 587L34 587Q34 647 72.50 681.50Q111 716 170 716Q230 716 268 681.50Q306 647 306 588Q306 558 294 536.50Q282 515 254 484L149 370L306 370L306 285Z"  horiz-adv-x="332" vert-adv-y="1000"  />

      
      <glyph glyph-name="unib3" unicode="&#xb3;" d="M310 412Q310 349 269.50 315Q229 281 169 281Q110 281 69 314Q28 347 28 413L122 413Q122 390 135 377.50Q148 365 169 365Q190 365 203 378Q216 391 216 415Q216 436 202.50 449.50Q189 463 167 463L154 463L154 544L167 544Q189 544 200 556.50Q211 569 211 587Q211 608 199 619.50Q187 631 169 631Q151 631 139 620Q127 609 127 589L33 589Q33 647 72 681.50Q111 716 169 716Q228 716 266.50 680.50Q305 645 305 590Q305 533 260 506Q310 474 310 412Z"  horiz-adv-x="332" vert-adv-y="1000"  />

      
      <glyph glyph-name="unib4" unicode="&#xb4;" d="M396 774L282 604L195 604L259 774L396 774Z"  horiz-adv-x="500" vert-adv-y="1000"  />

      
      <glyph glyph-name="unib5" unicode="&#xb5;" d="M503 0L376 0L376 48Q325-6 246-6Q219-6 200 8L200-191L70-191L70 521L200 521L200 206Q200 157 225.50 134Q251 111 286 111Q322 111 347.50 134Q373 157 373 206L373 521L503 521L503 0Z"  horiz-adv-x="576" vert-adv-y="1000"  />

      
      <glyph glyph-name="unib6" unicode="&#xb6;" d="M585-191L455-191L455 588L355 588L355-191L225-191L225 308Q149 308 92 367.50Q35 427 35 509Q35 606 97.50 659Q160 712 266 712L585 712L585-191Z"  horiz-adv-x="668" vert-adv-y="1000"  />

      
      <glyph glyph-name="unib7" unicode="&#xb7;" d="M217 212L68 212L68 360L217 360L217 212Z"  horiz-adv-x="285" vert-adv-y="1000"  />

      
      <glyph glyph-name="unib8" unicode="&#xb8;" d="M325-60L281-206L160-206L229-60L325-60Z"  horiz-adv-x="500" vert-adv-y="1000"  />

      
      <glyph glyph-name="unib9" unicode="&#xb9;" d="M239 285L144 285L144 606L54 528L54 634L144 712L239 712L239 285Z"  horiz-adv-x="332" vert-adv-y="1000"  />

      
      <glyph glyph-name="uniba" unicode="&#xba;" d="M396.50 600Q396.50 600 401.75 581.50Q407 563 407 504Q407 445 397 408.50Q387 372 359 343Q310 292 231 292Q152 292 103 343Q75 372 65 408.50Q55 445 55 504Q55 563 65.50 600Q76 637 103 666Q152 717 231 717Q310 717 359 666Q386 637 396.50 600M302 504Q302 582 279 605Q261 623 231 623Q201 623 183 605Q160 582 160 504Q160 427 183 404Q201 386 231 386Q261 386 279 404Q302 427 302 504Z"  horiz-adv-x="462" vert-adv-y="1000"  />

      
      <glyph glyph-name="unibb" unicode="&#xbb;" d="M595 275L345 27L345 182L439 275L345 368L345 523L595 275M316 275L67 27L67 182L162 275L67 368L67 523L316 275Z"  horiz-adv-x="628" vert-adv-y="1000"  />

      
      <glyph glyph-name="unibc" unicode="&#xbc;" d="M239 285L144 285L144 606L54 528L54 634L144 712L239 712L239 285M655 712L318 0L217 0L554 712L655 712M857 57L824 57L824 0L734 0L734 57L558 57L558 146L701 427L804 427L660 146L734 146L734 208L824 208L824 146L857 146L857 57Z"  horiz-adv-x="872" vert-adv-y="1000"  />

      
      <glyph glyph-name="unibd" unicode="&#xbd;" d="M239 285L144 285L144 606L54 528L54 634L144 712L239 712L239 285M655 712L318 0L217 0L554 712L655 712M846 0L574 0L574 85L730 256Q752 279 752 303Q752 323 741 334.50Q730 346 710 346Q668 346 668 302L574 302Q574 362 612.50 396.50Q651 431 710 431Q770 431 808 396.50Q846 362 846 303Q846 273 834 251.50Q822 230 794 199L689 85L846 85L846 0Z"  horiz-adv-x="872" vert-adv-y="1000"  />

      
      <glyph glyph-name="unibe" unicode="&#xbe;" d="M310 412Q310 349 269.50 315Q229 281 169 281Q110 281 69 314Q28 347 28 413L122 413Q122 390 135 377.50Q148 365 169 365Q190 365 203 378Q216 391 216 415Q216 436 202.50 449.50Q189 463 167 463L154 463L154 544L167 544Q189 544 200 556.50Q211 569 211 587Q211 608 199 619.50Q187 631 169 631Q151 631 139 620Q127 609 127 589L33 589Q33 647 72 681.50Q111 716 169 716Q228 716 266.50 680.50Q305 645 305 590Q305 533 260 506Q310 474 310 412M655 712L318 0L217 0L554 712L655 712M857 57L824 57L824 0L734 0L734 57L558 57L558 146L701 427L804 427L660 146L734 146L734 208L824 208L824 146L857 146L857 57Z"  horiz-adv-x="872" vert-adv-y="1000"  />

      
      <glyph glyph-name="unibf" unicode="&#xbf;" d="M457 4Q457-87 396.50-142Q336-197 246-197Q158-197 97-143Q36-89 36 3Q36 63 85 128L159 227Q177 250 177 278L177 298L307 298L307 268Q307 214 269 164L195 69Q166 31 166 2Q166-34 187.50-57Q209-80 246-80Q284-80 305.50-56Q327-32 327 4L457 4M311 388L173 388L173 521L311 521L311 388Z"  horiz-adv-x="523" vert-adv-y="1000"  />

      
      <glyph glyph-name="unic0" unicode="&#xc0;" d="M633 0L488 0L446 126L193 126L150 0L5 0L264 712L373 712L633 0M409 243L322 502L232 243L409 243M372 781L285 781L171 951L308 951L372 781Z"  horiz-adv-x="638" vert-adv-y="1000"  />

      
      <glyph glyph-name="unic1" unicode="&#xc1;" d="M633 0L488 0L446 126L193 126L150 0L5 0L264 712L373 712L633 0M409 243L322 502L232 243L409 243M463 951L349 781L262 781L326 951L463 951Z"  horiz-adv-x="638" vert-adv-y="1000"  />

      
      <glyph glyph-name="unic2" unicode="&#xc2;" d="M633 0L488 0L446 126L193 126L150 0L5 0L264 712L373 712L633 0M409 243L322 502L232 243L409 243M501 781L400 781L317 872L234 781L133 781L265 950L369 950L501 781Z"  horiz-adv-x="638" vert-adv-y="1000"  />

      
      <glyph glyph-name="unic3" unicode="&#xc3;" d="M633 0L488 0L446 126L193 126L150 0L5 0L264 712L373 712L633 0M409 243L322 502L232 243L409 243M497 849Q438 790 384 790Q344 790 306 813Q275 831 250 831Q221 831 192 802L136 859Q194 918 248 918Q287 918 325 895Q355 877 380 877Q410 877 439 906L497 849Z"  horiz-adv-x="638" vert-adv-y="1000"  />

      
      <glyph glyph-name="unic4" unicode="&#xc4;" d="M633 0L488 0L446 126L193 126L150 0L5 0L264 712L373 712L633 0M409 243L322 502L232 243L409 243M485 783L374 783L374 908L485 908L485 783M264 783L153 783L153 908L264 908L264 783Z"  horiz-adv-x="638" vert-adv-y="1000"  />

      
      <glyph glyph-name="unic5" unicode="&#xc5;" d="M633 0L488 0L446 126L193 126L150 0L5 0L264 712L373 712L633 0M409 243L322 502L232 243L409 243M448 884Q448 830 409.50 791.50Q371 753 317 753Q263 753 224.50 791.50Q186 830 186 884Q186 938 224.50 976.50Q263 1015 317 1015Q371 1015 409.50 977Q448 939 448 884M358 842.50Q358 842.50 366.50 851.25Q375 860 375 884Q375 908 358 925Q341 942 317 942Q293 942 276 925Q259 908 259 884Q259 860 276 842.50Q293 825 317 825Q341 825 358 842.50Z"  horiz-adv-x="638" vert-adv-y="1000"  />

      
      <glyph glyph-name="unic6" unicode="&#xc6;" d="M926 0L458 0L458 156L233 156L152 0L3 0L375 712L926 712L926 588L596 588L596 420L878 420L878 296L596 296L596 124L926 124L926 0M458 273L458 588L293 273L458 273Z"  horiz-adv-x="979" vert-adv-y="1000"  />

      
      <glyph glyph-name="unic7" unicode="&#xc7;" d="M583 219Q564 110 494 52Q424-6 322-6Q208-6 131 69Q82 118 70.50 176.50Q59 235 59 356Q59 477 70.50 535.50Q82 594 131 643Q208 718 322 718Q424 718 494 660Q564 602 583 493L441 493Q417 594 322 594Q265 594 233 557Q213 534 205.50 494.50Q198 455 198 356Q198 257 205.50 217.50Q213 178 233 155Q265 118 322 118Q418 118 442 219L583 219M379-60L335-206L214-206L283-60L379-60Z"  horiz-adv-x="620" vert-adv-y="1000"  />

      
      <glyph glyph-name="unic8" unicode="&#xc8;" d="M552 0L83 0L83 712L552 712L552 588L222 588L222 421L503 421L503 297L222 297L222 124L552 124L552 0M365 781L278 781L164 951L301 951L365 781Z"  horiz-adv-x="605" vert-adv-y="1000"  />

      
      <glyph glyph-name="unic9" unicode="&#xc9;" d="M552 0L83 0L83 712L552 712L552 588L222 588L222 421L503 421L503 297L222 297L222 124L552 124L552 0M455 951L341 781L254 781L318 951L455 951Z"  horiz-adv-x="605" vert-adv-y="1000"  />

      
      <glyph glyph-name="unica" unicode="&#xca;" d="M552 0L83 0L83 712L552 712L552 588L222 588L222 421L503 421L503 297L222 297L222 124L552 124L552 0M494 781L393 781L310 872L227 781L126 781L258 950L362 950L494 781Z"  horiz-adv-x="605" vert-adv-y="1000"  />

      
      <glyph glyph-name="unicb" unicode="&#xcb;" d="M552 0L83 0L83 712L552 712L552 588L222 588L222 421L503 421L503 297L222 297L222 124L552 124L552 0M476 783L365 783L365 908L476 908L476 783M255 783L144 783L144 908L255 908L255 783Z"  horiz-adv-x="605" vert-adv-y="1000"  />

      
      <glyph glyph-name="unicc" unicode="&#xcc;" d="M222 0L83 0L83 712L222 712L222 0M222 781L135 781L21 951L158 951L222 781Z"  horiz-adv-x="305" vert-adv-y="1000"  />

      
      <glyph glyph-name="unicd" unicode="&#xcd;" d="M222 0L83 0L83 712L222 712L222 0M284 951L170 781L83 781L147 951L284 951Z"  horiz-adv-x="305" vert-adv-y="1000"  />

      
      <glyph glyph-name="unice" unicode="&#xce;" d="M222 0L83 0L83 712L222 712L222 0M336 781L235 781L152 872L69 781L-32 781L100 950L204 950L336 781Z"  horiz-adv-x="305" vert-adv-y="1000"  />

      
      <glyph glyph-name="unicf" unicode="&#xcf;" d="M222 0L83 0L83 712L222 712L222 0M319 783L208 783L208 908L319 908L319 783M98 783L-13 783L-13 908L98 908L98 783Z"  horiz-adv-x="305" vert-adv-y="1000"  />

      
      <glyph glyph-name="unid0" unicode="&#xd0;" d="M615.50 513.50Q615.50 513.50 619.25 487.25Q623 461 623 356Q623 251 615.50 198.50Q608 146 578 104Q503 0 363 0L106 0L106 306L37 306L37 412L106 412L106 712L363 712Q503 712 578 608Q608 566 615.50 513.50M479 228Q479 228 481.50 247Q484 266 484 356Q484 446 479 484Q474 522 455 544Q420 588 351 588L245 588L245 412L361 412L361 306L245 306L245 124L351 124Q420 124 455 168Q474 190 479 228Z"  horiz-adv-x="682" vert-adv-y="1000"  />

      
      <glyph glyph-name="unid1" unicode="&#xd1;" d="M628 0L504 0L222 437L222 0L83 0L83 712L207 712L489 276L489 712L628 712L628 0M536 849Q477 790 423 790Q383 790 345 813Q314 831 289 831Q260 831 231 802L175 859Q233 918 287 918Q326 918 364 895Q394 877 419 877Q449 877 478 906L536 849Z"  horiz-adv-x="711" vert-adv-y="1000"  />

      
      <glyph glyph-name="unid2" unicode="&#xd2;" d="M573 535Q573 535 579 505.50Q585 476 585 356Q585 236 573 177Q561 118 512 69Q437-6 322-6Q206-6 131 69Q82 118 70.50 176.50Q59 235 59 356Q59 477 70.50 535.50Q82 594 131 643Q206 718 322 718Q437 718 512 643Q561 594 573 535M446 356Q446 455 438.50 494Q431 533 411 556Q378 594 322 594Q267 594 232 556Q212 533 205 494Q198 455 198 356Q198 257 205 218.50Q212 180 232 157Q268 118 322 118Q377 118 411 157Q431 181 438.50 219.50Q446 258 446 356M377 781L290 781L176 951L313 951L377 781Z"  horiz-adv-x="644" vert-adv-y="1000"  />

      
      <glyph glyph-name="unid3" unicode="&#xd3;" d="M573 535Q573 535 579 505.50Q585 476 585 356Q585 236 573 177Q561 118 512 69Q437-6 322-6Q206-6 131 69Q82 118 70.50 176.50Q59 235 59 356Q59 477 70.50 535.50Q82 594 131 643Q206 718 322 718Q437 718 512 643Q561 594 573 535M446 356Q446 455 438.50 494Q431 533 411 556Q378 594 322 594Q267 594 232 556Q212 533 205 494Q198 455 198 356Q198 257 205 218.50Q212 180 232 157Q268 118 322 118Q377 118 411 157Q431 181 438.50 219.50Q446 258 446 356M468 951L354 781L267 781L331 951L468 951Z"  horiz-adv-x="644" vert-adv-y="1000"  />

      
      <glyph glyph-name="unid4" unicode="&#xd4;" d="M573 535Q573 535 579 505.50Q585 476 585 356Q585 236 573 177Q561 118 512 69Q437-6 322-6Q206-6 131 69Q82 118 70.50 176.50Q59 235 59 356Q59 477 70.50 535.50Q82 594 131 643Q206 718 322 718Q437 718 512 643Q561 594 573 535M446 356Q446 455 438.50 494Q431 533 411 556Q378 594 322 594Q267 594 232 556Q212 533 205 494Q198 455 198 356Q198 257 205 218.50Q212 180 232 157Q268 118 322 118Q377 118 411 157Q431 181 438.50 219.50Q446 258 446 356M506 781L405 781L322 872L239 781L138 781L270 950L374 950L506 781Z"  horiz-adv-x="644" vert-adv-y="1000"  />

      
      <glyph glyph-name="unid5" unicode="&#xd5;" d="M573 535Q573 535 579 505.50Q585 476 585 356Q585 236 573 177Q561 118 512 69Q437-6 322-6Q206-6 131 69Q82 118 70.50 176.50Q59 235 59 356Q59 477 70.50 535.50Q82 594 131 643Q206 718 322 718Q437 718 512 643Q561 594 573 535M446 356Q446 455 438.50 494Q431 533 411 556Q378 594 322 594Q267 594 232 556Q212 533 205 494Q198 455 198 356Q198 257 205 218.50Q212 180 232 157Q268 118 322 118Q377 118 411 157Q431 181 438.50 219.50Q446 258 446 356M502 849Q443 790 389 790Q349 790 311 813Q280 831 255 831Q226 831 197 802L141 859Q199 918 253 918Q292 918 330 895Q360 877 385 877Q415 877 444 906L502 849Z"  horiz-adv-x="644" vert-adv-y="1000"  />

      
      <glyph glyph-name="unid6" unicode="&#xd6;" d="M573 535Q573 535 579 505.50Q585 476 585 356Q585 236 573 177Q561 118 512 69Q437-6 322-6Q206-6 131 69Q82 118 70.50 176.50Q59 235 59 356Q59 477 70.50 535.50Q82 594 131 643Q206 718 322 718Q437 718 512 643Q561 594 573 535M446 356Q446 455 438.50 494Q431 533 411 556Q378 594 322 594Q267 594 232 556Q212 533 205 494Q198 455 198 356Q198 257 205 218.50Q212 180 232 157Q268 118 322 118Q377 118 411 157Q431 181 438.50 219.50Q446 258 446 356M488 783L377 783L377 908L488 908L488 783M267 783L156 783L156 908L267 908L267 783Z"  horiz-adv-x="644" vert-adv-y="1000"  />

      
      <glyph glyph-name="unid7" unicode="&#xd7;" d="M494 145L412 63L271 204L131 63L49 145L190 286L49 427L131 509L271 368L412 509L494 427L353 286L494 145Z"  horiz-adv-x="543" vert-adv-y="1000"  />

      
      <glyph glyph-name="unid8" unicode="&#xd8;" d="M573 535Q573 535 579 505.50Q585 476 585 356Q585 236 573 177Q561 118 512 69Q437-6 322-6Q257-6 209 15L180-44L81-44L134 66L131 69Q82 118 70.50 176.50Q59 235 59 356Q59 477 70.50 535.50Q82 594 131 643Q206 718 322 718Q383 718 435 696L464 756L562 756L509 646L512 643Q561 594 573 535M446 356Q446 465 436 506L258 135Q286 118 322 118Q377 118 411 157Q431 181 438.50 219.50Q446 258 446 356M198 356Q198 243 207 206L385 577Q357 594 322 594Q267 594 232 556Q212 533 205 494Q198 455 198 356Z"  horiz-adv-x="644" vert-adv-y="1000"  />

      
      <glyph glyph-name="unid9" unicode="&#xd9;" d="M596 244Q596 133 521 63.50Q446-6 334-6Q222-6 147 63.50Q72 133 72 244L72 712L211 712L211 249Q211 188 244 153Q277 118 334 118Q391 118 424.50 153Q458 188 458 249L458 712L596 712L596 244M389 781L302 781L188 951L325 951L389 781Z"  horiz-adv-x="668" vert-adv-y="1000"  />

      
      <glyph glyph-name="unida" unicode="&#xda;" d="M596 244Q596 133 521 63.50Q446-6 334-6Q222-6 147 63.50Q72 133 72 244L72 712L211 712L211 249Q211 188 244 153Q277 118 334 118Q391 118 424.50 153Q458 188 458 249L458 712L596 712L596 244M480 951L366 781L279 781L343 951L480 951Z"  horiz-adv-x="668" vert-adv-y="1000"  />

      
      <glyph glyph-name="unidb" unicode="&#xdb;" d="M596 244Q596 133 521 63.50Q446-6 334-6Q222-6 147 63.50Q72 133 72 244L72 712L211 712L211 249Q211 188 244 153Q277 118 334 118Q391 118 424.50 153Q458 188 458 249L458 712L596 712L596 244M518 781L417 781L334 872L251 781L150 781L282 950L386 950L518 781Z"  horiz-adv-x="668" vert-adv-y="1000"  />

      
      <glyph glyph-name="unidc" unicode="&#xdc;" d="M596 244Q596 133 521 63.50Q446-6 334-6Q222-6 147 63.50Q72 133 72 244L72 712L211 712L211 249Q211 188 244 153Q277 118 334 118Q391 118 424.50 153Q458 188 458 249L458 712L596 712L596 244M500 783L389 783L389 908L500 908L500 783M279 783L168 783L168 908L279 908L279 783Z"  horiz-adv-x="668" vert-adv-y="1000"  />

      
      <glyph glyph-name="unidd" unicode="&#xdd;" d="M569 712L355 292L355 0L217 0L217 292L3 712L154 712L287 425L418 712L569 712M431 951L317 781L230 781L294 951L431 951Z"  horiz-adv-x="572" vert-adv-y="1000"  />

      
      <glyph glyph-name="unide" unicode="&#xde;" d="M530 517.50Q530 517.50 562 485.75Q594 454 594 360Q594 266 530 202Q466 138 359 138L222 138L222 0L83 0L83 712L222 712L222 581L359 581Q466 581 530 517.50M427 289Q427 289 441 302.50Q455 316 455 360Q455 404 427 430.50Q399 457 352 457L222 457L222 262L352 262Q399 262 427 289Z"  horiz-adv-x="633" vert-adv-y="1000"  />

      
      <glyph glyph-name="unidf" unicode="&#xdf;" d="M516 161Q516 85 475 42Q435 0 349 0L297 0L297 110L323 110Q350 110 367 125Q385 140 385 172L385 316Q385 346 370 361Q355 377 325 377L297 377L297 479L325 479Q351 479 368 494Q385 509 385 539Q385 567 366 585Q343 605 296 605Q246 605 224.50 581.50Q203 558 203 511L203 0L73 0L73 521Q73 621 134.50 669.50Q196 718 298 718Q397 718 456 674Q515 630 515 543Q515 467 454 430Q516 400 516 321L516 161Z"  horiz-adv-x="574" vert-adv-y="1000"  />

      
      <glyph glyph-name="unie0" unicode="&#xe0;" d="M467 0L340 0L340 45Q313 18 284.50 6.50Q256-5 212-5Q125-5 79 41Q36 86 36 158Q36 224 82 266.50Q128 309 216 309L337 309L337 335Q337 378 314 397.50Q291 417 240 417Q179 417 140 372L58 453Q96 495 137.50 511Q179 527 245 527Q467 527 467 343L467 0M337 192L337 220L238 220Q161 220 161 160Q161 101 240 101Q291 101 317 126Q337 143 337 192M316 604L229 604L115 774L252 774L316 604Z"  horiz-adv-x="534" vert-adv-y="1000"  />

      
      <glyph glyph-name="unie1" unicode="&#xe1;" d="M467 0L340 0L340 45Q313 18 284.50 6.50Q256-5 212-5Q125-5 79 41Q36 86 36 158Q36 224 82 266.50Q128 309 216 309L337 309L337 335Q337 378 314 397.50Q291 417 240 417Q179 417 140 372L58 453Q96 495 137.50 511Q179 527 245 527Q467 527 467 343L467 0M337 192L337 220L238 220Q161 220 161 160Q161 101 240 101Q291 101 317 126Q337 143 337 192M407 774L293 604L206 604L270 774L407 774Z"  horiz-adv-x="534" vert-adv-y="1000"  />

      
      <glyph glyph-name="unie2" unicode="&#xe2;" d="M467 0L340 0L340 45Q313 18 284.50 6.50Q256-5 212-5Q125-5 79 41Q36 86 36 158Q36 224 82 266.50Q128 309 216 309L337 309L337 335Q337 378 314 397.50Q291 417 240 417Q179 417 140 372L58 453Q96 495 137.50 511Q179 527 245 527Q467 527 467 343L467 0M337 192L337 220L238 220Q161 220 161 160Q161 101 240 101Q291 101 317 126Q337 143 337 192M445 604L344 604L261 695L178 604L77 604L209 773L313 773L445 604Z"  horiz-adv-x="534" vert-adv-y="1000"  />

      
      <glyph glyph-name="unie3" unicode="&#xe3;" d="M467 0L340 0L340 45Q313 18 284.50 6.50Q256-5 212-5Q125-5 79 41Q36 86 36 158Q36 224 82 266.50Q128 309 216 309L337 309L337 335Q337 378 314 397.50Q291 417 240 417Q179 417 140 372L58 453Q96 495 137.50 511Q179 527 245 527Q467 527 467 343L467 0M337 192L337 220L238 220Q161 220 161 160Q161 101 240 101Q291 101 317 126Q337 143 337 192M436 671Q378 613 323 613Q284 613 246 635Q215 653 190 653Q160 653 132 625L75 682Q133 740 187 740Q227 740 265 718Q295 699 320 699Q349 699 378 728L436 671Z"  horiz-adv-x="534" vert-adv-y="1000"  />

      
      <glyph glyph-name="unie4" unicode="&#xe4;" d="M467 0L340 0L340 45Q313 18 284.50 6.50Q256-5 212-5Q125-5 79 41Q36 86 36 158Q36 224 82 266.50Q128 309 216 309L337 309L337 335Q337 378 314 397.50Q291 417 240 417Q179 417 140 372L58 453Q96 495 137.50 511Q179 527 245 527Q467 527 467 343L467 0M337 192L337 220L238 220Q161 220 161 160Q161 101 240 101Q291 101 317 126Q337 143 337 192M428 606L317 606L317 731L428 731L428 606M207 606L96 606L96 731L207 731L207 606Z"  horiz-adv-x="534" vert-adv-y="1000"  />

      
      <glyph glyph-name="unie5" unicode="&#xe5;" d="M467 0L340 0L340 45Q313 18 284.50 6.50Q256-5 212-5Q125-5 79 41Q36 86 36 158Q36 224 82 266.50Q128 309 216 309L337 309L337 335Q337 378 314 397.50Q291 417 240 417Q179 417 140 372L58 453Q96 495 137.50 511Q179 527 245 527Q467 527 467 343L467 0M337 192L337 220L238 220Q161 220 161 160Q161 101 240 101Q291 101 317 126Q337 143 337 192M392 715Q392 661 353.50 622.50Q315 584 261 584Q207 584 168.50 622.50Q130 661 130 715Q130 769 168.50 807.50Q207 846 261 846Q315 846 353.50 808Q392 770 392 715M302 673.50Q302 673.50 310.50 682.25Q319 691 319 715Q319 739 302 756Q285 773 261 773Q237 773 220 756Q203 739 203 715Q203 691 220 673.50Q237 656 261 656Q285 656 302 673.50Z"  horiz-adv-x="534" vert-adv-y="1000"  />

      
      <glyph glyph-name="unie6" unicode="&#xe6;" d="M337 192L337 220L238 220Q161 220 161 160Q161 101 240 101Q291 101 317 126Q337 143 337 192M663 309Q662 343 651 365Q628 419 564 419Q500 419 477 365Q467 343 465 309L663 309M395 67Q356 26 316.50 10Q277-6 212-6Q126-6 79 41Q36 86 36 158Q36 224 82 266.50Q128 309 216 309L337 309L337 335Q337 378 314 397.50Q291 417 240 417Q179 417 140 372L58 453Q96 495 137.50 511Q179 527 245 527Q364 527 416 470Q470 527 564 527Q671 527 731 457.50Q791 388 791 275L791 220L465 220Q465 168 495 136Q525 104 579 104Q619 104 644.50 115.50Q670 127 697 153L776 76Q734 33 689.50 13.50Q645-6 578-6Q458-6 395 67Z"  horiz-adv-x="838" vert-adv-y="1000"  />

      
      <glyph glyph-name="unie7" unicode="&#xe7;" d="M452 65Q384-6 280-6Q247-6 216 1.50Q185 9 153.50 27.50Q122 46 99 75.50Q76 105 61.50 152.50Q47 200 47 261Q47 322 61.50 369.50Q76 417 99 446Q122 475 153.50 494Q185 513 216 520Q247 527 280 527Q385 527 452 457L364 369Q326 410 280 410Q234 410 206 376Q177 340 177 261Q177 181 206 145Q234 111 280 111Q326 111 364 152L452 65M325-60L281-206L160-206L229-60L325-60Z"  horiz-adv-x="480" vert-adv-y="1000"  />

      
      <glyph glyph-name="unie8" unicode="&#xe8;" d="M501 220L175 220Q175 168 205 136Q235 104 289 104Q329 104 354.50 115.50Q380 127 407 153L486 76Q444 33 399.50 13.50Q355-6 288-6Q238-6 197.50 6.50Q157 19 122 48Q87 77 67 131Q47 185 47 261Q47 386 109 456.50Q171 527 274 527Q381 527 441 457.50Q501 388 501 275L501 220M373 309Q372 343 361 365Q337 419 274 419Q211 419 187 365Q176 343 175 309L373 309M332 604L245 604L131 774L268 774L332 604Z"  horiz-adv-x="548" vert-adv-y="1000"  />

      
      <glyph glyph-name="unie9" unicode="&#xe9;" d="M501 220L175 220Q175 168 205 136Q235 104 289 104Q329 104 354.50 115.50Q380 127 407 153L486 76Q444 33 399.50 13.50Q355-6 288-6Q238-6 197.50 6.50Q157 19 122 48Q87 77 67 131Q47 185 47 261Q47 386 109 456.50Q171 527 274 527Q381 527 441 457.50Q501 388 501 275L501 220M373 309Q372 343 361 365Q337 419 274 419Q211 419 187 365Q176 343 175 309L373 309M423 774L309 604L222 604L286 774L423 774Z"  horiz-adv-x="548" vert-adv-y="1000"  />

      
      <glyph glyph-name="uniea" unicode="&#xea;" d="M501 220L175 220Q175 168 205 136Q235 104 289 104Q329 104 354.50 115.50Q380 127 407 153L486 76Q444 33 399.50 13.50Q355-6 288-6Q238-6 197.50 6.50Q157 19 122 48Q87 77 67 131Q47 185 47 261Q47 386 109 456.50Q171 527 274 527Q381 527 441 457.50Q501 388 501 275L501 220M373 309Q372 343 361 365Q337 419 274 419Q211 419 187 365Q176 343 175 309L373 309M461 604L360 604L277 695L194 604L93 604L225 773L329 773L461 604Z"  horiz-adv-x="548" vert-adv-y="1000"  />

      
      <glyph glyph-name="unieb" unicode="&#xeb;" d="M501 220L175 220Q175 168 205 136Q235 104 289 104Q329 104 354.50 115.50Q380 127 407 153L486 76Q444 33 399.50 13.50Q355-6 288-6Q238-6 197.50 6.50Q157 19 122 48Q87 77 67 131Q47 185 47 261Q47 386 109 456.50Q171 527 274 527Q381 527 441 457.50Q501 388 501 275L501 220M373 309Q372 343 361 365Q337 419 274 419Q211 419 187 365Q176 343 175 309L373 309M443 606L332 606L332 731L443 731L443 606M222 606L111 606L111 731L222 731L222 606Z"  horiz-adv-x="548" vert-adv-y="1000"  />

      
      <glyph glyph-name="uniec" unicode="&#xec;" d="M203 0L73 0L73 506L203 506L203 0M202 604L115 604L1 774L138 774L202 604Z"  horiz-adv-x="275" vert-adv-y="1000"  />

      
      <glyph glyph-name="unied" unicode="&#xed;" d="M203 0L73 0L73 506L203 506L203 0M273 774L159 604L72 604L136 774L273 774Z"  horiz-adv-x="275" vert-adv-y="1000"  />

      
      <glyph glyph-name="uniee" unicode="&#xee;" d="M203 0L73 0L73 506L203 506L203 0M321 604L220 604L137 695L54 604L-47 604L85 773L189 773L321 604Z"  horiz-adv-x="275" vert-adv-y="1000"  />

      
      <glyph glyph-name="unief" unicode="&#xef;" d="M203 0L73 0L73 506L203 506L203 0M304 606L193 606L193 731L304 731L304 606M83 606L-28 606L-28 731L83 731L83 606Z"  horiz-adv-x="275" vert-adv-y="1000"  />

      
      <glyph glyph-name="unif0" unicode="&#xf0;" d="M486 254Q486 181 473.50 136Q461 91 428 56Q368-6 271-6Q174-6 114 56Q81 91 68.50 136Q56 181 56 254Q56 326 68.50 371Q81 416 114 451Q146 485 203 500Q232 508 261 508Q273 508 279 507L245 569L131 569L131 660L199 660L168 720L307 720L338 660L430 660L430 569L384 569L424 492Q461 420 473.50 373Q486 326 486 254M356 254Q356 346 329 374Q307 396 271 396Q236 396 214 374Q186 345 186 254Q186 162 214 133Q236 111 271 111Q307 111 329 133Q356 161 356 254Z"  horiz-adv-x="543" vert-adv-y="1000"  />

      
      <glyph glyph-name="unif1" unicode="&#xf1;" d="M506 0L376 0L376 315Q376 364 350.50 387Q325 410 290 410Q254 410 228.50 387Q203 364 203 315L203 0L73 0L73 521L200 521L200 473Q251 527 330 527Q407 527 453 481Q506 428 506 333L506 0M465 671Q407 613 352 613Q314 613 275 635Q244 653 219 653Q189 653 161 625L104 682Q162 740 216 740Q256 740 294 718Q324 699 349 699Q378 699 407 728L465 671Z"  horiz-adv-x="573" vert-adv-y="1000"  />

      
      <glyph glyph-name="unif2" unicode="&#xf2;" d="M492 261Q492 186 479.50 139.50Q467 93 433 58Q371-6 271-6Q172-6 110 58Q76 94 63.50 140.50Q51 187 51 261Q51 335 63.50 381Q76 427 110 463Q172 527 271 527Q373 527 433 463Q467 427 479.50 381Q492 335 492 261M362 261Q362 358 332 387Q309 410 271 410Q234 410 211 387Q181 358 181 261Q181 163 211 134Q234 111 271 111Q309 111 332 134Q362 163 362 261M323 604L236 604L122 774L259 774L323 604Z"  horiz-adv-x="543" vert-adv-y="1000"  />

      
      <glyph glyph-name="unif3" unicode="&#xf3;" d="M492 261Q492 186 479.50 139.50Q467 93 433 58Q371-6 271-6Q172-6 110 58Q76 94 63.50 140.50Q51 187 51 261Q51 335 63.50 381Q76 427 110 463Q172 527 271 527Q373 527 433 463Q467 427 479.50 381Q492 335 492 261M362 261Q362 358 332 387Q309 410 271 410Q234 410 211 387Q181 358 181 261Q181 163 211 134Q234 111 271 111Q309 111 332 134Q362 163 362 261M418 774L304 604L217 604L281 774L418 774Z"  horiz-adv-x="543" vert-adv-y="1000"  />

      
      <glyph glyph-name="unif4" unicode="&#xf4;" d="M492 261Q492 186 479.50 139.50Q467 93 433 58Q371-6 271-6Q172-6 110 58Q76 94 63.50 140.50Q51 187 51 261Q51 335 63.50 381Q76 427 110 463Q172 527 271 527Q373 527 433 463Q467 427 479.50 381Q492 335 492 261M362 261Q362 358 332 387Q309 410 271 410Q234 410 211 387Q181 358 181 261Q181 163 211 134Q234 111 271 111Q309 111 332 134Q362 163 362 261M456 604L355 604L272 695L189 604L88 604L220 773L324 773L456 604Z"  horiz-adv-x="543" vert-adv-y="1000"  />

      
      <glyph glyph-name="unif5" unicode="&#xf5;" d="M492 261Q492 186 479.50 139.50Q467 93 433 58Q371-6 271-6Q172-6 110 58Q76 94 63.50 140.50Q51 187 51 261Q51 335 63.50 381Q76 427 110 463Q172 527 271 527Q373 527 433 463Q467 427 479.50 381Q492 335 492 261M362 261Q362 358 332 387Q309 410 271 410Q234 410 211 387Q181 358 181 261Q181 163 211 134Q234 111 271 111Q309 111 332 134Q362 163 362 261M447 671Q389 613 334 613Q296 613 257 635Q226 653 201 653Q171 653 143 625L86 682Q144 740 198 740Q238 740 276 718Q306 699 331 699Q360 699 389 728L447 671Z"  horiz-adv-x="543" vert-adv-y="1000"  />

      
      <glyph glyph-name="unif6" unicode="&#xf6;" d="M492 261Q492 186 479.50 139.50Q467 93 433 58Q371-6 271-6Q172-6 110 58Q76 94 63.50 140.50Q51 187 51 261Q51 335 63.50 381Q76 427 110 463Q172 527 271 527Q373 527 433 463Q467 427 479.50 381Q492 335 492 261M362 261Q362 358 332 387Q309 410 271 410Q234 410 211 387Q181 358 181 261Q181 163 211 134Q234 111 271 111Q309 111 332 134Q362 163 362 261M438 606L327 606L327 731L438 731L438 606M217 606L106 606L106 731L217 731L217 606Z"  horiz-adv-x="543" vert-adv-y="1000"  />

      
      <glyph glyph-name="unif7" unicode="&#xf7;" d="M497 225L46 225L46 346L497 346L497 225M337 423L207 423L207 553L337 553L337 423M337 18L207 18L207 148L337 148L337 18Z"  horiz-adv-x="543" vert-adv-y="1000"  />

      
      <glyph glyph-name="unif8" unicode="&#xf8;" d="M480 381Q480 381 486 358.50Q492 336 492 261Q492 186 479.50 139.50Q467 93 433 58Q373-6 271-6Q213-6 167 17L131-44L52-44L111 57Q76 94 63.50 139.50Q51 185 51 261Q51 335 63.50 381.50Q76 428 110 463Q170 527 271 527Q332 527 376 505L411 565L491 565L432 465Q468 426 480 381M362 261Q362 314 354 346L223 124Q244 111 271 111Q309 111 332 134Q362 164 362 261M320 397Q299 410 271 410Q234 410 211 387Q181 357 181 261Q181 203 188 175L320 397Z"  horiz-adv-x="543" vert-adv-y="1000"  />

      
      <glyph glyph-name="unif9" unicode="&#xf9;" d="M500 0L373 0L373 48Q322-6 243-6Q166-6 120 40Q67 93 67 188L67 521L197 521L197 206Q197 157 222.50 134Q248 111 283 111Q319 111 344.50 134Q370 157 370 206L370 521L500 521L500 0M338 604L251 604L137 774L274 774L338 604Z"  horiz-adv-x="573" vert-adv-y="1000"  />

      
      <glyph glyph-name="unifa" unicode="&#xfa;" d="M500 0L373 0L373 48Q322-6 243-6Q166-6 120 40Q67 93 67 188L67 521L197 521L197 206Q197 157 222.50 134Q248 111 283 111Q319 111 344.50 134Q370 157 370 206L370 521L500 521L500 0M429 774L315 604L228 604L292 774L429 774Z"  horiz-adv-x="573" vert-adv-y="1000"  />

      
      <glyph glyph-name="unifb" unicode="&#xfb;" d="M500 0L373 0L373 48Q322-6 243-6Q166-6 120 40Q67 93 67 188L67 521L197 521L197 206Q197 157 222.50 134Q248 111 283 111Q319 111 344.50 134Q370 157 370 206L370 521L500 521L500 0M467 604L366 604L283 695L200 604L99 604L231 773L335 773L467 604Z"  horiz-adv-x="573" vert-adv-y="1000"  />

      
      <glyph glyph-name="unifc" unicode="&#xfc;" d="M500 0L373 0L373 48Q322-6 243-6Q166-6 120 40Q67 93 67 188L67 521L197 521L197 206Q197 157 222.50 134Q248 111 283 111Q319 111 344.50 134Q370 157 370 206L370 521L500 521L500 0M450 606L339 606L339 731L450 731L450 606M229 606L118 606L118 731L229 731L229 606Z"  horiz-adv-x="573" vert-adv-y="1000"  />

      
      <glyph glyph-name="unifd" unicode="&#xfd;" d="M490 521L267-84Q250-129 228-151Q188-191 116-191L65-191L65-74L95-74Q123-74 136.50-64.50Q150-55 160-27L182 37L4 521L141 521L249 199L353 521L490 521M390 774L276 604L189 604L253 774L390 774Z"  horiz-adv-x="494" vert-adv-y="1000"  />

      
      <glyph glyph-name="unife" unicode="&#xfe;" d="M499 393.50Q499 393.50 504 367.75Q509 342 509 261Q509 180 499 128Q489 76 455 41Q410-6 329-6Q248-6 203 46L203-191L73-191L73 712L203 712L203 475Q248 527 329 527Q410 527 455 480Q489 445 499 393.50M376 201.50Q376 201.50 377.50 213.25Q379 225 379 261Q379 297 376 320.50Q373 344 364.50 366Q356 388 337.50 399Q319 410 291 410Q263 410 244.50 399Q226 388 217.50 366Q209 344 206 320.50Q203 297 203 261Q203 225 206 201.50Q209 178 217.50 155.50Q226 133 244.50 122Q263 111 291 111Q319 111 337.50 122Q356 133 364.50 155.50Q373 178 376 201.50Z"  horiz-adv-x="562" vert-adv-y="1000"  />

      
      <glyph glyph-name="uniff" unicode="&#xff;" d="M490 521L267-84Q250-129 228-151Q188-191 116-191L65-191L65-74L95-74Q123-74 136.50-64.50Q150-55 160-27L182 37L4 521L141 521L249 199L353 521L490 521M415 606L304 606L304 731L415 731L415 606M194 606L83 606L83 731L194 731L194 606Z"  horiz-adv-x="494" vert-adv-y="1000"  />

      
      <glyph glyph-name="uni0100" unicode="&#x0100;" d="M633 0L488 0L446 126L193 126L150 0L5 0L264 712L373 712L633 0M409 243L322 502L232 243L409 243M159 793L159 881L476 881L476 793L159 793Z"  horiz-adv-x="638" vert-adv-y="1000"  />

      
      <glyph glyph-name="uni0101" unicode="&#x0101;" d="M467 0L340 0L340 45Q313 18 284.50 6.50Q256-5 212-5Q125-5 79 41Q36 86 36 158Q36 224 82 266.50Q128 309 216 309L337 309L337 335Q337 378 314 397.50Q291 417 240 417Q179 417 140 372L58 453Q96 495 137.50 511Q179 527 245 527Q467 527 467 343L467 0M337 192L337 220L238 220Q161 220 161 160Q161 101 240 101Q291 101 317 126Q337 143 337 192M424 623L107 623L107 711L424 711L424 623Z"  horiz-adv-x="534" vert-adv-y="1000"  />

      
      <glyph glyph-name="uni0102" unicode="&#x0102;" d="M633 0L488 0L446 126L193 126L150 0L5 0L264 712L373 712L633 0M409 243L322 502L232 243L409 243M482 930Q478 853 433 816Q388 779 318 779Q248 779 202.50 816Q157 853 154 930L241 930Q248 870 318 870Q388 870 395 930L482 930Z"  horiz-adv-x="638" vert-adv-y="1000"  />

      
      <glyph glyph-name="uni0103" unicode="&#x0103;" d="M467 0L340 0L340 45Q313 18 284.50 6.50Q256-5 212-5Q125-5 79 41Q36 86 36 158Q36 224 82 266.50Q128 309 216 309L337 309L337 335Q337 378 314 397.50Q291 417 240 417Q179 417 140 372L58 453Q96 495 137.50 511Q179 527 245 527Q467 527 467 343L467 0M337 192L337 220L238 220Q161 220 161 160Q161 101 240 101Q291 101 317 126Q337 143 337 192M419 748Q415 671 370 634Q325 597 255 597Q185 597 139.50 634Q94 671 91 748L178 748Q185 688 255 688Q325 688 332 748L419 748Z"  horiz-adv-x="534" vert-adv-y="1000"  />

      
      <glyph glyph-name="uni0104" unicode="&#x0104;" d="M633 0L488 0L446 126L193 126L150 0L5 0L264 712L373 712L633 0M409 243L322 502L232 243L409 243M584-60L540-206L419-206L488-60L584-60Z"  horiz-adv-x="638" vert-adv-y="1000"  />

      
      <glyph glyph-name="uni0105" unicode="&#x0105;" d="M467 0L340 0L340 45Q313 18 284.50 6.50Q256-5 212-5Q125-5 79 41Q36 86 36 158Q36 224 82 266.50Q128 309 216 309L337 309L337 335Q337 378 314 397.50Q291 417 240 417Q179 417 140 372L58 453Q96 495 137.50 511Q179 527 245 527Q467 527 467 343L467 0M337 192L337 220L238 220Q161 220 161 160Q161 101 240 101Q291 101 317 126Q337 143 337 192M436-60L392-206L271-206L340-60L436-60Z"  horiz-adv-x="534" vert-adv-y="1000"  />

      
      <glyph glyph-name="uni0106" unicode="&#x0106;" d="M583 219Q564 110 494 52Q424-6 322-6Q208-6 131 69Q82 118 70.50 176.50Q59 235 59 356Q59 477 70.50 535.50Q82 594 131 643Q208 718 322 718Q424 718 494 660Q564 602 583 493L441 493Q417 594 322 594Q265 594 233 557Q213 534 205.50 494.50Q198 455 198 356Q198 257 205.50 217.50Q213 178 233 155Q265 118 322 118Q418 118 442 219L583 219M456 951L342 781L255 781L319 951L456 951Z"  horiz-adv-x="620" vert-adv-y="1000"  />

      
      <glyph glyph-name="uni0107" unicode="&#x0107;" d="M452 65Q384-6 280-6Q247-6 216 1.50Q185 9 153.50 27.50Q122 46 99 75.50Q76 105 61.50 152.50Q47 200 47 261Q47 322 61.50 369.50Q76 417 99 446Q122 475 153.50 494Q185 513 216 520Q247 527 280 527Q385 527 452 457L364 369Q326 410 280 410Q234 410 206 376Q177 340 177 261Q177 181 206 145Q234 111 280 111Q326 111 364 152L452 65M411 774L297 604L210 604L274 774L411 774Z"  horiz-adv-x="480" vert-adv-y="1000"  />

      
      <glyph glyph-name="uni0108" unicode="&#x0108;" d="M583 219Q564 110 494 52Q424-6 322-6Q208-6 131 69Q82 118 70.50 176.50Q59 235 59 356Q59 477 70.50 535.50Q82 594 131 643Q208 718 322 718Q424 718 494 660Q564 602 583 493L441 493Q417 594 322 594Q265 594 233 557Q213 534 205.50 494.50Q198 455 198 356Q198 257 205.50 217.50Q213 178 233 155Q265 118 322 118Q418 118 442 219L583 219M506 781L405 781L322 872L239 781L138 781L270 950L374 950L506 781Z"  horiz-adv-x="620" vert-adv-y="1000"  />

      
      <glyph glyph-name="uni0109" unicode="&#x0109;" d="M452 65Q384-6 280-6Q247-6 216 1.50Q185 9 153.50 27.50Q122 46 99 75.50Q76 105 61.50 152.50Q47 200 47 261Q47 322 61.50 369.50Q76 417 99 446Q122 475 153.50 494Q185 513 216 520Q247 527 280 527Q385 527 452 457L364 369Q326 410 280 410Q234 410 206 376Q177 340 177 261Q177 181 206 145Q234 111 280 111Q326 111 364 152L452 65M464 604L363 604L280 695L197 604L96 604L228 773L332 773L464 604Z"  horiz-adv-x="480" vert-adv-y="1000"  />

      
      <glyph glyph-name="uni010A" unicode="&#x010A;" d="M583 219Q564 110 494 52Q424-6 322-6Q208-6 131 69Q82 118 70.50 176.50Q59 235 59 356Q59 477 70.50 535.50Q82 594 131 643Q208 718 322 718Q424 718 494 660Q564 602 583 493L441 493Q417 594 322 594Q265 594 233 557Q213 534 205.50 494.50Q198 455 198 356Q198 257 205.50 217.50Q213 178 233 155Q265 118 322 118Q418 118 442 219L583 219M261 789L261 905L376 905L376 789L261 789Z"  horiz-adv-x="620" vert-adv-y="1000"  />

      
      <glyph glyph-name="uni010B" unicode="&#x010B;" d="M452 65Q384-6 280-6Q247-6 216 1.50Q185 9 153.50 27.50Q122 46 99 75.50Q76 105 61.50 152.50Q47 200 47 261Q47 322 61.50 369.50Q76 417 99 446Q122 475 153.50 494Q185 513 216 520Q247 527 280 527Q385 527 452 457L364 369Q326 410 280 410Q234 410 206 376Q177 340 177 261Q177 181 206 145Q234 111 280 111Q326 111 364 152L452 65M222 612L222 727L337 727L337 612L222 612Z"  horiz-adv-x="480" vert-adv-y="1000"  />

      
      <glyph glyph-name="uni010C" unicode="&#x010C;" d="M583 219Q564 110 494 52Q424-6 322-6Q208-6 131 69Q82 118 70.50 176.50Q59 235 59 356Q59 477 70.50 535.50Q82 594 131 643Q208 718 322 718Q424 718 494 660Q564 602 583 493L441 493Q417 594 322 594Q265 594 233 557Q213 534 205.50 494.50Q198 455 198 356Q198 257 205.50 217.50Q213 178 233 155Q265 118 322 118Q418 118 442 219L583 219M506 950L374 781L270 781L138 950L239 950L322 860L405 950L506 950Z"  horiz-adv-x="620" vert-adv-y="1000"  />

      
      <glyph glyph-name="uni010D" unicode="&#x010D;" d="M452 65Q384-6 280-6Q247-6 216 1.50Q185 9 153.50 27.50Q122 46 99 75.50Q76 105 61.50 152.50Q47 200 47 261Q47 322 61.50 369.50Q76 417 99 446Q122 475 153.50 494Q185 513 216 520Q247 527 280 527Q385 527 452 457L364 369Q326 410 280 410Q234 410 206 376Q177 340 177 261Q177 181 206 145Q234 111 280 111Q326 111 364 152L452 65M464 773L332 604L228 604L96 773L197 773L280 683L363 773L464 773Z"  horiz-adv-x="480" vert-adv-y="1000"  />

      
      <glyph glyph-name="uni010E" unicode="&#x010E;" d="M592.50 513.50Q592.50 513.50 596.25 487.25Q600 461 600 356Q600 251 592.50 198.50Q585 146 555 104Q480 0 340 0L83 0L83 712L340 712Q480 712 555 608Q585 566 592.50 513.50M456 228Q456 228 458.50 247Q461 266 461 356Q461 446 456 484Q451 522 432 544Q397 588 328 588L222 588L222 124L328 124Q397 124 432 168Q451 190 456 228M513 950L381 781L277 781L145 950L246 950L329 860L412 950L513 950Z"  horiz-adv-x="659" vert-adv-y="1000"  />

      
      <glyph glyph-name="uni010F" unicode="&#x010F;" d="M488 0L361 0L361 49Q312-6 232-6Q150-6 105 41Q71 76 61 128Q51 180 51 261Q51 341 61 393Q71 445 105 480Q150 527 231 527Q311 527 358 475L358 712L488 712L488 0M358 261Q358 334 340.50 372Q323 410 269 410Q241 410 222.50 399Q204 388 195.50 366Q187 344 184 320.50Q181 297 181 261Q181 225 184 201.50Q187 178 195.50 155.50Q204 133 222.50 122Q241 111 269 111Q297 111 315.50 122Q334 133 343 155Q352 177 355 201.50Q358 226 358 261M698 741L638 575L547 575L583 741L698 741Z"  horiz-adv-x="561" vert-adv-y="1000"  />

      
      <glyph glyph-name="uni0110" unicode="&#x0110;" d="M615.50 513.50Q615.50 513.50 619.25 487.25Q623 461 623 356Q623 251 615.50 198.50Q608 146 578 104Q503 0 363 0L106 0L106 306L37 306L37 412L106 412L106 712L363 712Q503 712 578 608Q608 566 615.50 513.50M479 228Q479 228 481.50 247Q484 266 484 356Q484 446 479 484Q474 522 455 544Q420 588 351 588L245 588L245 412L361 412L361 306L245 306L245 124L351 124Q420 124 455 168Q474 190 479 228Z"  horiz-adv-x="682" vert-adv-y="1000"  />

      
      <glyph glyph-name="uni0111" unicode="&#x0111;" d="M488 0L361 0L361 49Q312-6 232-6Q150-6 105 41Q71 76 61 128Q51 180 51 261Q51 341 61 393Q71 445 105 480Q150 527 231 527Q311 527 358 475L358 567L269 567L269 649L358 649L358 712L488 712L488 649L548 649L548 567L488 567L488 0M358 261Q358 334 340.50 372Q323 410 269 410Q241 410 222.50 399Q204 388 195.50 366Q187 344 184 320.50Q181 297 181 261Q181 225 184 201.50Q187 178 195.50 155.50Q204 133 222.50 122Q241 111 269 111Q297 111 315.50 122Q334 133 343 155Q352 177 355 201.50Q358 226 358 261Z"  horiz-adv-x="581" vert-adv-y="1000"  />

      
      <glyph glyph-name="uni0112" unicode="&#x0112;" d="M552 0L83 0L83 712L552 712L552 588L222 588L222 421L503 421L503 297L222 297L222 124L552 124L552 0M148 793L148 881L465 881L465 793L148 793Z"  horiz-adv-x="605" vert-adv-y="1000"  />

      
      <glyph glyph-name="uni0113" unicode="&#x0113;" d="M501 220L175 220Q175 168 205 136Q235 104 289 104Q329 104 354.50 115.50Q380 127 407 153L486 76Q444 33 399.50 13.50Q355-6 288-6Q238-6 197.50 6.50Q157 19 122 48Q87 77 67 131Q47 185 47 261Q47 386 109 456.50Q171 527 274 527Q381 527 441 457.50Q501 388 501 275L501 220M373 309Q372 343 361 365Q337 419 274 419Q211 419 187 365Q176 343 175 309L373 309M431 623L114 623L114 711L431 711L431 623Z"  horiz-adv-x="548" vert-adv-y="1000"  />

      
      <glyph glyph-name="uni0114" unicode="&#x0114;" d="M552 0L83 0L83 712L552 712L552 588L222 588L222 421L503 421L503 297L222 297L222 124L552 124L552 0M474 930Q470 853 425 816Q380 779 310 779Q240 779 194.50 816Q149 853 146 930L233 930Q240 870 310 870Q380 870 387 930L474 930Z"  horiz-adv-x="605" vert-adv-y="1000"  />

      
      <glyph glyph-name="uni0115" unicode="&#x0115;" d="M501 220L175 220Q175 168 205 136Q235 104 289 104Q329 104 354.50 115.50Q380 127 407 153L486 76Q444 33 399.50 13.50Q355-6 288-6Q238-6 197.50 6.50Q157 19 122 48Q87 77 67 131Q47 185 47 261Q47 386 109 456.50Q171 527 274 527Q381 527 441 457.50Q501 388 501 275L501 220M373 309Q372 343 361 365Q337 419 274 419Q211 419 187 365Q176 343 175 309L373 309M441 748Q437 671 392 634Q347 597 277 597Q207 597 161.50 634Q116 671 113 748L200 748Q207 688 277 688Q347 688 354 748L441 748Z"  horiz-adv-x="548" vert-adv-y="1000"  />

      
      <glyph glyph-name="uni0116" unicode="&#x0116;" d="M552 0L83 0L83 712L552 712L552 588L222 588L222 421L503 421L503 297L222 297L222 124L552 124L552 0M249 789L249 905L364 905L364 789L249 789Z"  horiz-adv-x="605" vert-adv-y="1000"  />

      
      <glyph glyph-name="uni0117" unicode="&#x0117;" d="M501 220L175 220Q175 168 205 136Q235 104 289 104Q329 104 354.50 115.50Q380 127 407 153L486 76Q444 33 399.50 13.50Q355-6 288-6Q238-6 197.50 6.50Q157 19 122 48Q87 77 67 131Q47 185 47 261Q47 386 109 456.50Q171 527 274 527Q381 527 441 457.50Q501 388 501 275L501 220M373 309Q372 343 361 365Q337 419 274 419Q211 419 187 365Q176 343 175 309L373 309M215 612L215 727L330 727L330 612L215 612Z"  horiz-adv-x="548" vert-adv-y="1000"  />

      
      <glyph glyph-name="uni0118" unicode="&#x0118;" d="M552 0L83 0L83 712L552 712L552 588L222 588L222 421L503 421L503 297L222 297L222 124L552 124L552 0M552-60L508-206L387-206L456-60L552-60Z"  horiz-adv-x="605" vert-adv-y="1000"  />

      
      <glyph glyph-name="uni0119" unicode="&#x0119;" d="M501 220L175 220Q175 168 205 136Q235 104 289 104Q329 104 354.50 115.50Q380 127 407 153L486 76Q444 33 399.50 13.50Q355-6 288-6Q238-6 197.50 6.50Q157 19 122 48Q87 77 67 131Q47 185 47 261Q47 386 109 456.50Q171 527 274 527Q381 527 441 457.50Q501 388 501 275L501 220M373 309Q372 343 361 365Q337 419 274 419Q211 419 187 365Q176 343 175 309L373 309M407-60L363-206L242-206L311-60L407-60Z"  horiz-adv-x="548" vert-adv-y="1000"  />

      
      <glyph glyph-name="uni011A" unicode="&#x011A;" d="M552 0L83 0L83 712L552 712L552 588L222 588L222 421L503 421L503 297L222 297L222 124L552 124L552 0M490 950L358 781L254 781L122 950L223 950L306 860L389 950L490 950Z"  horiz-adv-x="605" vert-adv-y="1000"  />

      
      <glyph glyph-name="uni011B" unicode="&#x011B;" d="M501 220L175 220Q175 168 205 136Q235 104 289 104Q329 104 354.50 115.50Q380 127 407 153L486 76Q444 33 399.50 13.50Q355-6 288-6Q238-6 197.50 6.50Q157 19 122 48Q87 77 67 131Q47 185 47 261Q47 386 109 456.50Q171 527 274 527Q381 527 441 457.50Q501 388 501 275L501 220M373 309Q372 343 361 365Q337 419 274 419Q211 419 187 365Q176 343 175 309L373 309M458 773L326 604L222 604L90 773L191 773L274 683L357 773L458 773Z"  horiz-adv-x="548" vert-adv-y="1000"  />

      
      <glyph glyph-name="uni011C" unicode="&#x011C;" d="M590 292Q590 213 575 164Q560 115 522 75Q445-6 321-6Q208-6 131 69Q82 118 70.50 176.50Q59 235 59 356Q59 477 70.50 535.50Q82 594 131 643Q208 718 321 718Q438 718 505.50 653Q573 588 589 490L449 490Q425 594 321 594Q267 594 232 556Q212 533 205 494Q198 455 198 356Q198 256 205 217Q212 178 232 155Q266 118 321 118Q385 118 420 158Q452 194 452 253L452 279L321 279L321 396L590 396L590 292M506 781L405 781L322 872L239 781L138 781L270 950L374 950L506 781Z"  horiz-adv-x="649" vert-adv-y="1000"  />

      
      <glyph glyph-name="uni011D" unicode="&#x011D;" d="M482 19Q482-76 419.50-136.50Q357-197 253-197Q191-197 147-182Q103-167 64-129L145-47Q186-87 247-87Q301-87 326.50-55.50Q352-24 352 21L352 74Q305 22 228 22Q150 22 104 68Q70 102 60.50 148.50Q51 195 51 275Q51 355 60.50 401Q70 447 104 481Q150 527 229 527Q306 527 356 472L356 521L482 521L482 19M352 275Q352 338 335 374Q318 410 266 410Q238 410 220.50 399.50Q203 389 194.50 368Q186 347 183.50 326Q181 305 181 275Q181 245 183.50 224Q186 203 194 182Q202 161 220 150Q238 139 266 139Q294 139 312 150Q330 161 338 182Q346 203 349 224Q352 245 352 275M450 604L349 604L266 695L183 604L82 604L214 773L318 773L450 604Z"  horiz-adv-x="555" vert-adv-y="1000"  />

      
      <glyph glyph-name="uni011E" unicode="&#x011E;" d="M590 292Q590 213 575 164Q560 115 522 75Q445-6 321-6Q208-6 131 69Q82 118 70.50 176.50Q59 235 59 356Q59 477 70.50 535.50Q82 594 131 643Q208 718 321 718Q438 718 505.50 653Q573 588 589 490L449 490Q425 594 321 594Q267 594 232 556Q212 533 205 494Q198 455 198 356Q198 256 205 217Q212 178 232 155Q266 118 321 118Q385 118 420 158Q452 194 452 253L452 279L321 279L321 396L590 396L590 292M485 930Q481 853 436 816Q391 779 321 779Q251 779 205.50 816Q160 853 157 930L244 930Q251 870 321 870Q391 870 398 930L485 930Z"  horiz-adv-x="649" vert-adv-y="1000"  />

      
      <glyph glyph-name="uni011F" unicode="&#x011F;" d="M482 19Q482-76 419.50-136.50Q357-197 253-197Q191-197 147-182Q103-167 64-129L145-47Q186-87 247-87Q301-87 326.50-55.50Q352-24 352 21L352 74Q305 22 228 22Q150 22 104 68Q70 102 60.50 148.50Q51 195 51 275Q51 355 60.50 401Q70 447 104 481Q150 527 229 527Q306 527 356 472L356 521L482 521L482 19M352 275Q352 338 335 374Q318 410 266 410Q238 410 220.50 399.50Q203 389 194.50 368Q186 347 183.50 326Q181 305 181 275Q181 245 183.50 224Q186 203 194 182Q202 161 220 150Q238 139 266 139Q294 139 312 150Q330 161 338 182Q346 203 349 224Q352 245 352 275M430 748Q426 671 381 634Q336 597 266 597Q196 597 150.50 634Q105 671 102 748L189 748Q196 688 266 688Q336 688 343 748L430 748Z"  horiz-adv-x="555" vert-adv-y="1000"  />

      
      <glyph glyph-name="uni0120" unicode="&#x0120;" d="M590 292Q590 213 575 164Q560 115 522 75Q445-6 321-6Q208-6 131 69Q82 118 70.50 176.50Q59 235 59 356Q59 477 70.50 535.50Q82 594 131 643Q208 718 321 718Q438 718 505.50 653Q573 588 589 490L449 490Q425 594 321 594Q267 594 232 556Q212 533 205 494Q198 455 198 356Q198 256 205 217Q212 178 232 155Q266 118 321 118Q385 118 420 158Q452 194 452 253L452 279L321 279L321 396L590 396L590 292M263 789L263 905L378 905L378 789L263 789Z"  horiz-adv-x="649" vert-adv-y="1000"  />

      
      <glyph glyph-name="uni0121" unicode="&#x0121;" d="M482 19Q482-76 419.50-136.50Q357-197 253-197Q191-197 147-182Q103-167 64-129L145-47Q186-87 247-87Q301-87 326.50-55.50Q352-24 352 21L352 74Q305 22 228 22Q150 22 104 68Q70 102 60.50 148.50Q51 195 51 275Q51 355 60.50 401Q70 447 104 481Q150 527 229 527Q306 527 356 472L356 521L482 521L482 19M352 275Q352 338 335 374Q318 410 266 410Q238 410 220.50 399.50Q203 389 194.50 368Q186 347 183.50 326Q181 305 181 275Q181 245 183.50 224Q186 203 194 182Q202 161 220 150Q238 139 266 139Q294 139 312 150Q330 161 338 182Q346 203 349 224Q352 245 352 275M208 612L208 727L323 727L323 612L208 612Z"  horiz-adv-x="555" vert-adv-y="1000"  />

      
      <glyph glyph-name="uni0122" unicode="&#x0122;" d="M590 292Q590 213 575 164Q560 115 522 75Q445-6 321-6Q208-6 131 69Q82 118 70.50 176.50Q59 235 59 356Q59 477 70.50 535.50Q82 594 131 643Q208 718 321 718Q438 718 505.50 653Q573 588 589 490L449 490Q425 594 321 594Q267 594 232 556Q212 533 205 494Q198 455 198 356Q198 256 205 217Q212 178 232 155Q266 118 321 118Q385 118 420 158Q452 194 452 253L452 279L321 279L321 396L590 396L590 292M399-60L355-206L234-206L303-60L399-60Z"  horiz-adv-x="649" vert-adv-y="1000"  />

      
      <glyph glyph-name="uni0123" unicode="&#x0123;" d="M482 19Q482-76 419.50-136.50Q357-197 253-197Q191-197 147-182Q103-167 64-129L145-47Q186-87 247-87Q301-87 326.50-55.50Q352-24 352 21L352 74Q305 22 228 22Q150 22 104 68Q70 102 60.50 148.50Q51 195 51 275Q51 355 60.50 401Q70 447 104 481Q150 527 229 527Q306 527 356 472L356 521L482 521L482 19M352 275Q352 338 335 374Q318 410 266 410Q238 410 220.50 399.50Q203 389 194.50 368Q186 347 183.50 326Q181 305 181 275Q181 245 183.50 224Q186 203 194 182Q202 161 220 150Q238 139 266 139Q294 139 312 150Q330 161 338 182Q346 203 349 224Q352 245 352 275M423 774L309 604L222 604L286 774L423 774Z"  horiz-adv-x="555" vert-adv-y="1000"  />

      
      <glyph glyph-name="uni0124" unicode="&#x0124;" d="M602 0L463 0L463 298L222 298L222 0L83 0L83 712L222 712L222 421L463 421L463 712L602 712L602 0M527 781L426 781L343 872L260 781L159 781L291 950L395 950L527 781Z"  horiz-adv-x="685" vert-adv-y="1000"  />

      
      <glyph glyph-name="uni0125" unicode="&#x0125;" d="M506 0L376 0L376 315Q376 364 350.50 387Q325 410 290 410Q254 410 228.50 387Q203 364 203 315L203 0L73 0L73 712L203 712L203 473Q252 527 330 527Q407 527 453 481Q506 428 506 333L506 0M323 781L222 781L139 872L56 781L-45 781L87 950L191 950L323 781Z"  horiz-adv-x="573" vert-adv-y="1000"  />

      
      <glyph glyph-name="uni0126" unicode="&#x0126;" d="M694 508L625 508L625 0L486 0L486 298L245 298L245 0L106 0L106 508L37 508L37 614L106 614L106 712L245 712L245 614L486 614L486 712L625 712L625 614L694 614L694 508M486 422L486 508L245 508L245 422L486 422Z"  horiz-adv-x="731" vert-adv-y="1000"  />

      
      <glyph glyph-name="uni0127" unicode="&#x0127;" d="M521 0L391 0L391 315Q391 364 365.50 387Q340 410 305 410Q269 410 243.50 387Q218 364 218 315L218 0L88 0L88 567L37 567L37 649L88 649L88 712L218 712L218 649L303 649L303 567L218 567L218 473Q268 527 345 527Q422 527 468 481Q521 428 521 333L521 0Z"  horiz-adv-x="588" vert-adv-y="1000"  />

      
      <glyph glyph-name="uni0128" unicode="&#x0128;" d="M222 0L83 0L83 712L222 712L222 0M332 849Q273 790 219 790Q179 790 141 813Q110 831 85 831Q56 831 27 802L-29 859Q29 918 83 918Q122 918 160 895Q190 877 215 877Q245 877 274 906L332 849Z"  horiz-adv-x="305" vert-adv-y="1000"  />

      
      <glyph glyph-name="uni0129" unicode="&#x0129;" d="M203 0L73 0L73 506L203 506L203 0M319 671Q261 613 206 613Q168 613 129 635Q98 653 73 653Q43 653 15 625L-42 682Q16 740 70 740Q110 740 148 718Q178 699 203 699Q232 699 261 728L319 671Z"  horiz-adv-x="275" vert-adv-y="1000"  />

      
      <glyph glyph-name="uni012A" unicode="&#x012A;" d="M222 0L83 0L83 712L222 712L222 0M-5 793L-5 881L312 881L312 793L-5 793Z"  horiz-adv-x="305" vert-adv-y="1000"  />

      
      <glyph glyph-name="uni012B" unicode="&#x012B;" d="M203 0L73 0L73 506L203 506L203 0M296 623L-21 623L-21 711L296 711L296 623Z"  horiz-adv-x="275" vert-adv-y="1000"  />

      
      <glyph glyph-name="uni012C" unicode="&#x012C;" d="M222 0L83 0L83 712L222 712L222 0M316 930Q312 853 267 816Q222 779 152 779Q82 779 36.50 816Q-9 853-12 930L75 930Q82 870 152 870Q222 870 229 930L316 930Z"  horiz-adv-x="305" vert-adv-y="1000"  />

      
      <glyph glyph-name="uni012D" unicode="&#x012D;" d="M203 0L73 0L73 506L203 506L203 0M302 748Q298 671 253 634Q208 597 138 597Q68 597 22.50 634Q-23 671-26 748L61 748Q68 688 138 688Q208 688 215 748L302 748Z"  horiz-adv-x="275" vert-adv-y="1000"  />

      
      <glyph glyph-name="uni012E" unicode="&#x012E;" d="M222 0L83 0L83 712L222 712L222 0M179-60L135-206L14-206L83-60L179-60Z"  horiz-adv-x="305" vert-adv-y="1000"  />

      
      <glyph glyph-name="uni012F" unicode="&#x012F;" d="M203 0L73 0L73 506L203 506L203 0M204 610L71 610L71 716L204 716L204 610M169-60L125-206L4-206L73-60L169-60Z"  horiz-adv-x="275" vert-adv-y="1000"  />

      
      <glyph glyph-name="uni0130" unicode="&#x0130;" d="M222 0L83 0L83 712L222 712L222 0M94 789L94 905L209 905L209 789L94 789Z"  horiz-adv-x="305" vert-adv-y="1000"  />

      
      <glyph glyph-name="uni0131" unicode="&#x0131;" d="M203 0L73 0L73 506L203 506L203 0Z"  horiz-adv-x="275" vert-adv-y="1000"  />

      
      <glyph glyph-name="uni0132" unicode="&#x0132;" d="M222 0L83 0L83 712L222 712L222 0M742 234Q742 121 669 57.50Q596-6 491-6Q433-6 390 11Q347 28 308 67L400 158Q440 118 491 118Q543 118 573 149Q603 180 603 240L603 712L742 712L742 234Z"  horiz-adv-x="816" vert-adv-y="1000"  />

      
      <glyph glyph-name="uni0133" unicode="&#x0133;" d="M203 0L73 0L73 506L203 506L203 0M204 610L71 610L71 716L204 716L204 610M478-46Q478-107 439.50-151Q401-195 326-195L252-195L252-85L302-85Q348-85 348-38L348 506L478 506L478-46M479 610L346 610L346 716L479 716L479 610Z"  horiz-adv-x="550" vert-adv-y="1000"  />

      
      <glyph glyph-name="uni0134" unicode="&#x0134;" d="M437 234Q437 121 364 57.50Q291-6 186-6Q128-6 85 11Q42 28 3 67L95 158Q135 118 186 118Q238 118 268 149Q298 180 298 240L298 712L437 712L437 234M551 781L450 781L367 872L284 781L183 781L315 950L419 950L551 781Z"  horiz-adv-x="511" vert-adv-y="1000"  />

      
      <glyph glyph-name="uni0135" unicode="&#x0135;" d="M203-46Q203-107 164.50-151Q126-195 51-195L-23-195L-23-85L27-85Q73-85 73-38L73 506L203 506L203-46M322 604L221 604L138 695L55 604L-46 604L86 773L190 773L322 604Z"  horiz-adv-x="275" vert-adv-y="1000"  />

      
      <glyph glyph-name="uni0136" unicode="&#x0136;" d="M659 0L497 0L314 324L222 214L222 0L83 0L83 712L222 712L222 402L473 712L642 712L406 429L659 0M431-60L387-206L266-206L335-60L431-60Z"  horiz-adv-x="665" vert-adv-y="1000"  />

      
      <glyph glyph-name="uni0137" unicode="&#x0137;" d="M547 0L386 0L258 217L203 155L203 0L73 0L73 712L203 712L203 308L376 521L533 521L347 311L547 0M354-60L310-206L189-206L258-60L354-60Z"  horiz-adv-x="559" vert-adv-y="1000"  />

      
      <glyph glyph-name="uni0138" unicode="&#x0138;" d="M547 0L386 0L258 217L203 155L203 0L73 0L73 521L203 521L203 308L376 521L533 521L347 311L547 0Z"  horiz-adv-x="559" vert-adv-y="1000"  />

      
      <glyph glyph-name="uni0139" unicode="&#x0139;" d="M545 0L83 0L83 712L222 712L222 124L545 124L545 0M284 951L170 781L83 781L147 951L284 951Z"  horiz-adv-x="575" vert-adv-y="1000"  />

      
      <glyph glyph-name="uni013A" unicode="&#x013A;" d="M294 0L220 0Q145 0 106.50 44Q68 88 68 149L68 712L198 712L198 157Q198 110 244 110L294 110L294 0M268 951L154 781L67 781L131 951L268 951Z"  horiz-adv-x="325" vert-adv-y="1000"  />

      
      <glyph glyph-name="uni013B" unicode="&#x013B;" d="M545 0L83 0L83 712L222 712L222 124L545 124L545 0M362-60L318-206L197-206L266-60L362-60Z"  horiz-adv-x="575" vert-adv-y="1000"  />

      
      <glyph glyph-name="uni013C" unicode="&#x013C;" d="M294 0L220 0Q145 0 106.50 44Q68 88 68 149L68 712L198 712L198 157Q198 110 244 110L294 110L294 0M238-60L194-206L73-206L142-60L238-60Z"  horiz-adv-x="325" vert-adv-y="1000"  />

      
      <glyph glyph-name="uni013D" unicode="&#x013D;" d="M545 0L83 0L83 712L222 712L222 124L545 124L545 0M468 712L408 546L317 546L353 712L468 712Z"  horiz-adv-x="575" vert-adv-y="1000"  />

      
      <glyph glyph-name="uni013E" unicode="&#x013E;" d="M294 0L220 0Q145 0 106.50 44Q68 88 68 149L68 712L198 712L198 157Q198 110 244 110L294 110L294 0M409 741L349 575L258 575L294 741L409 741Z"  horiz-adv-x="325" vert-adv-y="1000"  />

      
      <glyph glyph-name="uni013F" unicode="&#x013F;" d="M545 0L83 0L83 712L222 712L222 124L545 124L545 0M380 300L380 416L495 416L495 300L380 300Z"  horiz-adv-x="575" vert-adv-y="1000"  />

      
      <glyph glyph-name="uni0140" unicode="&#x0140;" d="M294 0L220 0Q145 0 106.50 44Q68 88 68 149L68 712L198 712L198 157Q198 110 244 110L294 110L294 0M282 228L282 343L397 343L397 228L282 228Z"  horiz-adv-x="414" vert-adv-y="1000"  />

      
      <glyph glyph-name="uni0141" unicode="&#x0141;" d="M563 0L101 0L101 244L37 203L37 319L101 360L101 712L240 712L240 447L368 528L368 413L240 332L240 124L563 124L563 0Z"  horiz-adv-x="593" vert-adv-y="1000"  />

      
      <glyph glyph-name="uni0142" unicode="&#x0142;" d="M309 0L235 0Q160 0 122 43.50Q84 87 84 149L84 302L30 269L30 378L84 412L84 712L214 712L214 490L274 527L274 418L214 380L214 157Q214 110 259 110L309 110L309 0Z"  horiz-adv-x="336" vert-adv-y="1000"  />

      
      <glyph glyph-name="uni0143" unicode="&#x0143;" d="M628 0L504 0L222 437L222 0L83 0L83 712L207 712L489 276L489 712L628 712L628 0M501 951L387 781L300 781L364 951L501 951Z"  horiz-adv-x="711" vert-adv-y="1000"  />

      
      <glyph glyph-name="uni0144" unicode="&#x0144;" d="M506 0L376 0L376 315Q376 364 350.50 387Q325 410 290 410Q254 410 228.50 387Q203 364 203 315L203 0L73 0L73 521L200 521L200 473Q251 527 330 527Q407 527 453 481Q506 428 506 333L506 0M429 774L315 604L228 604L292 774L429 774Z"  horiz-adv-x="573" vert-adv-y="1000"  />

      
      <glyph glyph-name="uni0145" unicode="&#x0145;" d="M628 0L504 0L222 437L222 0L83 0L83 712L207 712L489 276L489 712L628 712L628 0M430-60L386-206L265-206L334-60L430-60Z"  horiz-adv-x="711" vert-adv-y="1000"  />

      
      <glyph glyph-name="uni0146" unicode="&#x0146;" d="M506 0L376 0L376 315Q376 364 350.50 387Q325 410 290 410Q254 410 228.50 387Q203 364 203 315L203 0L73 0L73 521L200 521L200 473Q251 527 330 527Q407 527 453 481Q506 428 506 333L506 0M361-60L317-206L196-206L265-60L361-60Z"  horiz-adv-x="573" vert-adv-y="1000"  />

      
      <glyph glyph-name="uni0147" unicode="&#x0147;" d="M628 0L504 0L222 437L222 0L83 0L83 712L207 712L489 276L489 712L628 712L628 0M539 950L407 781L303 781L171 950L272 950L355 860L438 950L539 950Z"  horiz-adv-x="711" vert-adv-y="1000"  />

      
      <glyph glyph-name="uni0148" unicode="&#x0148;" d="M506 0L376 0L376 315Q376 364 350.50 387Q325 410 290 410Q254 410 228.50 387Q203 364 203 315L203 0L73 0L73 521L200 521L200 473Q251 527 330 527Q407 527 453 481Q506 428 506 333L506 0M470 773L338 604L234 604L102 773L203 773L286 683L369 773L470 773Z"  horiz-adv-x="573" vert-adv-y="1000"  />

      
      <glyph glyph-name="uni0149" unicode="&#x0149;" d="M506 0L376 0L376 315Q376 364 350.50 387Q325 410 290 410Q254 410 228.50 387Q203 364 203 315L203 0L73 0L73 521L200 521L200 473Q251 527 330 527Q407 527 453 481Q506 428 506 333L506 0M75 623L-38 535L-38 741L75 741L75 623Z"  horiz-adv-x="573" vert-adv-y="1000"  />

      
      <glyph glyph-name="uni014A" unicode="&#x014A;" d="M489 23L222 437L222 0L83 0L83 712L207 712L489 276L489 712L628 712L628-57Q628-118 589.50-162Q551-206 476-206L402-206L402-96L443-96Q489-96 489-49L489 23Z"  horiz-adv-x="711" vert-adv-y="1000"  />

      
      <glyph glyph-name="uni014B" unicode="&#x014B;" d="M376 315Q376 364 350.50 387Q325 410 290 410Q254 410 228.50 387Q203 364 203 315L203 0L73 0L73 521L200 521L200 473Q251 527 330 527Q407 527 453 481Q506 428 506 333L506-57Q506-118 467.50-162Q429-206 354-206L280-206L280-96L330-96Q376-96 376-49L376 315Z"  horiz-adv-x="573" vert-adv-y="1000"  />

      
      <glyph glyph-name="uni014C" unicode="&#x014C;" d="M573 535Q573 535 579 505.50Q585 476 585 356Q585 236 573 177Q561 118 512 69Q437-6 322-6Q206-6 131 69Q82 118 70.50 176.50Q59 235 59 356Q59 477 70.50 535.50Q82 594 131 643Q206 718 322 718Q437 718 512 643Q561 594 573 535M446 356Q446 455 438.50 494Q431 533 411 556Q378 594 322 594Q267 594 232 556Q212 533 205 494Q198 455 198 356Q198 257 205 218.50Q212 180 232 157Q268 118 322 118Q377 118 411 157Q431 181 438.50 219.50Q446 258 446 356M162 793L162 881L479 881L479 793L162 793Z"  horiz-adv-x="644" vert-adv-y="1000"  />

      
      <glyph glyph-name="uni014D" unicode="&#x014D;" d="M492 261Q492 186 479.50 139.50Q467 93 433 58Q371-6 271-6Q172-6 110 58Q76 94 63.50 140.50Q51 187 51 261Q51 335 63.50 381Q76 427 110 463Q172 527 271 527Q373 527 433 463Q467 427 479.50 381Q492 335 492 261M362 261Q362 358 332 387Q309 410 271 410Q234 410 211 387Q181 358 181 261Q181 163 211 134Q234 111 271 111Q309 111 332 134Q362 163 362 261M429 623L112 623L112 711L429 711L429 623Z"  horiz-adv-x="543" vert-adv-y="1000"  />

      
      <glyph glyph-name="uni014E" unicode="&#x014E;" d="M573 535Q573 535 579 505.50Q585 476 585 356Q585 236 573 177Q561 118 512 69Q437-6 322-6Q206-6 131 69Q82 118 70.50 176.50Q59 235 59 356Q59 477 70.50 535.50Q82 594 131 643Q206 718 322 718Q437 718 512 643Q561 594 573 535M446 356Q446 455 438.50 494Q431 533 411 556Q378 594 322 594Q267 594 232 556Q212 533 205 494Q198 455 198 356Q198 257 205 218.50Q212 180 232 157Q268 118 322 118Q377 118 411 157Q431 181 438.50 219.50Q446 258 446 356M486 932Q482 855 437 818Q392 781 322 781Q252 781 206.50 818Q161 855 158 932L245 932Q252 872 322 872Q392 872 399 932L486 932Z"  horiz-adv-x="644" vert-adv-y="1000"  />

      
      <glyph glyph-name="uni014F" unicode="&#x014F;" d="M492 261Q492 186 479.50 139.50Q467 93 433 58Q371-6 271-6Q172-6 110 58Q76 94 63.50 140.50Q51 187 51 261Q51 335 63.50 381Q76 427 110 463Q172 527 271 527Q373 527 433 463Q467 427 479.50 381Q492 335 492 261M362 261Q362 358 332 387Q309 410 271 410Q234 410 211 387Q181 358 181 261Q181 163 211 134Q234 111 271 111Q309 111 332 134Q362 163 362 261M436 748Q432 671 387 634Q342 597 272 597Q202 597 156.50 634Q111 671 108 748L195 748Q202 688 272 688Q342 688 349 748L436 748Z"  horiz-adv-x="543" vert-adv-y="1000"  />

      
      <glyph glyph-name="uni0150" unicode="&#x0150;" d="M573 535Q573 535 579 505.50Q585 476 585 356Q585 236 573 177Q561 118 512 69Q437-6 322-6Q206-6 131 69Q82 118 70.50 176.50Q59 235 59 356Q59 477 70.50 535.50Q82 594 131 643Q206 718 322 718Q437 718 512 643Q561 594 573 535M446 356Q446 455 438.50 494Q431 533 411 556Q378 594 322 594Q267 594 232 556Q212 533 205 494Q198 455 198 356Q198 257 205 218.50Q212 180 232 157Q268 118 322 118Q377 118 411 157Q431 181 438.50 219.50Q446 258 446 356M359 951L246 781L158 781L222 951L359 951M561 951L446 781L360 781L423 951L561 951Z"  horiz-adv-x="644" vert-adv-y="1000"  />

      
      <glyph glyph-name="uni0151" unicode="&#x0151;" d="M492 261Q492 186 479.50 139.50Q467 93 433 58Q371-6 271-6Q172-6 110 58Q76 94 63.50 140.50Q51 187 51 261Q51 335 63.50 381Q76 427 110 463Q172 527 271 527Q373 527 433 463Q467 427 479.50 381Q492 335 492 261M362 261Q362 358 332 387Q309 410 271 410Q234 410 211 387Q181 358 181 261Q181 163 211 134Q234 111 271 111Q309 111 332 134Q362 163 362 261M309 774L196 604L108 604L172 774L309 774M511 774L396 604L310 604L373 774L511 774Z"  horiz-adv-x="543" vert-adv-y="1000"  />

      
      <glyph glyph-name="uni0152" unicode="&#x0152;" d="M912 0L446 0L446 44Q427 22 391.50 8Q356-6 322-6Q208-6 131 69Q82 118 70.50 176.50Q59 235 59 356Q59 477 70.50 535.50Q82 594 131 643Q208 718 322 718Q399 718 446 668L446 712L911 712L911 588L585 588L585 421L863 421L863 297L585 297L585 124L912 124L912 0M446 356Q446 456 439 494.50Q432 533 411 556Q378 594 322 594Q267 594 232 556Q212 533 205 494Q198 455 198 356Q198 257 205 218.50Q212 180 232 157Q268 118 322 118Q377 118 411 157Q432 180 439 218.50Q446 257 446 356Z"  horiz-adv-x="966" vert-adv-y="1000"  />

      
      <glyph glyph-name="uni0153" unicode="&#x0153;" d="M816 220L490 220Q490 168 520 136Q550 104 604 104Q644 104 669.50 115.50Q695 127 721 153L801 76Q759 33 714.50 13.50Q670-6 603-6Q489-6 430 61Q375-6 271-6Q172-6 110 58Q76 94 63.50 140Q51 186 51 261Q51 335 63.50 381Q76 427 110 463Q172 527 271 527Q376 527 432 459Q489 527 589 527Q695 527 755.50 457.50Q816 388 816 278L816 220M688 309Q687 343 676 365Q652 419 589 419Q526 419 502 365Q491 343 490 309L688 309M362 261Q362 358 332 387Q309 410 271 410Q234 410 211 387Q181 358 181 261Q181 163 211 134Q234 111 271 111Q309 111 332 134Q362 163 362 261Z"  horiz-adv-x="863" vert-adv-y="1000"  />

      
      <glyph glyph-name="uni0154" unicode="&#x0154;" d="M622 0L461 0L322 284L222 284L222 0L83 0L83 712L362 712Q468 712 530.50 649Q593 586 593 494Q593 423 556 375Q519 327 463 307L622 0M426 426Q426 426 440 439Q454 452 454 494Q454 536 426 562Q398 588 353 588L222 588L222 400L353 400Q398 400 426 426M473 951L359 781L272 781L336 951L473 951Z"  horiz-adv-x="654" vert-adv-y="1000"  />

      
      <glyph glyph-name="uni0155" unicode="&#x0155;" d="M454 478L356 379Q325 410 287 410Q254 410 228.50 385Q203 360 203 314L203 0L73 0L73 521L200 521L200 471Q220 495 255.50 511Q291 527 331 527Q405 527 454 478M372 774L258 604L171 604L235 774L372 774Z"  horiz-adv-x="455" vert-adv-y="1000"  />

      
      <glyph glyph-name="uni0156" unicode="&#x0156;" d="M622 0L461 0L322 284L222 284L222 0L83 0L83 712L362 712Q468 712 530.50 649Q593 586 593 494Q593 423 556 375Q519 327 463 307L622 0M426 426Q426 426 440 439Q454 452 454 494Q454 536 426 562Q398 588 353 588L222 588L222 400L353 400Q398 400 426 426M402-60L358-206L237-206L306-60L402-60Z"  horiz-adv-x="654" vert-adv-y="1000"  />

      
      <glyph glyph-name="uni0157" unicode="&#x0157;" d="M454 478L356 379Q325 410 287 410Q254 410 228.50 385Q203 360 203 314L203 0L73 0L73 521L200 521L200 471Q220 495 255.50 511Q291 527 331 527Q405 527 454 478M188-60L144-206L23-206L92-60L188-60Z"  horiz-adv-x="455" vert-adv-y="1000"  />

      
      <glyph glyph-name="uni0158" unicode="&#x0158;" d="M622 0L461 0L322 284L222 284L222 0L83 0L83 712L362 712Q468 712 530.50 649Q593 586 593 494Q593 423 556 375Q519 327 463 307L622 0M426 426Q426 426 440 439Q454 452 454 494Q454 536 426 562Q398 588 353 588L222 588L222 400L353 400Q398 400 426 426M511 950L379 781L275 781L143 950L244 950L327 860L410 950L511 950Z"  horiz-adv-x="654" vert-adv-y="1000"  />

      
      <glyph glyph-name="uni0159" unicode="&#x0159;" d="M454 478L356 379Q325 410 287 410Q254 410 228.50 385Q203 360 203 314L203 0L73 0L73 521L200 521L200 471Q220 495 255.50 511Q291 527 331 527Q405 527 454 478M412 773L280 604L176 604L44 773L145 773L228 683L311 773L412 773Z"  horiz-adv-x="455" vert-adv-y="1000"  />

      
      <glyph glyph-name="uni015A" unicode="&#x015A;" d="M543 210Q543 109 469 51.50Q395-6 279-6Q194-6 132 15.50Q70 37 19 88L109 178Q169 118 280 118Q342 118 374.50 141Q407 164 407 207Q407 244 385 266Q366 284 321 290L236 303Q146 316 98 362Q47 412 47 502Q47 599 114 658.50Q181 718 295 718Q439 718 525 635L437 548Q387 597 291 597Q238 597 210 571.50Q182 546 182 507Q182 475 202 456Q225 435 267 429L352 416Q443 403 488 360Q543 309 543 210M448 951L334 781L247 781L311 951L448 951Z"  horiz-adv-x="591" vert-adv-y="1000"  />

      
      <glyph glyph-name="uni015B" unicode="&#x015B;" d="M465 164Q465 81 403 37.50Q341-6 244-6Q172-6 120 9Q68 24 22 69L107 154Q155 105 246 105Q284 105 311 118.50Q338 132 338 159Q338 202 283 207L199 215Q49 230 49 361Q49 439 107.50 483Q166 527 250 527Q383 527 449 466L369 385Q330 420 248 420Q211 420 192.50 405.50Q174 391 174 370Q174 331 228 325L310 317Q465 302 465 164M393 774L279 604L192 604L256 774L393 774Z"  horiz-adv-x="501" vert-adv-y="1000"  />

      
      </font>
</defs>
</svg>
