<?xml version="1.0" standalone="no"?>
  <!DOCTYPE svg PUBLIC "-//W3C//DTD SVG 1.1//EN" "http://www.w3.org/Graphics/SVG/1.1/DTD/svg11.dtd" >
  <svg>
  <metadata>
  Created by font-carrier
  </metadata>
  <defs>
  <font id="DINPro-Medium" horiz-adv-x="1228" vert-adv-y="1228" >
    <font-face
      
      font-family="DIN Pro Medium"
      
      font-weight="400"
      
      font-stretch="normal"
      
      units-per-em="1000"
      
      ascent="1000"
      
      descent="-211"
      
    />
      <missing-glyph />

      

      
      <glyph glyph-name="uni21" unicode="&#x21;" d="M245 712L223 212L143 212L121 712L245 712M239 0L127 0L127 109L239 109L239 0Z"  horiz-adv-x="332" vert-adv-y="1000"  />

      
      <glyph glyph-name="uni22" unicode="&#x22;" d="M366 521L265 521L265 712L366 712L366 521M179 521L78 521L78 712L179 712L179 521Z"  horiz-adv-x="444" vert-adv-y="1000"  />

      
      <glyph glyph-name="uni23" unicode="&#x23;" d="M623 426L531 426L511 302L590 302L590 208L496 208L463 0L357 0L390 208L253 208L221 0L114 0L147 208L68 208L68 302L162 302L182 426L101 426L101 520L196 520L227 716L334 716L303 520L439 520L470 716L576 716L545 520L623 520L623 426M424 426L288 426L268 302L405 302L424 426Z"  horiz-adv-x="672" vert-adv-y="1000"  />

      
      <glyph glyph-name="uni24" unicode="&#x24;" d="M556 203Q556 115 497 60.50Q438 6 340-3L340-114L258-114L258-6Q117 0 30 88L102 159Q165 96 267 91L267 313L241 316Q157 326 107 373Q54 423 54 509Q54 595 108.50 651Q163 707 258 716L258 806L340 806L340 717Q454 710 531 637L462 569Q411 617 331 623L331 407L365 402Q454 388 498 349Q556 298 556 203M449 200Q449 249 421 274Q397 296 338 304L331 305L331 93Q387 98 418 126Q449 154 449 200M267 414L267 622Q216 617 187.50 587.50Q159 558 159 513Q159 471 186 447Q215 421 267 414Z"  horiz-adv-x="608" vert-adv-y="1000"  />

      
      <glyph glyph-name="uni25" unicode="&#x25;" d="M784 130Q784 67 744 30Q704-7 644-7Q584-7 544 30Q504 67 504 130L504 231Q504 294 544 331Q584 368 644 368Q704 368 744 331Q784 294 784 231L784 130M338 481Q338 418 298 381.50Q258 345 198 345Q138 345 98 381.50Q58 418 58 481L58 582Q58 645 98 682Q138 719 198 719Q258 719 298 682Q338 645 338 582L338 481M629 712L294 0L212 0L548 712L629 712M707 133L707 228Q707 300 644 300Q581 300 581 228L581 133Q581 61 644 61Q707 61 707 133M261 484L261 579Q261 651 198 651Q135 651 135 579L135 484Q135 413 198 413Q261 413 261 484Z"  horiz-adv-x="842" vert-adv-y="1000"  />

      
      <glyph glyph-name="uni26" unicode="&#x26;" d="M684 0L553 0L495 70Q408-6 298-6Q188-6 128 51Q68 108 68 206Q68 273 105.50 318.50Q143 364 209 407Q187 432 174.50 449.50Q162 467 148.50 498Q135 529 135 560Q135 629 183 673.50Q231 718 309 718Q384 718 431 673Q478 628 478 559Q478 485 402 433L350 397L500 218Q537 270 538 361L636 361Q631 219 565 142L684 0M434 142L265 343Q233 321 216 306Q199 291 184 265Q169 239 169 208Q169 155 205.50 121Q242 87 298 87Q372 87 434 142M380 558Q380 588 360 608.50Q340 629 309 629Q277 629 258 609.50Q239 590 239 559Q239 525 294 461L328 484Q380 519 380 558Z"  horiz-adv-x="730" vert-adv-y="1000"  />

      
      <glyph glyph-name="uni27" unicode="&#x27;" d="M179 521L78 521L78 712L179 712L179 521Z"  horiz-adv-x="257" vert-adv-y="1000"  />

      
      <glyph glyph-name="uni28" unicode="&#x28;" d="M260-24L190-94Q128-32 109 1Q86 42 86 117L86 595Q86 670 109 711Q128 744 190 806L260 736Q257 733 247 723.50Q237 714 233.50 710Q230 706 223.50 699Q217 692 212.50 685Q208 678 204 670Q189 642 189 589L189 123Q189 71 204 42Q208 34 212.50 27Q217 20 223.50 13Q230 6 233.50 2Q237-2 247-11.50Q257-21 260-24Z"  horiz-adv-x="317" vert-adv-y="1000"  />

      
      <glyph glyph-name="uni29" unicode="&#x29;" d="M232 117Q232 43 208 1Q203-7 197-16Q191-25 186.50-31Q182-37 173-47Q164-57 160-61.50Q156-66 144-78Q132-90 128-94L58-24Q100 18 113 42Q128 68 128 123L128 589Q128 644 113 670Q100 694 58 736L128 806Q190 744 208 711Q232 670 232 595L232 117Z"  horiz-adv-x="317" vert-adv-y="1000"  />

      
      <glyph glyph-name="uni2a" unicode="&#x2a;" d="M424 466L387 401L276 470L280 339L205 339L209 470L98 401L61 466L176 527L61 589L98 654L209 585L205 715L280 715L276 585L387 654L424 589L309 527L424 466Z"  horiz-adv-x="485" vert-adv-y="1000"  />

      
      <glyph glyph-name="uni2b" unicode="&#x2b;" d="M482 225L314 225L314 57L219 57L219 225L51 225L51 320L219 320L219 487L314 487L314 320L482 320L482 225Z"  horiz-adv-x="533" vert-adv-y="1000"  />

      
      <glyph glyph-name="uni2c" unicode="&#x2c;" d="M194-60L78-155L78 116L194 116L194-60Z"  horiz-adv-x="272" vert-adv-y="1000"  />

      
      <glyph glyph-name="uni2d" unicode="&#x2d;" d="M359 230L67 230L67 325L359 325L359 230Z"  horiz-adv-x="426" vert-adv-y="1000"  />

      
      <glyph glyph-name="uni2e" unicode="&#x2e;" d="M200 0L78 0L78 122L200 122L200 0Z"  horiz-adv-x="278" vert-adv-y="1000"  />

      
      <glyph glyph-name="uni2f" unicode="&#x2f;" d="M383 786L98-74L0-74L285 786L383 786Z"  horiz-adv-x="380" vert-adv-y="1000"  />

      
      <glyph glyph-name="uni30" unicode="&#x30;" d="M472 198Q472 105 413 49.50Q354-6 266-6Q179-6 120 49.50Q61 105 61 198L61 514Q61 607 120 662.50Q179 718 266 718Q354 718 413 662.50Q472 607 472 514L472 198M370 201L370 511Q370 563 342 595Q314 627 266 627Q219 627 191 595Q163 563 163 511L163 201Q163 149 191 117Q219 85 266 85Q314 85 342 117Q370 149 370 201Z"  horiz-adv-x="533" vert-adv-y="1000"  />

      
      <glyph glyph-name="uni31" unicode="&#x31;" d="M355 0L253 0L253 601L114 479L114 592L253 712L355 712L355 0Z"  horiz-adv-x="533" vert-adv-y="1000"  />

      
      <glyph glyph-name="uni32" unicode="&#x32;" d="M477 0L63 0L63 91L337 424Q375 470 375 519Q375 568 347.50 597.50Q320 627 271 627Q226 627 196 600Q166 573 166 517L64 517Q64 607 122 662.50Q180 718 271 718Q363 718 420 663.50Q477 609 477 518Q477 474 461.50 441.50Q446 409 410 364L187 91L477 91L477 0Z"  horiz-adv-x="533" vert-adv-y="1000"  />

      
      <glyph glyph-name="uni33" unicode="&#x33;" d="M478 200Q478 101 416 47Q354-7 260-7Q168-7 106.50 43.50Q45 94 42 193L144 193Q147 139 179.50 112Q212 85 260 85Q311 85 343.50 116.50Q376 148 376 203Q376 258 346 289Q316 320 257 320L240 320L240 409L257 409Q311 409 338 438Q365 467 365 517Q365 569 335 598Q305 627 260 627Q214 627 185.50 599.50Q157 572 153 525L51 525Q55 614 114 666.50Q173 719 260 719Q351 719 409 663.50Q467 608 467 520Q467 412 378 368Q478 324 478 200Z"  horiz-adv-x="533" vert-adv-y="1000"  />

      
      <glyph glyph-name="uni34" unicode="&#x34;" d="M498 107L422 107L422 0L323 0L323 107L35 107L35 202L286 712L396 712L146 202L323 202L323 368L422 368L422 202L498 202L498 107Z"  horiz-adv-x="533" vert-adv-y="1000"  />

      
      <glyph glyph-name="uni35" unicode="&#x35;" d="M479 238Q479 173 467 129Q455 85 419 49Q363-7 269-7Q172-7 117 48Q70 95 63 184L165 184Q178 85 269 85Q315 85 343 113Q377 147 377 238Q377 387 273 387Q192 387 172 323L79 323L79 712L463 712L463 621L171 621L171 433Q210 474 289 474Q371 474 417 428Q479 366 479 238Z"  horiz-adv-x="533" vert-adv-y="1000"  />

      
      <glyph glyph-name="uni36" unicode="&#x36;" d="M477 211Q477 113 418.50 53.50Q360-6 267-6Q173-6 114.50 51.50Q56 109 56 207Q56 276 109 382L271 712L380 712L227 406Q253 417 290 417Q369 417 423 360Q477 303 477 211M375 209Q375 263 345.50 297.50Q316 332 266 332Q217 332 187.50 299Q158 266 158 209Q158 152 188 118.50Q218 85 266 85Q315 85 345 119Q375 153 375 209Z"  horiz-adv-x="533" vert-adv-y="1000"  />

      
      <glyph glyph-name="uni37" unicode="&#x37;" d="M487 621L249 0L139 0L378 621L161 621L161 509L63 509L63 712L487 712L487 621Z"  horiz-adv-x="533" vert-adv-y="1000"  />

      
      <glyph glyph-name="uni38" unicode="&#x38;" d="M486 201Q486 107 423 50.50Q360-6 266-6Q172-6 109.50 50.50Q47 107 47 201Q47 309 145 368Q59 420 59 521Q59 609 118 663.50Q177 718 266 718Q355 718 414.50 663.50Q474 609 474 521Q474 420 388 368Q486 309 486 201M349 119Q349 119 366 136Q383 153 383 203Q383 253 349 287.50Q315 322 266 322Q217 322 183 287.50Q149 253 149 203Q149 153 183 119Q217 85 266 85Q315 85 349 119M342 440.50Q342 440.50 357 455.75Q372 471 372 518Q372 565 342 596Q312 627 266 627Q220 627 190.50 596Q161 565 161 518Q161 471 190.50 440.50Q220 410 266 410Q312 410 342 440.50Z"  horiz-adv-x="533" vert-adv-y="1000"  />

      
      <glyph glyph-name="uni39" unicode="&#x39;" d="M477 505Q477 436 424 330L262 0L153 0L306 306Q280 295 242 295Q163 295 109.50 352Q56 409 56 501Q56 599 114.50 658.50Q173 718 266 718Q360 718 418.50 660.50Q477 603 477 505M375 503Q375 559 345 593Q315 627 266 627Q218 627 188 593.50Q158 560 158 503Q158 449 187 414.50Q216 380 266 380Q315 380 345 413Q375 446 375 503Z"  horiz-adv-x="533" vert-adv-y="1000"  />

      
      <glyph glyph-name="uni3a" unicode="&#x3a;" d="M225 285L104 285L104 407L225 407L225 285M225 0L104 0L104 122L225 122L225 0Z"  horiz-adv-x="303" vert-adv-y="1000"  />

      
      <glyph glyph-name="uni3b" unicode="&#x3b;" d="M222-60L106-155L106 116L222 116L222-60M225 285L104 285L104 407L225 407L225 285Z"  horiz-adv-x="303" vert-adv-y="1000"  />

      
      <glyph glyph-name="uni3c" unicode="&#x3c;" d="M451 55L82 232L82 323L451 500L451 392L206 277L451 163L451 55Z"  horiz-adv-x="533" vert-adv-y="1000"  />

      
      <glyph glyph-name="uni3d" unicode="&#x3d;" d="M482 327L51 327L51 422L482 422L482 327M482 133L51 133L51 228L482 228L482 133Z"  horiz-adv-x="533" vert-adv-y="1000"  />

      
      <glyph glyph-name="uni3e" unicode="&#x3e;" d="M451 232L82 55L82 163L327 277L82 392L82 500L451 323L451 232Z"  horiz-adv-x="533" vert-adv-y="1000"  />

      
      <glyph glyph-name="uni3f" unicode="&#x3f;" d="M470 527Q470 470 422 404L345 296Q327 271 327 242L327 212L225 212L225 247Q225 301 259 346L337 451Q368 492 368 527Q368 570 340.50 598.50Q313 627 270 627Q225 627 199 597.50Q173 568 173 526L71 526Q71 610 128 664Q185 718 270 718Q354 718 412 665.50Q470 613 470 527M332 0L219 0L219 109L332 109L332 0Z"  horiz-adv-x="511" vert-adv-y="1000"  />

      
      <glyph glyph-name="uni40" unicode="&#x40;" d="M672 0L576 0L576 50Q528-7 449-7Q368-7 318 49Q291 80 282 120.50Q273 161 273 234Q273 305 281.50 346Q290 387 316 418Q363 475 448 475Q526 475 574 419L574 480Q574 550 537 588Q500 625 431 625L305 625Q237 625 200 588Q163 551 163 480L163 168Q163 126 173.50 103.50Q184 81 213 58L143-12Q98 25 81 61.50Q64 98 64 163L64 481Q64 596 123 656Q182 715 295 715L441 715Q553 715 612 656Q672 596 672 481L672 0M552 120.50Q552 120.50 563 140.75Q574 161 574 234Q574 307 552 348Q530 389 472 389Q414 389 392.50 348.50Q371 308 371 234Q371 160 392.50 120Q414 80 472 80Q530 80 552 120.50Z"  horiz-adv-x="736" vert-adv-y="1000"  />

      
      <glyph glyph-name="uni41" unicode="&#x41;" d="M617 0L502 0L453 143L172 143L123 0L8 0L269 712L356 712L617 0M423 235L315 551L204 235L423 235Z"  horiz-adv-x="625" vert-adv-y="1000"  />

      
      <glyph glyph-name="uni42" unicode="&#x42;" d="M596 201Q596 105 537 52.50Q478 0 381 0L93 0L93 712L370 712Q469 712 527 659.50Q585 607 585 517Q585 463 556.50 422.50Q528 382 489 366Q535 348 565.50 306Q596 264 596 201M488 206Q488 254 457 284Q426 314 371 314L201 314L201 97L371 97Q426 97 457 127Q488 157 488 206M445.50 437.50Q445.50 437.50 461.25 450.75Q477 464 477 513Q477 562 445.50 588.50Q414 615 361 615L201 615L201 411L361 411Q414 411 445.50 437.50Z"  horiz-adv-x="663" vert-adv-y="1000"  />

      
      <glyph glyph-name="uni43" unicode="&#x43;" d="M577 213Q559 109 490.50 51.50Q422-6 323-6Q211-6 139 66Q91 115 79 172.50Q67 230 67 356Q67 482 79 539.50Q91 597 139 646Q211 718 323 718Q423 718 490.50 660.50Q558 603 577 499L467 499Q455 556 418 589Q381 622 323 622Q259 622 218 578Q191 550 183 506.50Q175 463 175 356Q175 249 183 205.50Q191 162 218 134Q259 90 323 90Q381 90 418.50 123Q456 156 469 213L577 213Z"  horiz-adv-x="628" vert-adv-y="1000"  />

      
      <glyph glyph-name="uni44" unicode="&#x44;" d="M589.50 519.50Q589.50 519.50 594.25 489.75Q599 460 599 356Q599 252 589.50 192.50Q580 133 545 90Q472 0 343 0L93 0L93 712L343 712Q472 712 545 622Q580 579 589.50 519.50M484 218.50Q484 218.50 487.50 241.75Q491 265 491 356Q491 447 484 493.50Q477 540 453 567Q411 616 331 616L201 616L201 96L331 96Q411 96 453 145Q477 172 484 218.50Z"  horiz-adv-x="666" vert-adv-y="1000"  />

      
      <glyph glyph-name="uni45" unicode="&#x45;" d="M548 0L93 0L93 712L548 712L548 615L201 615L201 407L497 407L497 311L201 311L201 97L548 97L548 0Z"  horiz-adv-x="603" vert-adv-y="1000"  />

      
      <glyph glyph-name="uni46" unicode="&#x46;" d="M548 615L201 615L201 398L497 398L497 301L201 301L201 0L93 0L93 712L548 712L548 615Z"  horiz-adv-x="585" vert-adv-y="1000"  />

      
      <glyph glyph-name="uni47" unicode="&#x47;" d="M583 276Q583 206 568.50 159.50Q554 113 519 75Q442-6 323-6Q211-6 139 66Q91 115 79 172.50Q67 230 67 356Q67 482 79 539.50Q91 597 139 646Q211 718 323 718Q431 718 498.50 656Q566 594 581 498L473 498Q459 557 420.50 589.50Q382 622 323 622Q259 622 217 578Q191 550 183 506.50Q175 463 175 356Q175 249 183 205.50Q191 162 217 134Q259 90 323 90Q397 90 440 141Q475 181 475 253L475 293L323 293L323 385L583 385L583 276Z"  horiz-adv-x="649" vert-adv-y="1000"  />

      
      <glyph glyph-name="uni48" unicode="&#x48;" d="M598 0L490 0L490 311L201 311L201 0L93 0L93 712L201 712L201 408L490 408L490 712L598 712L598 0Z"  horiz-adv-x="691" vert-adv-y="1000"  />

      
      <glyph glyph-name="uni49" unicode="&#x49;" d="M201 0L93 0L93 712L201 712L201 0Z"  horiz-adv-x="294" vert-adv-y="1000"  />

      
      <glyph glyph-name="uni4a" unicode="&#x4a;" d="M423 225Q423 118 355.50 56Q288-6 186-6Q82-6 13 63L85 134Q107 112 128.50 101.50Q150 91 186 91Q247 91 281 127.50Q315 164 315 233L315 712L423 712L423 225Z"  horiz-adv-x="506" vert-adv-y="1000"  />

      
      <glyph glyph-name="uni4b" unicode="&#x4b;" d="M648 0L521 0L321 351L201 207L201 0L93 0L93 712L201 712L201 354L492 712L624 712L393 433L648 0Z"  horiz-adv-x="658" vert-adv-y="1000"  />

      
      <glyph glyph-name="uni4c" unicode="&#x4c;" d="M544 0L93 0L93 712L201 712L201 97L544 97L544 0Z"  horiz-adv-x="574" vert-adv-y="1000"  />

      
      <glyph glyph-name="uni4d" unicode="&#x4d;" d="M721 0L613 0L613 476L449 129L369 129L201 476L201 0L93 0L93 712L201 712L409 269L613 712L721 712L721 0Z"  horiz-adv-x="813" vert-adv-y="1000"  />

      
      <glyph glyph-name="uni4e" unicode="&#x4e;" d="M629 0L530 0L201 501L201 0L93 0L93 712L192 712L521 212L521 712L629 712L629 0Z"  horiz-adv-x="722" vert-adv-y="1000"  />

      
      <glyph glyph-name="uni4f" unicode="&#x4f;" d="M567.50 540Q567.50 540 573.25 511.50Q579 483 579 356Q579 229 567.50 172Q556 115 507 66Q435-6 323-6Q211-6 139 66Q90 115 78.50 172Q67 229 67 356Q67 483 78.50 540Q90 597 139 646Q211 718 323 718Q435 718 507 646Q556 597 567.50 540M463 205Q463 205 467 226.50Q471 248 471 356Q471 464 463 507.50Q455 551 429 578Q387 622 323 622Q259 622 217 578Q191 550 183 506.50Q175 463 175 356Q175 249 183 206Q191 163 217 135Q260 90 323 90Q386 90 429 135Q455 162 463 205Z"  horiz-adv-x="646" vert-adv-y="1000"  />

      
      <glyph glyph-name="uni50" unicode="&#x50;" d="M528.50 651Q528.50 651 559.75 620.50Q591 590 591 496Q591 402 528.50 341.50Q466 281 363 281L201 281L201 0L93 0L93 712L363 712Q466 712 528.50 651M449 408.50Q449 408.50 466 424.25Q483 440 483 496Q483 552 449 583.50Q415 615 357 615L201 615L201 377L357 377Q415 377 449 408.50Z"  horiz-adv-x="629" vert-adv-y="1000"  />

      
      <glyph glyph-name="uni51" unicode="&#x51;" d="M579 356Q579 245 571 192Q563 139 533 96L603 27L543-32L472 38Q411-6 323-6Q211-6 139 66Q90 115 78.50 172Q67 229 67 356Q67 483 78.50 540Q90 597 139 646Q211 718 323 718Q435 718 507 646Q556 597 567.50 540Q579 483 579 356M471 356Q471 464 463 507Q455 550 429 578Q387 622 323 622Q259 622 217 578Q191 550 183 507Q175 464 175 356Q175 248 183 205.50Q191 163 217 135Q260 90 323 90Q366 90 397 114L321 189L381 249L450 179Q463 205 467 242.50Q471 280 471 356Z"  horiz-adv-x="646" vert-adv-y="1000"  />

      
      <glyph glyph-name="uni52" unicode="&#x52;" d="M612 0L486 0L336 300L201 300L201 0L93 0L93 712L369 712Q469 712 529.50 654Q590 596 590 504Q590 431 550.50 381.50Q511 332 448 315L612 0M449 421.50Q449 421.50 465.50 436.25Q482 451 482 503Q482 555 449 585Q416 615 361 615L201 615L201 392L361 392Q416 392 449 421.50Z"  horiz-adv-x="655" vert-adv-y="1000"  />

      
      <glyph glyph-name="uni53" unicode="&#x53;" d="M538 203Q538 106 467 50Q396-6 282-6Q200-6 140.50 15.50Q81 37 30 88L101 159Q170 90 284 90Q354 90 392.50 118.50Q431 147 431 200Q431 250 403 274Q377 297 325 304L241 316Q152 330 107 373Q54 421 54 510Q54 604 118 661Q182 718 292 718Q363 718 415 699Q467 680 513 637L445 569Q387 624 288 624Q226 624 192.50 593.50Q159 563 159 513Q159 469 185 447Q212 423 263 415L348 402Q436 388 480 349Q538 296 538 203Z"  horiz-adv-x="590" vert-adv-y="1000"  />

      
      <glyph glyph-name="uni54" unicode="&#x54;" d="M530 615L334 615L334 0L226 0L226 615L30 615L30 712L530 712L530 615Z"  horiz-adv-x="560" vert-adv-y="1000"  />

      
      <glyph glyph-name="uni55" unicode="&#x55;" d="M593 240Q593 131 520 62.50Q447-6 337-6Q227-6 154.50 62.50Q82 131 82 240L82 712L190 712L190 245Q190 174 230 132.50Q270 91 337 91Q404 91 444.50 132.50Q485 174 485 245L485 712L593 712L593 240Z"  horiz-adv-x="675" vert-adv-y="1000"  />

      
      <glyph glyph-name="uni56" unicode="&#x56;" d="M559 712L323 0L239 0L5 712L117 712L281 194L445 712L559 712Z"  horiz-adv-x="564" vert-adv-y="1000"  />

      
      <glyph glyph-name="uni57" unicode="&#x57;" d="M860 712L674 0L580 0L435 499L291 0L197 0L11 712L125 712L249 203L392 712L479 712L622 203L746 712L860 712Z"  horiz-adv-x="871" vert-adv-y="1000"  />

      
      <glyph glyph-name="uni58" unicode="&#x58;" d="M568 0L443 0L288 273L134 0L10 0L230 365L24 712L148 712L288 457L429 712L553 712L347 365L568 0Z"  horiz-adv-x="578" vert-adv-y="1000"  />

      
      <glyph glyph-name="uni59" unicode="&#x59;" d="M539 712L326 293L326 0L218 0L218 293L5 712L123 712L272 399L421 712L539 712Z"  horiz-adv-x="544" vert-adv-y="1000"  />

      
      <glyph glyph-name="uni5a" unicode="&#x5a;" d="M504 0L48 0L48 93L377 615L62 615L62 712L504 712L504 624L173 97L504 97L504 0Z"  horiz-adv-x="552" vert-adv-y="1000"  />

      
      <glyph glyph-name="uni5b" unicode="&#x5b;" d="M304-74L86-74L86 786L304 786L304 695L188 695L188 17L304 17L304-74Z"  horiz-adv-x="347" vert-adv-y="1000"  />

      
      <glyph glyph-name="uni5c" unicode="&#x5c;" d="M380-74L282-74L0 778L98 778L380-74Z"  horiz-adv-x="380" vert-adv-y="1000"  />

      
      <glyph glyph-name="uni5d" unicode="&#x5d;" d="M261-74L43-74L43 16L161 16L161 696L43 696L43 786L261 786L261-74Z"  horiz-adv-x="347" vert-adv-y="1000"  />

      
      <glyph glyph-name="uni5e" unicode="&#x5e;" d="M503 401L397 401L285 608L173 401L67 401L239 719L332 719L503 401Z"  horiz-adv-x="571" vert-adv-y="1000"  />

      
      <glyph glyph-name="uni5f" unicode="&#x5f;" d="M571-172L0-172L0-102L571-102L571-172Z"  horiz-adv-x="571" vert-adv-y="1000"  />

      
      <glyph glyph-name="uni60" unicode="&#x60;" d="M302 599L225 599L114 761L227 761L302 599Z"  horiz-adv-x="500" vert-adv-y="1000"  />

      
      <glyph glyph-name="uni61" unicode="&#x61;" d="M454 0L354 0L354 46Q326 18 295.50 6Q265-6 219-6Q129-6 83 40Q43 82 43 149Q43 215 88.50 255Q134 295 219 295L352 295L352 331Q352 380 326 403Q300 426 241 426Q201 426 176.50 414.50Q152 403 130 376L64 439Q99 480 139.50 496.50Q180 513 245 513Q454 513 454 339L454 0M352 183L352 224L235 224Q142 224 142 151Q142 79 238 79Q299 79 330 108Q352 129 352 183Z"  horiz-adv-x="530" vert-adv-y="1000"  />

      
      <glyph glyph-name="uni62" unicode="&#x62;" d="M496 254Q496 97 439 39Q394-6 315-6Q231-6 181 54L181 0L81 0L81 712L183 712L183 456Q231 513 316 513Q394 513 439 468Q496 410 496 254M390.50 189Q390.50 189 392.25 202.50Q394 216 394 254Q394 292 390.50 319Q387 346 376.50 371Q366 396 344 409Q322 422 289 422Q255 422 233 409Q211 396 200.50 371Q190 346 186.50 319Q183 292 183 254Q183 216 186.50 189Q190 162 200.50 136.50Q211 111 233.50 98Q256 85 289 85Q322 85 344 98Q366 111 376.50 136.50Q387 162 390.50 189Z"  horiz-adv-x="553" vert-adv-y="1000"  />

      
      <glyph glyph-name="uni63" unicode="&#x63;" d="M448 66Q380-6 281-6Q236-6 197 8.50Q158 23 125.50 52.50Q93 82 74 133.50Q55 185 55 254Q55 323 74 374.50Q93 426 125.50 455.50Q158 485 197 499Q236 513 281 513Q381 513 448 442L378 374Q354 400 332.50 411Q311 422 281 422Q221 422 187 377Q157 339 157 254Q157 168 187 130Q221 85 281 85Q311 85 332.50 96Q354 107 378 133L448 66Z"  horiz-adv-x="485" vert-adv-y="1000"  />

      
      <glyph glyph-name="uni64" unicode="&#x64;" d="M472 0L372 0L372 54Q322-6 238-6Q159-6 114 39Q57 97 57 254Q57 410 114 468Q159 513 237 513Q322 513 370 456L370 712L472 712L472 0M366.50 189Q366.50 189 368.25 202.50Q370 216 370 254Q370 292 366.50 319Q363 346 352.50 371Q342 396 320 409Q298 422 265 422Q231 422 209 409Q187 396 176.50 371Q166 346 162.50 319Q159 292 159 254Q159 216 162.50 189Q166 162 176.50 136.50Q187 111 209.50 98Q232 85 265 85Q298 85 320 98Q342 111 352.50 136.50Q363 162 366.50 189Z"  horiz-adv-x="553" vert-adv-y="1000"  />

      
      <glyph glyph-name="uni65" unicode="&#x65;" d="M485 224L156 224Q156 157 189.50 119.50Q223 82 285 82Q326 82 353 94Q380 106 408 134L473 73Q432 32 389.50 13Q347-6 283-6Q179-6 117 56Q55 118 55 254Q55 376 113 444.50Q171 513 270 513Q371 513 428 446Q485 379 485 267L485 224M384 295Q381 340 370 364Q341 428 270 428Q198 428 169 364Q157 338 156 295L384 295Z"  horiz-adv-x="539" vert-adv-y="1000"  />

      
      <glyph glyph-name="uni66" unicode="&#x66;" d="M300 429L199 429L199 0L97 0L97 429L39 429L39 507L97 507L97 576Q97 635 133 676Q169 717 236 717L300 717L300 630L255 630Q199 630 199 571L199 507L300 507L300 429Z"  horiz-adv-x="328" vert-adv-y="1000"  />

      
      <glyph glyph-name="uni67" unicode="&#x67;" d="M468 3Q468-92 409.50-151.50Q351-211 251-211Q193-211 152.50-196Q112-181 72-144L137-79Q185-124 247-124Q308-124 337-87.50Q366-51 366 5L366 70Q317 12 235 12Q159 12 114 57Q80 91 68.50 140Q57 189 57 263Q57 337 68.50 386Q80 435 114 469Q158 513 236 513Q319 513 369 453L369 507L468 507L468 3M362.50 203.50Q362.50 203.50 364.25 215.75Q366 228 366 263Q366 298 362.50 322.50Q359 347 349 371.50Q339 396 317.50 409Q296 422 263 422Q230 422 208 409Q186 396 176 371.50Q166 347 162.50 322Q159 297 159 263Q159 229 162.50 204Q166 179 176 154.50Q186 130 208 117Q230 104 263 104Q296 104 317.50 117Q339 130 349 154.50Q359 179 362.50 203.50Z"  horiz-adv-x="549" vert-adv-y="1000"  />

      
      <glyph glyph-name="uni68" unicode="&#x68;" d="M492 0L390 0L390 309Q390 366 362 394Q334 422 288 422Q242 422 212.50 393.50Q183 365 183 309L183 0L81 0L81 712L183 712L183 456Q234 513 316 513Q393 513 441 467Q492 417 492 324L492 0Z"  horiz-adv-x="568" vert-adv-y="1000"  />

      
      <glyph glyph-name="uni69" unicode="&#x69;" d="M183 0L81 0L81 507L183 507L183 0M186 607L78 607L78 715L186 715L186 607Z"  horiz-adv-x="264" vert-adv-y="1000"  />

      
      <glyph glyph-name="uni6a" unicode="&#x6a;" d="M183-67Q183-128 148-167.50Q113-207 44-207L-19-207L-19-120L26-120Q56-120 68.50-105.50Q81-91 81-61L81 507L183 507L183-67M186 607L78 607L78 715L186 715L186 607Z"  horiz-adv-x="264" vert-adv-y="1000"  />

      
      <glyph glyph-name="uni6b" unicode="&#x6b;" d="M526 0L400 0L258 234L183 149L183 0L81 0L81 712L183 712L183 273L380 507L504 507L328 308L526 0Z"  horiz-adv-x="548" vert-adv-y="1000"  />

      
      <glyph glyph-name="uni6c" unicode="&#x6c;" d="M280 0L217 0Q148 0 113 39.50Q78 79 78 140L78 712L180 712L180 146Q180 116 192.50 101.50Q205 87 235 87L280 87L280 0Z"  horiz-adv-x="311" vert-adv-y="1000"  />

      
      <glyph glyph-name="uni6d" unicode="&#x6d;" d="M801 0L699 0L699 309Q699 366 670.50 394Q642 422 597 422Q553 422 522.50 394Q492 366 492 314L492 0L390 0L390 309Q390 366 362 394Q334 422 288 422Q242 422 212.50 393.50Q183 365 183 309L183 0L81 0L81 507L181 507L181 456Q233 513 316 513Q412 513 460 439Q521 513 619 513Q699 513 747 467Q801 414 801 324L801 0Z"  horiz-adv-x="877" vert-adv-y="1000"  />

      
      <glyph glyph-name="uni6e" unicode="&#x6e;" d="M492 0L390 0L390 309Q390 366 362 394Q334 422 288 422Q242 422 212.50 393.50Q183 365 183 309L183 0L81 0L81 507L181 507L181 456Q234 513 316 513Q393 513 441 467Q492 417 492 324L492 0Z"  horiz-adv-x="568" vert-adv-y="1000"  />

      
      <glyph glyph-name="uni6f" unicode="&#x6f;" d="M480 254Q480 184 467 137Q454 90 420 54Q362-6 268-6Q175-6 117 54Q83 90 70 137Q57 184 57 254Q57 323 70 370.50Q83 418 117 453Q175 513 268 513Q362 513 420 453Q454 418 467 370.50Q480 323 480 254M343 115Q378 150 378 254Q378 358 343 393Q314 422 268 422Q223 422 194 393Q159 358 159 254Q159 150 194 115Q224 85 268 85Q313 85 343 115Z"  horiz-adv-x="537" vert-adv-y="1000"  />

      
      <glyph glyph-name="uni70" unicode="&#x70;" d="M496 254Q496 97 439 39Q394-6 316-6Q231-6 183 52L183-205L81-205L81 507L181 507L181 453Q231 513 315 513Q394 513 439 468Q496 410 496 254M390.50 189Q390.50 189 392.25 202.50Q394 216 394 254Q394 292 390.50 319Q387 346 376.50 371Q366 396 344 409Q322 422 289 422Q255 422 233 409Q211 396 200.50 371Q190 346 186.50 319Q183 292 183 254Q183 216 186.50 189Q190 162 200.50 136.50Q211 111 233.50 98Q256 85 289 85Q322 85 344 98Q366 111 376.50 136.50Q387 162 390.50 189Z"  horiz-adv-x="553" vert-adv-y="1000"  />

      
      <glyph glyph-name="uni71" unicode="&#x71;" d="M57 254Q57 410 114 468Q159 513 238 513Q322 513 372 453L372 507L472 507L472-205L370-205L370 52Q322-6 237-6Q159-6 114 39Q57 97 57 254M162.50 319Q162.50 319 160.75 305.50Q159 292 159 254Q159 216 162.50 189Q166 162 176.50 136.50Q187 111 209 98Q231 85 264 85Q297 85 319.50 98Q342 111 352.50 136.50Q363 162 366.50 189Q370 216 370 254Q370 292 366.50 319Q363 346 352.50 371Q342 396 320 409Q298 422 264 422Q231 422 209 409Q187 396 176.50 371Q166 346 162.50 319Z"  horiz-adv-x="553" vert-adv-y="1000"  />

      
      <glyph glyph-name="uni72" unicode="&#x72;" d="M437 465L360 388Q326 422 284 422Q241 422 212 390.50Q183 359 183 308L183 0L81 0L81 507L181 507L181 452Q201 479 237.50 496Q274 513 316 513Q389 513 437 465Z"  horiz-adv-x="439" vert-adv-y="1000"  />

      
      <glyph glyph-name="uni73" unicode="&#x73;" d="M456 155Q456 78 397.50 36Q339-6 245-6Q106-6 32 67L99 134Q151 81 245 81Q295 81 325.50 98.50Q356 116 356 151Q356 204 288 211L207 218Q57 232 57 358Q57 431 111 472Q165 513 248 513Q371 513 436 456L372 391Q328 428 247 428Q202 428 178.50 410.50Q155 393 155 363Q155 336 171.50 322.50Q188 309 225 305L296 299Q456 285 456 155Z"  horiz-adv-x="499" vert-adv-y="1000"  />

      
      <glyph glyph-name="uni74" unicode="&#x74;" d="M293 0L232 0Q165 0 129 41Q93 82 93 141L93 429L35 429L35 507L93 507L93 652L195 652L195 507L293 507L293 429L195 429L195 146Q195 87 251 87L293 87L293 0Z"  horiz-adv-x="342" vert-adv-y="1000"  />

      
      <glyph glyph-name="uni75" unicode="&#x75;" d="M487 0L387 0L387 51Q334-6 252-6Q175-6 127 40Q76 90 76 183L76 507L178 507L178 198Q178 142 206 113.50Q234 85 280 85Q326 85 355.50 113.50Q385 142 385 198L385 507L487 507L487 0Z"  horiz-adv-x="568" vert-adv-y="1000"  />

      
      <glyph glyph-name="uni76" unicode="&#x76;" d="M463 507L277 0L194 0L8 507L116 507L236 150L355 507L463 507Z"  horiz-adv-x="471" vert-adv-y="1000"  />

      
      <glyph glyph-name="uni77" unicode="&#x77;" d="M735 507L577 0L490 0L371 354L253 0L165 0L8 507L116 507L214 150L332 507L411 507L528 150L626 507L735 507Z"  horiz-adv-x="743" vert-adv-y="1000"  />

      
      <glyph glyph-name="uni78" unicode="&#x78;" d="M481 0L358 0L252 173L145 0L22 0L196 259L29 507L152 507L252 342L351 507L474 507L308 259L481 0Z"  horiz-adv-x="503" vert-adv-y="1000"  />

      
      <glyph glyph-name="uni79" unicode="&#x79;" d="M464 507L240-101Q226-141 203-164Q166-201 99-201L58-201L58-109L84-109Q116-109 131-97.50Q146-86 157-55L185 24L8 507L116 507L237 150L355 507L464 507Z"  horiz-adv-x="468" vert-adv-y="1000"  />

      
      <glyph glyph-name="uni7a" unicode="&#x7a;" d="M421 0L43 0L43 81L295 416L57 416L57 507L421 507L421 426L167 91L421 91L421 0Z"  horiz-adv-x="469" vert-adv-y="1000"  />

      
      <glyph glyph-name="uni7b" unicode="&#x7b;" d="M362-74L291-74Q218-74 184-40Q148-4 148 65L148 232Q148 274 130 292Q111 311 82 311L45 311L45 401L82 401Q111 401 130 420Q148 438 148 480L148 647Q148 716 184 752Q218 786 291 786L362 786L362 695L323 695Q278 695 265 681Q250 666 250 617L250 456Q250 412 232.50 390.50Q215 369 184 356Q215 343 232.50 321.50Q250 300 250 256L250 95Q250 46 265 31Q278 17 323 17L362 17L362-74Z"  horiz-adv-x="407" vert-adv-y="1000"  />

      
      <glyph glyph-name="uni7c" unicode="&#x7c;" d="M220-74L118-74L118 786L220 786L220-74Z"  horiz-adv-x="338" vert-adv-y="1000"  />

      
      <glyph glyph-name="uni7d" unicode="&#x7d;" d="M362 311L326 311Q296 311 277 292Q259 274 259 232L259 65Q259-4 223-40Q189-74 116-74L45-74L45 17L84 17Q129 17 142 31Q157 46 157 95L157 256Q157 300 175 321.50Q193 343 224 356Q193 369 175 390.50Q157 412 157 456L157 617Q157 666 142 681Q129 695 84 695L45 695L45 786L116 786Q189 786 223 752Q259 716 259 647L259 480Q259 438 277 420Q296 401 326 401L362 401L362 311Z"  horiz-adv-x="407" vert-adv-y="1000"  />

      
      <glyph glyph-name="uni7e" unicode="&#x7e;" d="M531 280Q487 236 455 219Q423 202 383 202Q339 202 271 235Q223 259 192 259Q169 259 151.50 250.50Q134 242 107 215L43 279Q87 323 118.50 340Q150 357 190 357Q233 357 301 324Q349 300 381 300Q404 300 421.50 308.50Q439 317 466 344L531 280Z"  horiz-adv-x="574" vert-adv-y="1000"  />

      
      <glyph glyph-name="unia1" unicode="&#xa1;" d="M211-205L87-205L109 295L189 295L211-205M205 398L93 398L93 507L205 507L205 398Z"  horiz-adv-x="332" vert-adv-y="1000"  />

      
      <glyph glyph-name="unia2" unicode="&#xa2;" d="M459 184Q399 120 318 110L318 0L238 0L238 111Q155 125 105 191Q55 257 55 366Q55 475 105 541Q155 607 238 621L238 712L318 712L318 622Q399 612 459 548L391 482Q354 523 309 530L309 202Q354 209 391 250L459 184M247 204L247 528Q213 521 189 489Q157 445 157 366Q157 286 188 243Q212 211 247 204Z"  horiz-adv-x="498" vert-adv-y="1000"  />

      
      <glyph glyph-name="unia3" unicode="&#xa3;" d="M516 0L105 0L105 313L43 313L43 391L105 391L105 487Q105 594 173 656Q241 718 343 718Q447 718 516 649L444 578Q422 600 400.50 610.50Q379 621 343 621Q282 621 248 584.50Q214 548 214 479L214 391L343 391L343 313L214 313L214 97L516 97L516 0Z"  horiz-adv-x="564" vert-adv-y="1000"  />

      
      <glyph glyph-name="unia4" unicode="&#xa4;" d="M597 81L530 14L456 88Q401 50 332 50Q263 50 208 88L135 14L68 81L141 155Q103 210 103 279Q103 348 141 403L68 476L135 543L208 470Q262 507 332 507Q402 507 456 470L530 543L597 476L523 403Q561 348 561 279Q561 210 523 155L597 81M428 183Q428 183 448 203Q468 223 468 279Q468 335 428 374.50Q388 414 332 414Q276 414 236 374.50Q196 335 196 279Q196 223 236 183Q276 143 332 143Q388 143 428 183Z"  horiz-adv-x="665" vert-adv-y="1000"  />

      
      <glyph glyph-name="unia5" unicode="&#xa5;" d="M538 712L392 422L479 422L479 344L352 344L326 293L326 241L479 241L479 163L326 163L326 0L218 0L218 163L65 163L65 241L218 241L218 293L192 344L65 344L65 422L152 422L5 712L123 712L273 398L421 712L538 712Z"  horiz-adv-x="544" vert-adv-y="1000"  />

      
      <glyph glyph-name="unia6" unicode="&#xa6;" d="M220 436L118 436L118 786L220 786L220 436M220-74L118-74L118 276L220 276L220-74Z"  horiz-adv-x="344" vert-adv-y="1000"  />

      
      <glyph glyph-name="unia7" unicode="&#xa7;" d="M472 264Q472 210 443 169Q414 128 375 108Q463 69 463-33Q463-115 407.50-163Q352-211 272-211Q192-211 136.50-167.50Q81-124 78-41L178-41Q181-78 205.50-99Q230-120 272-120Q315-120 339-97.50Q363-75 363-36Q363 28 285 52L215 73Q74 116 74 259Q74 313 103 354Q132 395 171 415Q87 456 87 549Q87 621 137 669.50Q187 718 273 718Q359 718 409 672.50Q459 627 461 553L363 553Q357 629 273 629Q231 629 208 609Q185 589 185 552Q185 494 260 471L330 450Q472 407 472 264M372 261Q372 313 343 341Q313 369 273 369Q228 369 202 341Q174 311 174 261Q174 212 202 182Q228 154 273 154Q317 154 343 182Q372 213 372 261Z"  horiz-adv-x="543" vert-adv-y="1000"  />

      
      <glyph glyph-name="unia8" unicode="&#xa8;" d="M404 604L312 604L312 712L404 712L404 604M188 604L96 604L96 712L188 712L188 604Z"  horiz-adv-x="500" vert-adv-y="1000"  />

      
      <glyph glyph-name="unia9" unicode="&#xa9;" d="M687 612Q687 612 740 559Q793 506 793 356Q793 206 687 100Q581-6 431-6Q281-6 175 100Q69 206 69 356Q69 506 175 612Q281 718 431 718Q581 718 687 612M636 147Q636 147 678 189.50Q720 232 720 356Q720 480 636 565Q552 650 431 650Q310 650 226 565Q142 480 142 356Q142 232 226 147Q310 62 431 62Q552 62 636 147M568 208Q510 156 437 156Q356 156 307 210.50Q258 265 258 356Q258 447 307 501.50Q356 556 437 556Q508 556 568 504L522 457Q482 492 437 492Q382 492 355.50 455Q329 418 329 356Q329 294 355.50 257Q382 220 437 220Q482 220 522 255L568 208Z"  horiz-adv-x="862" vert-adv-y="1000"  />

      
      <glyph glyph-name="uniaa" unicode="&#xaa;" d="M379 307L298 307L298 343Q258 303 192 303Q120 303 84 339Q52 371 52 426Q52 479 88 511Q124 543 191 543L296 543L296 571Q296 609 275.50 627Q255 645 209 645Q176 645 158 636.50Q140 628 122 606L67 658Q95 691 128 703.50Q161 716 213 716Q379 716 379 577L379 307M296 453L296 485L203 485Q133 485 133 428Q133 373 204 373Q257 373 279 395Q296 411 296 453Z"  horiz-adv-x="452" vert-adv-y="1000"  />

      
      <glyph glyph-name="uniab" unicode="&#xab;" d="M267 42L37 272L267 501L267 378L160 272L267 165L267 42M520 42L290 272L520 501L520 378L412 272L520 165L520 42Z"  horiz-adv-x="592" vert-adv-y="1000"  />

      
      <glyph glyph-name="uniac" unicode="&#xac;" d="M484 98L389 98L389 239L48 239L48 334L484 334L484 98Z"  horiz-adv-x="533" vert-adv-y="1000"  />

      
      <glyph glyph-name="uniad" unicode="&#xad;" d="M359 230L67 230L67 325L359 325L359 230Z"  horiz-adv-x="426" vert-adv-y="1000"  />

      
      <glyph glyph-name="uniae" unicode="&#xae;" d="M687 612Q687 612 740 559Q793 506 793 356Q793 206 687 100Q581-6 431-6Q281-6 175 100Q69 206 69 356Q69 506 175 612Q281 718 431 718Q581 718 687 612M636 146.50Q636 146.50 678 189.25Q720 232 720 356Q720 480 636 565.50Q552 651 431 651Q309 651 225 565.50Q141 480 141 356Q141 232 225 146.50Q309 61 431 61Q552 61 636 146.50M588 161L507 161L427 316L377 316L377 161L305 161L305 552L452 552Q507 552 542.50 517Q578 482 578 432Q578 393 556.50 365.50Q535 338 501 326L588 161M489 390Q489 390 498 398.50Q507 407 507 432Q507 457 489 474Q471 491 443 491L377 491L377 373L443 373Q471 373 489 390Z"  horiz-adv-x="862" vert-adv-y="1000"  />

      
      <glyph glyph-name="uniaf" unicode="&#xaf;" d="M95 618L95 691L404 691L404 618L95 618Z"  horiz-adv-x="500" vert-adv-y="1000"  />

      
      <glyph glyph-name="unib0" unicode="&#xb0;" d="M358.50 672.50Q358.50 672.50 384.25 646.75Q410 621 410 549Q410 477 358.50 426Q307 375 235 375Q163 375 112 426Q61 477 61 549Q61 621 112 672.50Q163 724 235 724Q307 724 358.50 672.50M299.50 483.50Q299.50 483.50 312.75 496.75Q326 510 326 549Q326 588 299.50 615Q273 642 235 642Q197 642 171 615Q145 588 145 549Q145 510 171 483.50Q197 457 235 457Q273 457 299.50 483.50Z"  horiz-adv-x="471" vert-adv-y="1000"  />

      
      <glyph glyph-name="unib1" unicode="&#xb1;" d="M482 316L314 316L314 147L219 147L219 316L51 316L51 411L219 411L219 579L314 579L314 411L482 411L482 316M482 0L51 0L51 95L482 95L482 0Z"  horiz-adv-x="533" vert-adv-y="1000"  />

      
      <glyph glyph-name="unib2" unicode="&#xb2;" d="M297 285L37 285L37 354L198 540Q220 566 220 592Q220 617 206 632Q192 647 167 647Q114 647 114 592L37 592Q37 649 73.50 682.50Q110 716 167 716Q224 716 260.50 682.50Q297 649 297 592Q297 564 286.50 543.50Q276 523 251 494L130 354L297 354L297 285Z"  horiz-adv-x="325" vert-adv-y="1000"  />

      
      <glyph glyph-name="unib3" unicode="&#xb3;" d="M302 408Q302 347 263.50 313.50Q225 280 167 280Q110 280 70.50 311.50Q31 343 30 406L107 406Q108 378 125 363.50Q142 349 167 349Q193 349 209 365Q225 381 225 410Q225 438 209 454Q193 470 164 470L153 470L153 536L164 536Q191 536 205.50 551.50Q220 567 220 591Q220 618 204.50 632.50Q189 647 166 647Q143 647 128 633.50Q113 620 112 595L36 595Q37 651 74 683.50Q111 716 166 716Q223 716 259.50 682Q296 648 296 594Q296 531 246 505Q302 476 302 408Z"  horiz-adv-x="325" vert-adv-y="1000"  />

      
      <glyph glyph-name="unib4" unicode="&#xb4;" d="M386 761L275 599L198 599L273 761L386 761Z"  horiz-adv-x="500" vert-adv-y="1000"  />

      
      <glyph glyph-name="unib5" unicode="&#xb5;" d="M487 0L387 0L387 51Q334-6 253-6Q208-6 178 19L178-205L76-205L76 507L178 507L178 198Q178 142 206.50 113.50Q235 85 281 85Q327 85 356 113.50Q385 142 385 198L385 507L487 507L487 0Z"  horiz-adv-x="569" vert-adv-y="1000"  />

      
      <glyph glyph-name="unib6" unicode="&#xb6;" d="M544-205L442-205L442 615L334 615L334-205L232-205L232 317Q151 317 94.50 375Q38 433 38 513Q38 603 99.50 657.50Q161 712 263 712L544 712L544-205Z"  horiz-adv-x="637" vert-adv-y="1000"  />

      
      <glyph glyph-name="unib7" unicode="&#xb7;" d="M200 217L78 217L78 339L200 339L200 217Z"  horiz-adv-x="278" vert-adv-y="1000"  />

      
      <glyph glyph-name="unib8" unicode="&#xb8;" d="M319-64L268-211L167-211L237-64L319-64Z"  horiz-adv-x="500" vert-adv-y="1000"  />

      
      <glyph glyph-name="unib9" unicode="&#xb9;" d="M224 285L147 285L147 626L60 550L60 637L147 712L224 712L224 285Z"  horiz-adv-x="325" vert-adv-y="1000"  />

      
      <glyph glyph-name="uniba" unicode="&#xba;" d="M398 510Q398 400 350 351Q304 303 229 303Q155 303 109 351Q61 400 61 510Q61 619 109 668Q155 716 229 716Q304 716 350 668Q398 619 398 510M314 510Q314 593 288 619Q265 642 229 642Q194 642 171 619Q144 592 144 510Q144 427 171 400Q194 377 229 377Q265 377 288 400Q314 426 314 510Z"  horiz-adv-x="458" vert-adv-y="1000"  />

      
      <glyph glyph-name="unibb" unicode="&#xbb;" d="M556 272L325 42L325 165L432 272L325 378L325 501L556 272M303 272L72 42L72 165L180 272L72 378L72 501L303 272Z"  horiz-adv-x="592" vert-adv-y="1000"  />

      
      <glyph glyph-name="unibc" unicode="&#xbc;" d="M224 285L147 285L147 626L60 550L60 637L147 712L224 712L224 285M632 712L297 0L215 0L550 712L632 712M828 61L788 61L788 0L715 0L715 61L541 61L541 132L687 427L771 427L624 132L715 132L715 215L788 215L788 132L828 132L828 61Z"  horiz-adv-x="847" vert-adv-y="1000"  />

      
      <glyph glyph-name="unibd" unicode="&#xbd;" d="M224 285L147 285L147 626L60 550L60 637L147 712L224 712L224 285M632 712L297 0L215 0L550 712L632 712M819 0L559 0L559 69L720 255Q742 281 742 307Q742 332 728 347Q714 362 689 362Q636 362 636 307L559 307Q559 364 595.50 397.50Q632 431 689 431Q746 431 782.50 397.50Q819 364 819 307Q819 279 808.50 258.50Q798 238 773 209L652 69L819 69L819 0Z"  horiz-adv-x="847" vert-adv-y="1000"  />

      
      <glyph glyph-name="unibe" unicode="&#xbe;" d="M302 409Q302 348 263.50 314.50Q225 281 167 281Q110 281 70.50 312.50Q31 344 30 407L107 407Q108 379 125 364.50Q142 350 167 350Q193 350 209 366Q225 382 225 411Q225 439 209 455Q193 471 164 471L153 471L153 537L164 537Q191 537 205.50 552.50Q220 568 220 592Q220 619 204.50 633.50Q189 648 166 648Q143 648 128 634.50Q113 621 112 596L36 596Q37 652 74 684.50Q111 717 166 717Q223 717 259.50 683Q296 649 296 595Q296 532 246 506Q302 477 302 409M632 712L297 0L215 0L550 712L632 712M828 61L788 61L788 0L715 0L715 61L541 61L541 132L687 427L771 427L624 132L715 132L715 215L788 215L788 132L828 132L828 61Z"  horiz-adv-x="847" vert-adv-y="1000"  />

      
      <glyph glyph-name="unibf" unicode="&#xbf;" d="M440-19Q440-103 383-157Q326-211 240-211Q156-211 98.50-158Q41-105 41-19Q41 40 88 104L166 212Q184 237 184 266L184 296L286 296L286 260Q286 208 251 161L174 56Q143 15 143-20Q143-63 170-91Q197-119 240-119Q285-119 311.50-90Q338-61 338-19L440-19M291 398L179 398L179 507L291 507L291 398Z"  horiz-adv-x="511" vert-adv-y="1000"  />

      
      <glyph glyph-name="unic0" unicode="&#xc0;" d="M617 0L502 0L453 143L172 143L123 0L8 0L269 712L356 712L617 0M423 235L315 551L204 235L423 235M361 781L284 781L173 943L286 943L361 781Z"  horiz-adv-x="625" vert-adv-y="1000"  />

      
      <glyph glyph-name="unic1" unicode="&#xc1;" d="M617 0L502 0L453 143L172 143L123 0L8 0L269 712L356 712L617 0M423 235L315 551L204 235L423 235M446 943L335 781L258 781L333 943L446 943Z"  horiz-adv-x="625" vert-adv-y="1000"  />

      
      <glyph glyph-name="unic2" unicode="&#xc2;" d="M617 0L502 0L453 143L172 143L123 0L8 0L269 712L356 712L617 0M423 235L315 551L204 235L423 235M482 781L397 781L310 878L223 781L138 781L267 942L353 942L482 781Z"  horiz-adv-x="625" vert-adv-y="1000"  />

      
      <glyph glyph-name="unic3" unicode="&#xc3;" d="M617 0L502 0L453 143L172 143L123 0L8 0L269 712L356 712L617 0M423 235L315 551L204 235L423 235M478 846Q423 791 374 791Q339 791 299 814Q266 833 243 833Q215 833 185 803L137 850Q192 905 241 905Q276 905 316 881Q348 862 371 862Q399 862 430 893L478 846Z"  horiz-adv-x="625" vert-adv-y="1000"  />

      
      <glyph glyph-name="unic4" unicode="&#xc4;" d="M617 0L502 0L453 143L172 143L123 0L8 0L269 712L356 712L617 0M423 235L315 551L204 235L423 235M466 786L374 786L374 894L466 894L466 786M250 786L158 786L158 894L250 894L250 786Z"  horiz-adv-x="625" vert-adv-y="1000"  />

      
      <glyph glyph-name="unic5" unicode="&#xc5;" d="M617 0L502 0L453 143L172 143L123 0L8 0L269 712L356 712L617 0M423 235L315 551L204 235L423 235M398.50 963.50Q398.50 963.50 416.75 945.25Q435 927 435 875Q435 823 398.50 786.50Q362 750 310 750Q258 750 221.50 786.50Q185 823 185 875Q185 927 221.50 963.50Q258 1000 310 1000Q362 1000 398.50 963.50M355 830.50Q355 830.50 364.50 839.75Q374 849 374 875Q374 901 355 919.50Q336 938 310 938Q284 938 265 919.50Q246 901 246 875Q246 849 265 830.50Q284 812 310 812Q336 812 355 830.50Z"  horiz-adv-x="625" vert-adv-y="1000"  />

      
      <glyph glyph-name="unic6" unicode="&#xc6;" d="M897 0L442 0L442 162L207 162L123 0L5 0L379 712L897 712L897 615L550 615L550 406L846 406L846 309L550 309L550 97L897 97L897 0M442 254L442 615L254 254L442 254Z"  horiz-adv-x="952" vert-adv-y="1000"  />

      
      <glyph glyph-name="unic7" unicode="&#xc7;" d="M577 213Q559 109 490.50 51.50Q422-6 323-6Q211-6 139 66Q91 115 79 172.50Q67 230 67 356Q67 482 79 539.50Q91 597 139 646Q211 718 323 718Q423 718 490.50 660.50Q558 603 577 499L467 499Q455 556 418 589Q381 622 323 622Q259 622 218 578Q191 550 183 506.50Q175 463 175 356Q175 249 183 205.50Q191 162 218 134Q259 90 323 90Q381 90 418.50 123Q456 156 469 213L577 213M374-64L323-211L222-211L292-64L374-64Z"  horiz-adv-x="628" vert-adv-y="1000"  />

      
      <glyph glyph-name="unic8" unicode="&#xc8;" d="M548 0L93 0L93 712L548 712L548 615L201 615L201 407L497 407L497 311L201 311L201 97L548 97L548 0M363 781L286 781L175 943L288 943L363 781Z"  horiz-adv-x="603" vert-adv-y="1000"  />

      
      <glyph glyph-name="unic9" unicode="&#xc9;" d="M548 0L93 0L93 712L548 712L548 615L201 615L201 407L497 407L497 311L201 311L201 97L548 97L548 0M447 943L336 781L259 781L334 943L447 943Z"  horiz-adv-x="603" vert-adv-y="1000"  />

      
      <glyph glyph-name="unica" unicode="&#xca;" d="M548 0L93 0L93 712L548 712L548 615L201 615L201 407L497 407L497 311L201 311L201 97L548 97L548 0M483 781L398 781L311 878L224 781L139 781L268 942L354 942L483 781Z"  horiz-adv-x="603" vert-adv-y="1000"  />

      
      <glyph glyph-name="unicb" unicode="&#xcb;" d="M548 0L93 0L93 712L548 712L548 615L201 615L201 407L497 407L497 311L201 311L201 97L548 97L548 0M465 786L373 786L373 894L465 894L465 786M249 786L157 786L157 894L249 894L249 786Z"  horiz-adv-x="603" vert-adv-y="1000"  />

      
      <glyph glyph-name="unicc" unicode="&#xcc;" d="M201 0L93 0L93 712L201 712L201 0M202 781L125 781L14 943L127 943L202 781Z"  horiz-adv-x="294" vert-adv-y="1000"  />

      
      <glyph glyph-name="unicd" unicode="&#xcd;" d="M201 0L93 0L93 712L201 712L201 0M286 943L175 781L98 781L173 943L286 943Z"  horiz-adv-x="294" vert-adv-y="1000"  />

      
      <glyph glyph-name="unice" unicode="&#xce;" d="M201 0L93 0L93 712L201 712L201 0M320 781L235 781L148 878L61 781L-24 781L105 942L191 942L320 781Z"  horiz-adv-x="294" vert-adv-y="1000"  />

      
      <glyph glyph-name="unicf" unicode="&#xcf;" d="M201 0L93 0L93 712L201 712L201 0M302 786L210 786L210 894L302 894L302 786M86 786L-6 786L-6 894L86 894L86 786Z"  horiz-adv-x="294" vert-adv-y="1000"  />

      
      <glyph glyph-name="unid0" unicode="&#xd0;" d="M608.50 519.50Q608.50 519.50 613.25 489.75Q618 460 618 356Q618 252 608.50 192.50Q599 133 564 90Q491 0 362 0L112 0L112 318L38 318L38 401L112 401L112 712L362 712Q491 712 564 622Q599 579 608.50 519.50M503 218.50Q503 218.50 506.50 241.75Q510 265 510 356Q510 447 503 493.50Q496 540 472 567Q430 616 350 616L220 616L220 401L358 401L358 318L220 318L220 96L350 96Q430 96 472 145Q496 172 503 218.50Z"  horiz-adv-x="684" vert-adv-y="1000"  />

      
      <glyph glyph-name="unid1" unicode="&#xd1;" d="M629 0L530 0L201 501L201 0L93 0L93 712L192 712L521 212L521 712L629 712L629 0M530 846Q475 791 426 791Q391 791 351 814Q318 833 295 833Q267 833 237 803L189 850Q244 905 293 905Q328 905 368 881Q400 862 423 862Q451 862 482 893L530 846Z"  horiz-adv-x="722" vert-adv-y="1000"  />

      
      <glyph glyph-name="unid2" unicode="&#xd2;" d="M567.50 540Q567.50 540 573.25 511.50Q579 483 579 356Q579 229 567.50 172Q556 115 507 66Q435-6 323-6Q211-6 139 66Q90 115 78.50 172Q67 229 67 356Q67 483 78.50 540Q90 597 139 646Q211 718 323 718Q435 718 507 646Q556 597 567.50 540M463 205Q463 205 467 226.50Q471 248 471 356Q471 464 463 507.50Q455 551 429 578Q387 622 323 622Q259 622 217 578Q191 550 183 506.50Q175 463 175 356Q175 249 183 206Q191 163 217 135Q260 90 323 90Q386 90 429 135Q455 162 463 205M375 781L298 781L187 943L300 943L375 781Z"  horiz-adv-x="646" vert-adv-y="1000"  />

      
      <glyph glyph-name="unid3" unicode="&#xd3;" d="M567.50 540Q567.50 540 573.25 511.50Q579 483 579 356Q579 229 567.50 172Q556 115 507 66Q435-6 323-6Q211-6 139 66Q90 115 78.50 172Q67 229 67 356Q67 483 78.50 540Q90 597 139 646Q211 718 323 718Q435 718 507 646Q556 597 567.50 540M463 205Q463 205 467 226.50Q471 248 471 356Q471 464 463 507.50Q455 551 429 578Q387 622 323 622Q259 622 217 578Q191 550 183 506.50Q175 463 175 356Q175 249 183 206Q191 163 217 135Q260 90 323 90Q386 90 429 135Q455 162 463 205M459 943L348 781L271 781L346 943L459 943Z"  horiz-adv-x="646" vert-adv-y="1000"  />

      
      <glyph glyph-name="unid4" unicode="&#xd4;" d="M567.50 540Q567.50 540 573.25 511.50Q579 483 579 356Q579 229 567.50 172Q556 115 507 66Q435-6 323-6Q211-6 139 66Q90 115 78.50 172Q67 229 67 356Q67 483 78.50 540Q90 597 139 646Q211 718 323 718Q435 718 507 646Q556 597 567.50 540M463 205Q463 205 467 226.50Q471 248 471 356Q471 464 463 507.50Q455 551 429 578Q387 622 323 622Q259 622 217 578Q191 550 183 506.50Q175 463 175 356Q175 249 183 206Q191 163 217 135Q260 90 323 90Q386 90 429 135Q455 162 463 205M495 781L410 781L323 878L236 781L151 781L280 942L366 942L495 781Z"  horiz-adv-x="646" vert-adv-y="1000"  />

      
      <glyph glyph-name="unid5" unicode="&#xd5;" d="M567.50 540Q567.50 540 573.25 511.50Q579 483 579 356Q579 229 567.50 172Q556 115 507 66Q435-6 323-6Q211-6 139 66Q90 115 78.50 172Q67 229 67 356Q67 483 78.50 540Q90 597 139 646Q211 718 323 718Q435 718 507 646Q556 597 567.50 540M463 205Q463 205 467 226.50Q471 248 471 356Q471 464 463 507.50Q455 551 429 578Q387 622 323 622Q259 622 217 578Q191 550 183 506.50Q175 463 175 356Q175 249 183 206Q191 163 217 135Q260 90 323 90Q386 90 429 135Q455 162 463 205M492 846Q437 791 388 791Q353 791 313 814Q280 833 257 833Q229 833 199 803L151 850Q206 905 255 905Q290 905 330 881Q362 862 385 862Q413 862 444 893L492 846Z"  horiz-adv-x="646" vert-adv-y="1000"  />

      
      <glyph glyph-name="unid6" unicode="&#xd6;" d="M567.50 540Q567.50 540 573.25 511.50Q579 483 579 356Q579 229 567.50 172Q556 115 507 66Q435-6 323-6Q211-6 139 66Q90 115 78.50 172Q67 229 67 356Q67 483 78.50 540Q90 597 139 646Q211 718 323 718Q435 718 507 646Q556 597 567.50 540M463 205Q463 205 467 226.50Q471 248 471 356Q471 464 463 507.50Q455 551 429 578Q387 622 323 622Q259 622 217 578Q191 550 183 506.50Q175 463 175 356Q175 249 183 206Q191 163 217 135Q260 90 323 90Q386 90 429 135Q455 162 463 205M477 786L385 786L385 894L477 894L477 786M261 786L169 786L169 894L261 894L261 786Z"  horiz-adv-x="646" vert-adv-y="1000"  />

      
      <glyph glyph-name="unid7" unicode="&#xd7;" d="M476 132L412 69L266 214L121 69L57 132L203 278L57 424L121 488L266 342L412 488L476 424L330 278L476 132Z"  horiz-adv-x="533" vert-adv-y="1000"  />

      
      <glyph glyph-name="unid8" unicode="&#xd8;" d="M556 756L504 649Q555 599 567 542Q579 485 579 356Q579 229 567.50 172Q556 115 507 66Q435-6 323-6Q255-6 203 20L173-44L91-44L142 63L139 66Q91 114 79 172Q67 230 67 356Q67 482 79 539.50Q91 597 139 646Q211 718 323 718Q391 718 443 692L473 756L556 756M175 356Q175 209 196 166L403 599Q369 622 323 622Q259 622 217 578Q191 550 183 506.50Q175 463 175 356M471 356Q471 504 451 546L244 113Q278 90 323 90Q387 90 429 135Q455 163 463 205.50Q471 248 471 356Z"  horiz-adv-x="646" vert-adv-y="1000"  />

      
      <glyph glyph-name="unid9" unicode="&#xd9;" d="M593 240Q593 131 520 62.50Q447-6 337-6Q227-6 154.50 62.50Q82 131 82 240L82 712L190 712L190 245Q190 174 230 132.50Q270 91 337 91Q404 91 444.50 132.50Q485 174 485 245L485 712L593 712L593 240M390 781L313 781L202 943L315 943L390 781Z"  horiz-adv-x="675" vert-adv-y="1000"  />

      
      <glyph glyph-name="unida" unicode="&#xda;" d="M593 240Q593 131 520 62.50Q447-6 337-6Q227-6 154.50 62.50Q82 131 82 240L82 712L190 712L190 245Q190 174 230 132.50Q270 91 337 91Q404 91 444.50 132.50Q485 174 485 245L485 712L593 712L593 240M474 943L363 781L286 781L361 943L474 943Z"  horiz-adv-x="675" vert-adv-y="1000"  />

      
      <glyph glyph-name="unidb" unicode="&#xdb;" d="M593 240Q593 131 520 62.50Q447-6 337-6Q227-6 154.50 62.50Q82 131 82 240L82 712L190 712L190 245Q190 174 230 132.50Q270 91 337 91Q404 91 444.50 132.50Q485 174 485 245L485 712L593 712L593 240M510 781L425 781L338 878L251 781L166 781L295 942L381 942L510 781Z"  horiz-adv-x="675" vert-adv-y="1000"  />

      
      <glyph glyph-name="unidc" unicode="&#xdc;" d="M593 240Q593 131 520 62.50Q447-6 337-6Q227-6 154.50 62.50Q82 131 82 240L82 712L190 712L190 245Q190 174 230 132.50Q270 91 337 91Q404 91 444.50 132.50Q485 174 485 245L485 712L593 712L593 240M491 786L399 786L399 894L491 894L491 786M275 786L183 786L183 894L275 894L275 786Z"  horiz-adv-x="675" vert-adv-y="1000"  />

      
      <glyph glyph-name="unidd" unicode="&#xdd;" d="M539 712L326 293L326 0L218 0L218 293L5 712L123 712L272 399L421 712L539 712M408 943L297 781L220 781L295 943L408 943Z"  horiz-adv-x="544" vert-adv-y="1000"  />

      
      <glyph glyph-name="unide" unicode="&#xde;" d="M528.50 514Q528.50 514 559.75 483.50Q591 453 591 359Q591 265 528.50 204.50Q466 144 363 144L201 144L201 0L93 0L93 712L201 712L201 575L363 575Q466 575 528.50 514M482 359Q482 415 447.50 446.50Q413 478 356 478L201 478L201 241L356 241Q413 241 447.50 272.50Q482 304 482 359Z"  horiz-adv-x="637" vert-adv-y="1000"  />

      
      <glyph glyph-name="unidf" unicode="&#xdf;" d="M501 152Q501 80 460 39Q418 0 346 0L293 0L293 87L325 87Q357 87 377 104Q398 122 398 161L398 317Q398 349 380 370Q364 389 328 389L293 389L293 470L324 470Q357 470 377.50 489.50Q398 509 398 545Q398 583 373 605Q347 629 292 629Q184 629 184 516L184 0L81 0L81 522Q81 619 138.50 669Q196 719 295 719Q387 719 443.50 676Q500 633 500 548Q500 471 438 432Q471 416 486 389.50Q501 363 501 317L501 152Z"  horiz-adv-x="565" vert-adv-y="1000"  />

      
      <glyph glyph-name="unie0" unicode="&#xe0;" d="M454 0L354 0L354 46Q326 18 295.50 6Q265-6 219-6Q129-6 83 40Q43 82 43 149Q43 215 88.50 255Q134 295 219 295L352 295L352 331Q352 380 326 403Q300 426 241 426Q201 426 176.50 414.50Q152 403 130 376L64 439Q99 480 139.50 496.50Q180 513 245 513Q454 513 454 339L454 0M352 183L352 224L235 224Q142 224 142 151Q142 79 238 79Q299 79 330 108Q352 129 352 183M309 599L232 599L121 761L234 761L309 599Z"  horiz-adv-x="530" vert-adv-y="1000"  />

      
      <glyph glyph-name="unie1" unicode="&#xe1;" d="M454 0L354 0L354 46Q326 18 295.50 6Q265-6 219-6Q129-6 83 40Q43 82 43 149Q43 215 88.50 255Q134 295 219 295L352 295L352 331Q352 380 326 403Q300 426 241 426Q201 426 176.50 414.50Q152 403 130 376L64 439Q99 480 139.50 496.50Q180 513 245 513Q454 513 454 339L454 0M352 183L352 224L235 224Q142 224 142 151Q142 79 238 79Q299 79 330 108Q352 129 352 183M393 761L282 599L205 599L280 761L393 761Z"  horiz-adv-x="530" vert-adv-y="1000"  />

      
      <glyph glyph-name="unie2" unicode="&#xe2;" d="M454 0L354 0L354 46Q326 18 295.50 6Q265-6 219-6Q129-6 83 40Q43 82 43 149Q43 215 88.50 255Q134 295 219 295L352 295L352 331Q352 380 326 403Q300 426 241 426Q201 426 176.50 414.50Q152 403 130 376L64 439Q99 480 139.50 496.50Q180 513 245 513Q454 513 454 339L454 0M352 183L352 224L235 224Q142 224 142 151Q142 79 238 79Q299 79 330 108Q352 129 352 183M429 599L344 599L257 696L170 599L85 599L214 760L300 760L429 599Z"  horiz-adv-x="530" vert-adv-y="1000"  />

      
      <glyph glyph-name="unie3" unicode="&#xe3;" d="M454 0L354 0L354 46Q326 18 295.50 6Q265-6 219-6Q129-6 83 40Q43 82 43 149Q43 215 88.50 255Q134 295 219 295L352 295L352 331Q352 380 326 403Q300 426 241 426Q201 426 176.50 414.50Q152 403 130 376L64 439Q99 480 139.50 496.50Q180 513 245 513Q454 513 454 339L454 0M352 183L352 224L235 224Q142 224 142 151Q142 79 238 79Q299 79 330 108Q352 129 352 183M425 664Q370 609 321 609Q286 609 246 632Q213 651 190 651Q162 651 132 621L84 668Q139 723 188 723Q222 723 263 699Q295 680 318 680Q346 680 377 711L425 664Z"  horiz-adv-x="530" vert-adv-y="1000"  />

      
      <glyph glyph-name="unie4" unicode="&#xe4;" d="M454 0L354 0L354 46Q326 18 295.50 6Q265-6 219-6Q129-6 83 40Q43 82 43 149Q43 215 88.50 255Q134 295 219 295L352 295L352 331Q352 380 326 403Q300 426 241 426Q201 426 176.50 414.50Q152 403 130 376L64 439Q99 480 139.50 496.50Q180 513 245 513Q454 513 454 339L454 0M352 183L352 224L235 224Q142 224 142 151Q142 79 238 79Q299 79 330 108Q352 129 352 183M411 604L319 604L319 712L411 712L411 604M195 604L103 604L103 712L195 712L195 604Z"  horiz-adv-x="530" vert-adv-y="1000"  />

      
      <glyph glyph-name="unie5" unicode="&#xe5;" d="M454 0L354 0L354 46Q326 18 295.50 6Q265-6 219-6Q129-6 83 40Q43 82 43 149Q43 215 88.50 255Q134 295 219 295L352 295L352 331Q352 380 326 403Q300 426 241 426Q201 426 176.50 414.50Q152 403 130 376L64 439Q99 480 139.50 496.50Q180 513 245 513Q454 513 454 339L454 0M352 183L352 224L235 224Q142 224 142 151Q142 79 238 79Q299 79 330 108Q352 129 352 183M345.50 789.50Q345.50 789.50 363.75 771.25Q382 753 382 701Q382 649 345.50 612.50Q309 576 257 576Q205 576 168.50 612.50Q132 649 132 701Q132 753 168.50 789.50Q205 826 257 826Q309 826 345.50 789.50M302 656.50Q302 656.50 311.50 665.75Q321 675 321 701Q321 727 302 745.50Q283 764 257 764Q231 764 212 745.50Q193 727 193 701Q193 675 212 656.50Q231 638 257 638Q283 638 302 656.50Z"  horiz-adv-x="530" vert-adv-y="1000"  />

      
      <glyph glyph-name="unie6" unicode="&#xe6;" d="M782 224L453 224Q453 157 486.50 119.50Q520 82 582 82Q623 82 650.50 94Q678 106 705 134L770 73Q730 32 687 13Q644-6 580-6Q459-6 401 73Q363 28 322 11Q281-6 219-6Q129-6 83 40Q43 82 43 149Q43 215 88.50 255Q134 295 219 295L352 295L352 331Q352 380 326 403Q300 426 241 426Q201 426 176.50 414.50Q152 403 130 376L64 439Q99 480 139.50 496.50Q180 513 245 513Q369 513 417 446Q469 513 567 513Q668 513 725 446.50Q782 380 782 267L782 224M682 295Q679 340 668 364Q639 428 568 428Q496 428 467 364Q455 338 454 295L682 295M352 183L352 224L235 224Q142 224 142 151Q142 79 238 79Q299 79 330 108Q352 129 352 183Z"  horiz-adv-x="837" vert-adv-y="1000"  />

      
      <glyph glyph-name="unie7" unicode="&#xe7;" d="M448 66Q380-6 281-6Q236-6 197 8.50Q158 23 125.50 52.50Q93 82 74 133.50Q55 185 55 254Q55 323 74 374.50Q93 426 125.50 455.50Q158 485 197 499Q236 513 281 513Q381 513 448 442L378 374Q354 400 332.50 411Q311 422 281 422Q221 422 187 377Q157 339 157 254Q157 168 187 130Q221 85 281 85Q311 85 332.50 96Q354 107 378 133L448 66M319-64L268-211L167-211L237-64L319-64Z"  horiz-adv-x="485" vert-adv-y="1000"  />

      
      <glyph glyph-name="unie8" unicode="&#xe8;" d="M485 224L156 224Q156 157 189.50 119.50Q223 82 285 82Q326 82 353 94Q380 106 408 134L473 73Q432 32 389.50 13Q347-6 283-6Q179-6 117 56Q55 118 55 254Q55 376 113 444.50Q171 513 270 513Q371 513 428 446Q485 379 485 267L485 224M384 295Q381 340 370 364Q341 428 270 428Q198 428 169 364Q157 338 156 295L384 295M325 599L248 599L137 761L250 761L325 599Z"  horiz-adv-x="539" vert-adv-y="1000"  />

      
      <glyph glyph-name="unie9" unicode="&#xe9;" d="M485 224L156 224Q156 157 189.50 119.50Q223 82 285 82Q326 82 353 94Q380 106 408 134L473 73Q432 32 389.50 13Q347-6 283-6Q179-6 117 56Q55 118 55 254Q55 376 113 444.50Q171 513 270 513Q371 513 428 446Q485 379 485 267L485 224M384 295Q381 340 370 364Q341 428 270 428Q198 428 169 364Q157 338 156 295L384 295M409 761L298 599L221 599L296 761L409 761Z"  horiz-adv-x="539" vert-adv-y="1000"  />

      
      <glyph glyph-name="uniea" unicode="&#xea;" d="M485 224L156 224Q156 157 189.50 119.50Q223 82 285 82Q326 82 353 94Q380 106 408 134L473 73Q432 32 389.50 13Q347-6 283-6Q179-6 117 56Q55 118 55 254Q55 376 113 444.50Q171 513 270 513Q371 513 428 446Q485 379 485 267L485 224M384 295Q381 340 370 364Q341 428 270 428Q198 428 169 364Q157 338 156 295L384 295M444 599L359 599L272 696L185 599L100 599L229 760L315 760L444 599Z"  horiz-adv-x="539" vert-adv-y="1000"  />

      
      <glyph glyph-name="unieb" unicode="&#xeb;" d="M485 224L156 224Q156 157 189.50 119.50Q223 82 285 82Q326 82 353 94Q380 106 408 134L473 73Q432 32 389.50 13Q347-6 283-6Q179-6 117 56Q55 118 55 254Q55 376 113 444.50Q171 513 270 513Q371 513 428 446Q485 379 485 267L485 224M384 295Q381 340 370 364Q341 428 270 428Q198 428 169 364Q157 338 156 295L384 295M426 604L334 604L334 712L426 712L426 604M210 604L118 604L118 712L210 712L210 604Z"  horiz-adv-x="539" vert-adv-y="1000"  />

      
      <glyph glyph-name="uniec" unicode="&#xec;" d="M183 0L81 0L81 507L183 507L183 0M175 599L98 599L-13 761L100 761L175 599Z"  horiz-adv-x="264" vert-adv-y="1000"  />

      
      <glyph glyph-name="unied" unicode="&#xed;" d="M183 0L81 0L81 507L183 507L183 0M277 761L166 599L89 599L164 761L277 761Z"  horiz-adv-x="264" vert-adv-y="1000"  />

      
      <glyph glyph-name="uniee" unicode="&#xee;" d="M183 0L81 0L81 507L183 507L183 0M307 599L222 599L135 696L48 599L-37 599L92 760L178 760L307 599Z"  horiz-adv-x="264" vert-adv-y="1000"  />

      
      <glyph glyph-name="unief" unicode="&#xef;" d="M183 0L81 0L81 507L183 507L183 0M287 604L195 604L195 712L287 712L287 604M71 604L-21 604L-21 712L71 712L71 604Z"  horiz-adv-x="264" vert-adv-y="1000"  />

      
      <glyph glyph-name="unif0" unicode="&#xf0;" d="M476 249Q476 180 463.50 134Q451 88 417 53Q361-6 268-6Q176-6 120 53Q86 88 73.50 134Q61 180 61 249Q61 318 73.50 364Q86 410 120 445Q159 485 224 496Q241 499 258 499Q278 499 300 494L255 575L139 575L139 647L217 647L178 717L286 717L325 647L412 647L412 575L362 575L413 481Q451 411 463.50 365Q476 319 476 249M341 114Q374 148 374 249Q374 350 341 384Q312 413 268 413Q225 413 196 384Q163 350 163 249Q163 148 196 114Q225 85 268 85Q312 85 341 114Z"  horiz-adv-x="537" vert-adv-y="1000"  />

      
      <glyph glyph-name="unif1" unicode="&#xf1;" d="M492 0L390 0L390 309Q390 366 362 394Q334 422 288 422Q242 422 212.50 393.50Q183 365 183 309L183 0L81 0L81 507L181 507L181 456Q234 513 316 513Q393 513 441 467Q492 417 492 324L492 0M455 664Q400 609 351 609Q316 609 276 632Q243 651 220 651Q192 651 162 621L114 668Q169 723 218 723Q252 723 293 699Q325 680 348 680Q376 680 407 711L455 664Z"  horiz-adv-x="568" vert-adv-y="1000"  />

      
      <glyph glyph-name="unif2" unicode="&#xf2;" d="M480 254Q480 184 467 137Q454 90 420 54Q362-6 268-6Q175-6 117 54Q83 90 70 137Q57 184 57 254Q57 323 70 370.50Q83 418 117 453Q175 513 268 513Q362 513 420 453Q454 418 467 370.50Q480 323 480 254M343 115Q378 150 378 254Q378 358 343 393Q314 422 268 422Q223 422 194 393Q159 358 159 254Q159 150 194 115Q224 85 268 85Q313 85 343 115M313 599L236 599L125 761L238 761L313 599Z"  horiz-adv-x="537" vert-adv-y="1000"  />

      
      <glyph glyph-name="unif3" unicode="&#xf3;" d="M480 254Q480 184 467 137Q454 90 420 54Q362-6 268-6Q175-6 117 54Q83 90 70 137Q57 184 57 254Q57 323 70 370.50Q83 418 117 453Q175 513 268 513Q362 513 420 453Q454 418 467 370.50Q480 323 480 254M343 115Q378 150 378 254Q378 358 343 393Q314 422 268 422Q223 422 194 393Q159 358 159 254Q159 150 194 115Q224 85 268 85Q313 85 343 115M404 761L293 599L216 599L291 761L404 761Z"  horiz-adv-x="537" vert-adv-y="1000"  />

      
      <glyph glyph-name="unif4" unicode="&#xf4;" d="M480 254Q480 184 467 137Q454 90 420 54Q362-6 268-6Q175-6 117 54Q83 90 70 137Q57 184 57 254Q57 323 70 370.50Q83 418 117 453Q175 513 268 513Q362 513 420 453Q454 418 467 370.50Q480 323 480 254M343 115Q378 150 378 254Q378 358 343 393Q314 422 268 422Q223 422 194 393Q159 358 159 254Q159 150 194 115Q224 85 268 85Q313 85 343 115M440 599L355 599L268 696L181 599L96 599L225 760L311 760L440 599Z"  horiz-adv-x="537" vert-adv-y="1000"  />

      
      <glyph glyph-name="unif5" unicode="&#xf5;" d="M480 254Q480 184 467 137Q454 90 420 54Q362-6 268-6Q175-6 117 54Q83 90 70 137Q57 184 57 254Q57 323 70 370.50Q83 418 117 453Q175 513 268 513Q362 513 420 453Q454 418 467 370.50Q480 323 480 254M343 115Q378 150 378 254Q378 358 343 393Q314 422 268 422Q223 422 194 393Q159 358 159 254Q159 150 194 115Q224 85 268 85Q313 85 343 115M436 664Q381 609 332 609Q297 609 257 632Q224 651 201 651Q173 651 143 621L95 668Q150 723 199 723Q233 723 274 699Q306 680 329 680Q357 680 388 711L436 664Z"  horiz-adv-x="537" vert-adv-y="1000"  />

      
      <glyph glyph-name="unif6" unicode="&#xf6;" d="M480 254Q480 184 467 137Q454 90 420 54Q362-6 268-6Q175-6 117 54Q83 90 70 137Q57 184 57 254Q57 323 70 370.50Q83 418 117 453Q175 513 268 513Q362 513 420 453Q454 418 467 370.50Q480 323 480 254M343 115Q378 150 378 254Q378 358 343 393Q314 422 268 422Q223 422 194 393Q159 358 159 254Q159 150 194 115Q224 85 268 85Q313 85 343 115M422 604L330 604L330 712L422 712L422 604M206 604L114 604L114 712L206 712L206 604Z"  horiz-adv-x="537" vert-adv-y="1000"  />

      
      <glyph glyph-name="unif7" unicode="&#xf7;" d="M484 230L48 230L48 325L484 325L484 230M321 33L212 33L212 142L321 142L321 33M321 414L212 414L212 523L321 523L321 414Z"  horiz-adv-x="533" vert-adv-y="1000"  />

      
      <glyph glyph-name="unif8" unicode="&#xf8;" d="M480 254Q480 184 467 137Q454 90 420 54Q362-6 268-6Q211-6 164 19L127-44L58-44L116 55Q82 90 69.50 137.50Q57 185 57 254Q57 323 70 370.50Q83 418 117 453Q175 513 268 513Q326 513 373 488L410 551L479 551L420 453Q454 418 467 370.50Q480 323 480 254M378 254Q378 328 363 363L209 103Q235 85 268 85Q313 85 343 115Q378 150 378 254M328 405Q302 422 268 422Q223 422 194 393Q159 358 159 254Q159 180 174 145L328 405Z"  horiz-adv-x="537" vert-adv-y="1000"  />

      
      <glyph glyph-name="unif9" unicode="&#xf9;" d="M487 0L387 0L387 51Q334-6 252-6Q175-6 127 40Q76 90 76 183L76 507L178 507L178 198Q178 142 206 113.50Q234 85 280 85Q326 85 355.50 113.50Q385 142 385 198L385 507L487 507L487 0M333 599L256 599L145 761L258 761L333 599Z"  horiz-adv-x="568" vert-adv-y="1000"  />

      
      <glyph glyph-name="unifa" unicode="&#xfa;" d="M487 0L387 0L387 51Q334-6 252-6Q175-6 127 40Q76 90 76 183L76 507L178 507L178 198Q178 142 206 113.50Q234 85 280 85Q326 85 355.50 113.50Q385 142 385 198L385 507L487 507L487 0M417 761L306 599L229 599L304 761L417 761Z"  horiz-adv-x="568" vert-adv-y="1000"  />

      
      <glyph glyph-name="unifb" unicode="&#xfb;" d="M487 0L387 0L387 51Q334-6 252-6Q175-6 127 40Q76 90 76 183L76 507L178 507L178 198Q178 142 206 113.50Q234 85 280 85Q326 85 355.50 113.50Q385 142 385 198L385 507L487 507L487 0M453 599L368 599L281 696L194 599L109 599L238 760L324 760L453 599Z"  horiz-adv-x="568" vert-adv-y="1000"  />

      
      <glyph glyph-name="unifc" unicode="&#xfc;" d="M487 0L387 0L387 51Q334-6 252-6Q175-6 127 40Q76 90 76 183L76 507L178 507L178 198Q178 142 206 113.50Q234 85 280 85Q326 85 355.50 113.50Q385 142 385 198L385 507L487 507L487 0M434 604L342 604L342 712L434 712L434 604M218 604L126 604L126 712L218 712L218 604Z"  horiz-adv-x="568" vert-adv-y="1000"  />

      
      <glyph glyph-name="unifd" unicode="&#xfd;" d="M464 507L240-101Q226-141 203-164Q166-201 99-201L58-201L58-109L84-109Q116-109 131-97.50Q146-86 157-55L185 24L8 507L116 507L237 150L355 507L464 507M372 761L261 599L184 599L259 761L372 761Z"  horiz-adv-x="468" vert-adv-y="1000"  />

      
      <glyph glyph-name="unife" unicode="&#xfe;" d="M496 254Q496 97 439 39Q394-6 316-6Q231-6 183 52L183-205L81-205L81 712L183 712L183 456Q231 513 316 513Q394 513 439 468Q496 410 496 254M390.50 189Q390.50 189 392.25 202.50Q394 216 394 254Q394 292 390.50 319Q387 346 376.50 371Q366 396 344 409Q322 422 289 422Q255 422 233 409Q211 396 200.50 371Q190 346 186.50 319Q183 292 183 254Q183 216 186.50 189Q190 162 200.50 136.50Q211 111 233.50 98Q256 85 289 85Q322 85 344 98Q366 111 376.50 136.50Q387 162 390.50 189Z"  horiz-adv-x="554" vert-adv-y="1000"  />

      
      <glyph glyph-name="uniff" unicode="&#xff;" d="M464 507L240-101Q226-141 203-164Q166-201 99-201L58-201L58-109L84-109Q116-109 131-97.50Q146-86 157-55L185 24L8 507L116 507L237 150L355 507L464 507M390 604L298 604L298 712L390 712L390 604M174 604L82 604L82 712L174 712L174 604Z"  horiz-adv-x="468" vert-adv-y="1000"  />

      
      <glyph glyph-name="uni0100" unicode="&#x0100;" d="M617 0L502 0L453 143L172 143L123 0L8 0L269 712L356 712L617 0M423 235L315 551L204 235L423 235M157 795L157 868L466 868L466 795L157 795Z"  horiz-adv-x="625" vert-adv-y="1000"  />

      
      <glyph glyph-name="uni0101" unicode="&#x0101;" d="M454 0L354 0L354 46Q326 18 295.50 6Q265-6 219-6Q129-6 83 40Q43 82 43 149Q43 215 88.50 255Q134 295 219 295L352 295L352 331Q352 380 326 403Q300 426 241 426Q201 426 176.50 414.50Q152 403 130 376L64 439Q99 480 139.50 496.50Q180 513 245 513Q454 513 454 339L454 0M352 183L352 224L235 224Q142 224 142 151Q142 79 238 79Q299 79 330 108Q352 129 352 183M109 618L109 691L418 691L418 618L109 618Z"  horiz-adv-x="530" vert-adv-y="1000"  />

      
      <glyph glyph-name="uni0102" unicode="&#x0102;" d="M617 0L502 0L453 143L172 143L123 0L8 0L269 712L356 712L617 0M423 235L315 551L204 235L423 235M480 937Q476 864 432 828Q388 792 315 792Q242 792 198 828Q154 864 150 937L222 937Q226 903 251.50 884.50Q277 866 315 866Q353 866 378.50 884.50Q404 903 408 937L480 937Z"  horiz-adv-x="625" vert-adv-y="1000"  />

      
      <glyph glyph-name="uni0103" unicode="&#x0103;" d="M454 0L354 0L354 46Q326 18 295.50 6Q265-6 219-6Q129-6 83 40Q43 82 43 149Q43 215 88.50 255Q134 295 219 295L352 295L352 331Q352 380 326 403Q300 426 241 426Q201 426 176.50 414.50Q152 403 130 376L64 439Q99 480 139.50 496.50Q180 513 245 513Q454 513 454 339L454 0M352 183L352 224L235 224Q142 224 142 151Q142 79 238 79Q299 79 330 108Q352 129 352 183M411 738Q407 665 363.50 629Q320 593 247 593Q173 593 129.50 629Q86 665 82 738L154 738Q158 704 183 686Q208 668 247 668Q280 668 307.50 685.50Q335 703 339 738L411 738Z"  horiz-adv-x="530" vert-adv-y="1000"  />

      
      <glyph glyph-name="uni0104" unicode="&#x0104;" d="M617 0L502 0L453 143L172 143L123 0L8 0L269 712L356 712L617 0M423 235L315 551L204 235L423 235M575-64L524-211L423-211L493-64L575-64Z"  horiz-adv-x="625" vert-adv-y="1000"  />

      
      <glyph glyph-name="uni0105" unicode="&#x0105;" d="M454 0L354 0L354 46Q326 18 295.50 6Q265-6 219-6Q129-6 83 40Q43 82 43 149Q43 215 88.50 255Q134 295 219 295L352 295L352 331Q352 380 326 403Q300 426 241 426Q201 426 176.50 414.50Q152 403 130 376L64 439Q99 480 139.50 496.50Q180 513 245 513Q454 513 454 339L454 0M352 183L352 224L235 224Q142 224 142 151Q142 79 238 79Q299 79 330 108Q352 129 352 183M436-64L385-211L284-211L354-64L436-64Z"  horiz-adv-x="530" vert-adv-y="1000"  />

      
      <glyph glyph-name="uni0106" unicode="&#x0106;" d="M577 213Q559 109 490.50 51.50Q422-6 323-6Q211-6 139 66Q91 115 79 172.50Q67 230 67 356Q67 482 79 539.50Q91 597 139 646Q211 718 323 718Q423 718 490.50 660.50Q558 603 577 499L467 499Q455 556 418 589Q381 622 323 622Q259 622 218 578Q191 550 183 506.50Q175 463 175 356Q175 249 183 205.50Q191 162 218 134Q259 90 323 90Q381 90 418.50 123Q456 156 469 213L577 213M450 943L339 781L262 781L337 943L450 943Z"  horiz-adv-x="628" vert-adv-y="1000"  />

      
      <glyph glyph-name="uni0107" unicode="&#x0107;" d="M448 66Q380-6 281-6Q236-6 197 8.50Q158 23 125.50 52.50Q93 82 74 133.50Q55 185 55 254Q55 323 74 374.50Q93 426 125.50 455.50Q158 485 197 499Q236 513 281 513Q381 513 448 442L378 374Q354 400 332.50 411Q311 422 281 422Q221 422 187 377Q157 339 157 254Q157 168 187 130Q221 85 281 85Q311 85 332.50 96Q354 107 378 133L448 66M401 761L290 599L213 599L288 761L401 761Z"  horiz-adv-x="485" vert-adv-y="1000"  />

      
      <glyph glyph-name="uni0108" unicode="&#x0108;" d="M577 213Q559 109 490.50 51.50Q422-6 323-6Q211-6 139 66Q91 115 79 172.50Q67 230 67 356Q67 482 79 539.50Q91 597 139 646Q211 718 323 718Q423 718 490.50 660.50Q558 603 577 499L467 499Q455 556 418 589Q381 622 323 622Q259 622 218 578Q191 550 183 506.50Q175 463 175 356Q175 249 183 205.50Q191 162 218 134Q259 90 323 90Q381 90 418.50 123Q456 156 469 213L577 213M495 781L410 781L323 878L236 781L151 781L280 942L366 942L495 781Z"  horiz-adv-x="628" vert-adv-y="1000"  />

      
      <glyph glyph-name="uni0109" unicode="&#x0109;" d="M448 66Q380-6 281-6Q236-6 197 8.50Q158 23 125.50 52.50Q93 82 74 133.50Q55 185 55 254Q55 323 74 374.50Q93 426 125.50 455.50Q158 485 197 499Q236 513 281 513Q381 513 448 442L378 374Q354 400 332.50 411Q311 422 281 422Q221 422 187 377Q157 339 157 254Q157 168 187 130Q221 85 281 85Q311 85 332.50 96Q354 107 378 133L448 66M452 599L367 599L280 696L193 599L108 599L237 760L323 760L452 599Z"  horiz-adv-x="485" vert-adv-y="1000"  />

      
      <glyph glyph-name="uni010A" unicode="&#x010A;" d="M577 213Q559 109 490.50 51.50Q422-6 323-6Q211-6 139 66Q91 115 79 172.50Q67 230 67 356Q67 482 79 539.50Q91 597 139 646Q211 718 323 718Q423 718 490.50 660.50Q558 603 577 499L467 499Q455 556 418 589Q381 622 323 622Q259 622 218 578Q191 550 183 506.50Q175 463 175 356Q175 249 183 205.50Q191 162 218 134Q259 90 323 90Q381 90 418.50 123Q456 156 469 213L577 213M272 793L272 890L369 890L369 793L272 793Z"  horiz-adv-x="628" vert-adv-y="1000"  />

      
      <glyph glyph-name="uni010B" unicode="&#x010B;" d="M448 66Q380-6 281-6Q236-6 197 8.50Q158 23 125.50 52.50Q93 82 74 133.50Q55 185 55 254Q55 323 74 374.50Q93 426 125.50 455.50Q158 485 197 499Q236 513 281 513Q381 513 448 442L378 374Q354 400 332.50 411Q311 422 281 422Q221 422 187 377Q157 339 157 254Q157 168 187 130Q221 85 281 85Q311 85 332.50 96Q354 107 378 133L448 66M231 611L231 708L328 708L328 611L231 611Z"  horiz-adv-x="485" vert-adv-y="1000"  />

      
      <glyph glyph-name="uni010C" unicode="&#x010C;" d="M577 213Q559 109 490.50 51.50Q422-6 323-6Q211-6 139 66Q91 115 79 172.50Q67 230 67 356Q67 482 79 539.50Q91 597 139 646Q211 718 323 718Q423 718 490.50 660.50Q558 603 577 499L467 499Q455 556 418 589Q381 622 323 622Q259 622 218 578Q191 550 183 506.50Q175 463 175 356Q175 249 183 205.50Q191 162 218 134Q259 90 323 90Q381 90 418.50 123Q456 156 469 213L577 213M486 942L357 781L271 781L142 942L227 942L314 845L401 942L486 942Z"  horiz-adv-x="628" vert-adv-y="1000"  />

      
      <glyph glyph-name="uni010D" unicode="&#x010D;" d="M448 66Q380-6 281-6Q236-6 197 8.50Q158 23 125.50 52.50Q93 82 74 133.50Q55 185 55 254Q55 323 74 374.50Q93 426 125.50 455.50Q158 485 197 499Q236 513 281 513Q381 513 448 442L378 374Q354 400 332.50 411Q311 422 281 422Q221 422 187 377Q157 339 157 254Q157 168 187 130Q221 85 281 85Q311 85 332.50 96Q354 107 378 133L448 66M453 760L324 599L238 599L109 760L194 760L281 663L368 760L453 760Z"  horiz-adv-x="485" vert-adv-y="1000"  />

      
      <glyph glyph-name="uni010E" unicode="&#x010E;" d="M589.50 519.50Q589.50 519.50 594.25 489.75Q599 460 599 356Q599 252 589.50 192.50Q580 133 545 90Q472 0 343 0L93 0L93 712L343 712Q472 712 545 622Q580 579 589.50 519.50M484 218.50Q484 218.50 487.50 241.75Q491 265 491 356Q491 447 484 493.50Q477 540 453 567Q411 616 331 616L201 616L201 96L331 96Q411 96 453 145Q477 172 484 218.50M505 942L376 781L290 781L161 942L246 942L333 845L420 942L505 942Z"  horiz-adv-x="666" vert-adv-y="1000"  />

      
      <glyph glyph-name="uni010F" unicode="&#x010F;" d="M472 0L372 0L372 54Q322-6 238-6Q159-6 114 39Q57 97 57 254Q57 410 114 468Q159 513 237 513Q322 513 370 456L370 712L472 712L472 0M366.50 189Q366.50 189 368.25 202.50Q370 216 370 254Q370 292 366.50 319Q363 346 352.50 371Q342 396 320 409Q298 422 265 422Q231 422 209 409Q187 396 176.50 371Q166 346 162.50 319Q159 292 159 254Q159 216 162.50 189Q166 162 176.50 136.50Q187 111 209.50 98Q232 85 265 85Q298 85 320 98Q342 111 352.50 136.50Q363 162 366.50 189M663 730L607 571L532 571L569 730L663 730Z"  horiz-adv-x="553" vert-adv-y="1000"  />

      
      <glyph glyph-name="uni0110" unicode="&#x0110;" d="M608.50 519.50Q608.50 519.50 613.25 489.75Q618 460 618 356Q618 252 608.50 192.50Q599 133 564 90Q491 0 362 0L112 0L112 318L38 318L38 401L112 401L112 712L362 712Q491 712 564 622Q599 579 608.50 519.50M503 218.50Q503 218.50 506.50 241.75Q510 265 510 356Q510 447 503 493.50Q496 540 472 567Q430 616 350 616L220 616L220 401L358 401L358 318L220 318L220 96L350 96Q430 96 472 145Q496 172 503 218.50Z"  horiz-adv-x="684" vert-adv-y="1000"  />

      
      <glyph glyph-name="uni0111" unicode="&#x0111;" d="M472 0L372 0L372 54Q322-6 238-6Q159-6 114 39Q57 97 57 254Q57 410 114 468Q159 513 237 513Q322 513 370 456L370 569L301 569L301 642L370 642L370 712L472 712L472 642L531 642L531 569L472 569L472 0M366.50 189Q366.50 189 368.25 202.50Q370 216 370 254Q370 292 366.50 319Q363 346 352.50 371Q342 396 320 409Q298 422 265 422Q231 422 209 409Q187 396 176.50 371Q166 346 162.50 319Q159 292 159 254Q159 216 162.50 189Q166 162 176.50 136.50Q187 111 209.50 98Q232 85 265 85Q298 85 320 98Q342 111 352.50 136.50Q363 162 366.50 189Z"  horiz-adv-x="571" vert-adv-y="1000"  />

      
      <glyph glyph-name="uni0112" unicode="&#x0112;" d="M548 0L93 0L93 712L548 712L548 615L201 615L201 407L497 407L497 311L201 311L201 97L548 97L548 0M154 795L154 868L463 868L463 795L154 795Z"  horiz-adv-x="603" vert-adv-y="1000"  />

      
      <glyph glyph-name="uni0113" unicode="&#x0113;" d="M485 224L156 224Q156 157 189.50 119.50Q223 82 285 82Q326 82 353 94Q380 106 408 134L473 73Q432 32 389.50 13Q347-6 283-6Q179-6 117 56Q55 118 55 254Q55 376 113 444.50Q171 513 270 513Q371 513 428 446Q485 379 485 267L485 224M384 295Q381 340 370 364Q341 428 270 428Q198 428 169 364Q157 338 156 295L384 295M114 618L114 691L423 691L423 618L114 618Z"  horiz-adv-x="539" vert-adv-y="1000"  />

      
      <glyph glyph-name="uni0114" unicode="&#x0114;" d="M548 0L93 0L93 712L548 712L548 615L201 615L201 407L497 407L497 311L201 311L201 97L548 97L548 0M475 937Q471 864 427 828Q383 792 310 792Q237 792 193 828Q149 864 145 937L217 937Q221 903 246.50 884.50Q272 866 310 866Q348 866 373.50 884.50Q399 903 403 937L475 937Z"  horiz-adv-x="603" vert-adv-y="1000"  />

      
      <glyph glyph-name="uni0115" unicode="&#x0115;" d="M485 224L156 224Q156 157 189.50 119.50Q223 82 285 82Q326 82 353 94Q380 106 408 134L473 73Q432 32 389.50 13Q347-6 283-6Q179-6 117 56Q55 118 55 254Q55 376 113 444.50Q171 513 270 513Q371 513 428 446Q485 379 485 267L485 224M384 295Q381 340 370 364Q341 428 270 428Q198 428 169 364Q157 338 156 295L384 295M437 738Q433 665 389.50 629Q346 593 273 593Q199 593 155.50 629Q112 665 108 738L180 738Q184 704 209 686Q234 668 273 668Q306 668 333.50 685.50Q361 703 365 738L437 738Z"  horiz-adv-x="539" vert-adv-y="1000"  />

      
      <glyph glyph-name="uni0116" unicode="&#x0116;" d="M548 0L93 0L93 712L548 712L548 615L201 615L201 407L497 407L497 311L201 311L201 97L548 97L548 0M260 793L260 890L357 890L357 793L260 793Z"  horiz-adv-x="603" vert-adv-y="1000"  />

      
      <glyph glyph-name="uni0117" unicode="&#x0117;" d="M485 224L156 224Q156 157 189.50 119.50Q223 82 285 82Q326 82 353 94Q380 106 408 134L473 73Q432 32 389.50 13Q347-6 283-6Q179-6 117 56Q55 118 55 254Q55 376 113 444.50Q171 513 270 513Q371 513 428 446Q485 379 485 267L485 224M384 295Q381 340 370 364Q341 428 270 428Q198 428 169 364Q157 338 156 295L384 295M220 611L220 708L317 708L317 611L220 611Z"  horiz-adv-x="539" vert-adv-y="1000"  />

      
      <glyph glyph-name="uni0118" unicode="&#x0118;" d="M548 0L93 0L93 712L548 712L548 615L201 615L201 407L497 407L497 311L201 311L201 97L548 97L548 0M548-64L497-211L396-211L466-64L548-64Z"  horiz-adv-x="603" vert-adv-y="1000"  />

      
      <glyph glyph-name="uni0119" unicode="&#x0119;" d="M485 224L156 224Q156 157 189.50 119.50Q223 82 285 82Q326 82 353 94Q380 106 408 134L473 73Q432 32 389.50 13Q347-6 283-6Q179-6 117 56Q55 118 55 254Q55 376 113 444.50Q171 513 270 513Q371 513 428 446Q485 379 485 267L485 224M384 295Q381 340 370 364Q341 428 270 428Q198 428 169 364Q157 338 156 295L384 295M389-64L338-211L237-211L307-64L389-64Z"  horiz-adv-x="539" vert-adv-y="1000"  />

      
      <glyph glyph-name="uni011A" unicode="&#x011A;" d="M548 0L93 0L93 712L548 712L548 615L201 615L201 407L497 407L497 311L201 311L201 97L548 97L548 0M481 942L352 781L266 781L137 942L222 942L309 845L396 942L481 942Z"  horiz-adv-x="603" vert-adv-y="1000"  />

      
      <glyph glyph-name="uni011B" unicode="&#x011B;" d="M485 224L156 224Q156 157 189.50 119.50Q223 82 285 82Q326 82 353 94Q380 106 408 134L473 73Q432 32 389.50 13Q347-6 283-6Q179-6 117 56Q55 118 55 254Q55 376 113 444.50Q171 513 270 513Q371 513 428 446Q485 379 485 267L485 224M384 295Q381 340 370 364Q341 428 270 428Q198 428 169 364Q157 338 156 295L384 295M441 760L312 599L226 599L97 760L182 760L269 663L356 760L441 760Z"  horiz-adv-x="539" vert-adv-y="1000"  />

      
      <glyph glyph-name="uni011C" unicode="&#x011C;" d="M583 276Q583 206 568.50 159.50Q554 113 519 75Q442-6 323-6Q211-6 139 66Q91 115 79 172.50Q67 230 67 356Q67 482 79 539.50Q91 597 139 646Q211 718 323 718Q431 718 498.50 656Q566 594 581 498L473 498Q459 557 420.50 589.50Q382 622 323 622Q259 622 217 578Q191 550 183 506.50Q175 463 175 356Q175 249 183 205.50Q191 162 217 134Q259 90 323 90Q397 90 440 141Q475 181 475 253L475 293L323 293L323 385L583 385L583 276M495 781L410 781L323 878L236 781L151 781L280 942L366 942L495 781Z"  horiz-adv-x="649" vert-adv-y="1000"  />

      
      <glyph glyph-name="uni011D" unicode="&#x011D;" d="M468 3Q468-92 409.50-151.50Q351-211 251-211Q193-211 152.50-196Q112-181 72-144L137-79Q185-124 247-124Q308-124 337-87.50Q366-51 366 5L366 70Q317 12 235 12Q159 12 114 57Q80 91 68.50 140Q57 189 57 263Q57 337 68.50 386Q80 435 114 469Q158 513 236 513Q319 513 369 453L369 507L468 507L468 3M362.50 203.50Q362.50 203.50 364.25 215.75Q366 228 366 263Q366 298 362.50 322.50Q359 347 349 371.50Q339 396 317.50 409Q296 422 263 422Q230 422 208 409Q186 396 176 371.50Q166 347 162.50 322Q159 297 159 263Q159 229 162.50 204Q166 179 176 154.50Q186 130 208 117Q230 104 263 104Q296 104 317.50 117Q339 130 349 154.50Q359 179 362.50 203.50M435 599L350 599L263 696L176 599L91 599L220 760L306 760L435 599Z"  horiz-adv-x="549" vert-adv-y="1000"  />

      
      <glyph glyph-name="uni011E" unicode="&#x011E;" d="M583 276Q583 206 568.50 159.50Q554 113 519 75Q442-6 323-6Q211-6 139 66Q91 115 79 172.50Q67 230 67 356Q67 482 79 539.50Q91 597 139 646Q211 718 323 718Q431 718 498.50 656Q566 594 581 498L473 498Q459 557 420.50 589.50Q382 622 323 622Q259 622 217 578Q191 550 183 506.50Q175 463 175 356Q175 249 183 205.50Q191 162 217 134Q259 90 323 90Q397 90 440 141Q475 181 475 253L475 293L323 293L323 385L583 385L583 276M488 937Q484 864 440 828Q396 792 323 792Q250 792 206 828Q162 864 158 937L230 937Q234 903 259.50 884.50Q285 866 323 866Q361 866 386.50 884.50Q412 903 416 937L488 937Z"  horiz-adv-x="649" vert-adv-y="1000"  />

      
      <glyph glyph-name="uni011F" unicode="&#x011F;" d="M468 3Q468-92 409.50-151.50Q351-211 251-211Q193-211 152.50-196Q112-181 72-144L137-79Q185-124 247-124Q308-124 337-87.50Q366-51 366 5L366 70Q317 12 235 12Q159 12 114 57Q80 91 68.50 140Q57 189 57 263Q57 337 68.50 386Q80 435 114 469Q158 513 236 513Q319 513 369 453L369 507L468 507L468 3M362.50 203.50Q362.50 203.50 364.25 215.75Q366 228 366 263Q366 298 362.50 322.50Q359 347 349 371.50Q339 396 317.50 409Q296 422 263 422Q230 422 208 409Q186 396 176 371.50Q166 347 162.50 322Q159 297 159 263Q159 229 162.50 204Q166 179 176 154.50Q186 130 208 117Q230 104 263 104Q296 104 317.50 117Q339 130 349 154.50Q359 179 362.50 203.50M427 738Q423 665 379.50 629Q336 593 263 593Q189 593 145.50 629Q102 665 98 738L170 738Q174 704 199 686Q224 668 263 668Q296 668 323.50 685.50Q351 703 355 738L427 738Z"  horiz-adv-x="549" vert-adv-y="1000"  />

      
      <glyph glyph-name="uni0120" unicode="&#x0120;" d="M583 276Q583 206 568.50 159.50Q554 113 519 75Q442-6 323-6Q211-6 139 66Q91 115 79 172.50Q67 230 67 356Q67 482 79 539.50Q91 597 139 646Q211 718 323 718Q431 718 498.50 656Q566 594 581 498L473 498Q459 557 420.50 589.50Q382 622 323 622Q259 622 217 578Q191 550 183 506.50Q175 463 175 356Q175 249 183 205.50Q191 162 217 134Q259 90 323 90Q397 90 440 141Q475 181 475 253L475 293L323 293L323 385L583 385L583 276M273 793L273 890L370 890L370 793L273 793Z"  horiz-adv-x="649" vert-adv-y="1000"  />

      
      <glyph glyph-name="uni0121" unicode="&#x0121;" d="M468 3Q468-92 409.50-151.50Q351-211 251-211Q193-211 152.50-196Q112-181 72-144L137-79Q185-124 247-124Q308-124 337-87.50Q366-51 366 5L366 70Q317 12 235 12Q159 12 114 57Q80 91 68.50 140Q57 189 57 263Q57 337 68.50 386Q80 435 114 469Q158 513 236 513Q319 513 369 453L369 507L468 507L468 3M362.50 203.50Q362.50 203.50 364.25 215.75Q366 228 366 263Q366 298 362.50 322.50Q359 347 349 371.50Q339 396 317.50 409Q296 422 263 422Q230 422 208 409Q186 396 176 371.50Q166 347 162.50 322Q159 297 159 263Q159 229 162.50 204Q166 179 176 154.50Q186 130 208 117Q230 104 263 104Q296 104 317.50 117Q339 130 349 154.50Q359 179 362.50 203.50M213 611L213 708L310 708L310 611L213 611Z"  horiz-adv-x="549" vert-adv-y="1000"  />

      
      <glyph glyph-name="uni0122" unicode="&#x0122;" d="M583 276Q583 206 568.50 159.50Q554 113 519 75Q442-6 323-6Q211-6 139 66Q91 115 79 172.50Q67 230 67 356Q67 482 79 539.50Q91 597 139 646Q211 718 323 718Q431 718 498.50 656Q566 594 581 498L473 498Q459 557 420.50 589.50Q382 622 323 622Q259 622 217 578Q191 550 183 506.50Q175 463 175 356Q175 249 183 205.50Q191 162 217 134Q259 90 323 90Q397 90 440 141Q475 181 475 253L475 293L323 293L323 385L583 385L583 276M393-64L342-211L241-211L311-64L393-64Z"  horiz-adv-x="649" vert-adv-y="1000"  />

      
      <glyph glyph-name="uni0123" unicode="&#x0123;" d="M468 3Q468-92 409.50-151.50Q351-211 251-211Q193-211 152.50-196Q112-181 72-144L137-79Q185-124 247-124Q308-124 337-87.50Q366-51 366 5L366 70Q317 12 235 12Q159 12 114 57Q80 91 68.50 140Q57 189 57 263Q57 337 68.50 386Q80 435 114 469Q158 513 236 513Q319 513 369 453L369 507L468 507L468 3M362.50 203.50Q362.50 203.50 364.25 215.75Q366 228 366 263Q366 298 362.50 322.50Q359 347 349 371.50Q339 396 317.50 409Q296 422 263 422Q230 422 208 409Q186 396 176 371.50Q166 347 162.50 322Q159 297 159 263Q159 229 162.50 204Q166 179 176 154.50Q186 130 208 117Q230 104 263 104Q296 104 317.50 117Q339 130 349 154.50Q359 179 362.50 203.50M409 761L298 599L221 599L296 761L409 761Z"  horiz-adv-x="549" vert-adv-y="1000"  />

      
      <glyph glyph-name="uni0124" unicode="&#x0124;" d="M598 0L490 0L490 311L201 311L201 0L93 0L93 712L201 712L201 408L490 408L490 712L598 712L598 0M517 781L432 781L345 878L258 781L173 781L302 942L388 942L517 781Z"  horiz-adv-x="691" vert-adv-y="1000"  />

      
      <glyph glyph-name="uni0125" unicode="&#x0125;" d="M492 0L390 0L390 309Q390 366 362 394Q334 422 288 422Q242 422 212.50 393.50Q183 365 183 309L183 0L81 0L81 712L183 712L183 456Q234 513 316 513Q393 513 441 467Q492 417 492 324L492 0M305 780L220 780L133 877L46 780L-39 780L90 941L176 941L305 780Z"  horiz-adv-x="568" vert-adv-y="1000"  />

      
      <glyph glyph-name="uni0126" unicode="&#x0126;" d="M685 511L614 511L614 0L506 0L506 311L217 311L217 0L109 0L109 511L38 511L38 595L109 595L109 712L217 712L217 595L506 595L506 712L614 712L614 595L685 595L685 511M506 408L506 511L217 511L217 408L506 408Z"  horiz-adv-x="723" vert-adv-y="1000"  />

      
      <glyph glyph-name="uni0127" unicode="&#x0127;" d="M506 0L404 0L404 309Q404 366 376 394Q348 422 302 422Q256 422 226.50 393.50Q197 365 197 309L197 0L95 0L95 569L40 569L40 635L95 635L95 712L197 712L197 635L300 635L300 569L197 569L197 456Q248 513 330 513Q407 513 455 467Q506 417 506 324L506 0Z"  horiz-adv-x="582" vert-adv-y="1000"  />

      
      <glyph glyph-name="uni0128" unicode="&#x0128;" d="M201 0L93 0L93 712L201 712L201 0M318 846Q263 791 214 791Q179 791 139 814Q106 833 83 833Q55 833 25 803L-23 850Q32 905 81 905Q116 905 156 881Q188 862 211 862Q239 862 270 893L318 846Z"  horiz-adv-x="294" vert-adv-y="1000"  />

      
      <glyph glyph-name="uni0129" unicode="&#x0129;" d="M183 0L81 0L81 507L183 507L183 0M304 664Q249 609 200 609Q165 609 125 632Q92 651 69 651Q41 651 11 621L-37 668Q18 723 67 723Q101 723 142 699Q174 680 197 680Q225 680 256 711L304 664Z"  horiz-adv-x="264" vert-adv-y="1000"  />

      
      <glyph glyph-name="uni012A" unicode="&#x012A;" d="M201 0L93 0L93 712L201 712L201 0M-7 795L-7 868L302 868L302 795L-7 795Z"  horiz-adv-x="294" vert-adv-y="1000"  />

      
      <glyph glyph-name="uni012B" unicode="&#x012B;" d="M183 0L81 0L81 507L183 507L183 0M-22 618L-22 691L287 691L287 618L-22 618Z"  horiz-adv-x="264" vert-adv-y="1000"  />

      
      <glyph glyph-name="uni012C" unicode="&#x012C;" d="M201 0L93 0L93 712L201 712L201 0M313 937Q309 864 265 828Q221 792 148 792Q75 792 31 828Q-13 864-17 937L55 937Q59 903 84.50 884.50Q110 866 148 866Q186 866 211.50 884.50Q237 903 241 937L313 937Z"  horiz-adv-x="294" vert-adv-y="1000"  />

      
      <glyph glyph-name="uni012D" unicode="&#x012D;" d="M183 0L81 0L81 507L183 507L183 0M298 738Q294 665 250.50 629Q207 593 134 593Q60 593 16.50 629Q-27 665-31 738L41 738Q45 704 70 686Q95 668 134 668Q167 668 194.50 685.50Q222 703 226 738L298 738Z"  horiz-adv-x="264" vert-adv-y="1000"  />

      
      <glyph glyph-name="uni012E" unicode="&#x012E;" d="M201 0L93 0L93 712L201 712L201 0M175-64L124-211L23-211L93-64L175-64Z"  horiz-adv-x="294" vert-adv-y="1000"  />

      
      <glyph glyph-name="uni012F" unicode="&#x012F;" d="M183 0L81 0L81 507L183 507L183 0M186 607L78 607L78 715L186 715L186 607M163-64L112-211L11-211L81-64L163-64Z"  horiz-adv-x="264" vert-adv-y="1000"  />

      
      <glyph glyph-name="uni0130" unicode="&#x0130;" d="M201 0L93 0L93 712L201 712L201 0M100 793L100 890L197 890L197 793L100 793Z"  horiz-adv-x="294" vert-adv-y="1000"  />

      
      <glyph glyph-name="uni0131" unicode="&#x0131;" d="M183 0L81 0L81 507L183 507L183 0Z"  horiz-adv-x="264" vert-adv-y="1000"  />

      
      <glyph glyph-name="uni0132" unicode="&#x0132;" d="M201 0L93 0L93 712L201 712L201 0M717 225Q717 118 649.50 56Q582-6 480-6Q376-6 307 63L379 134Q401 112 422.50 101.50Q444 91 480 91Q541 91 575 127.50Q609 164 609 233L609 712L717 712L717 225Z"  horiz-adv-x="800" vert-adv-y="1000"  />

      
      <glyph glyph-name="uni0133" unicode="&#x0133;" d="M183 0L81 0L81 507L183 507L183 0M186 607L78 607L78 715L186 715L186 607M447-67Q447-128 412-167.50Q377-207 308-207L245-207L245-120L290-120Q320-120 332.50-105.50Q345-91 345-61L345 507L447 507L447-67M450 607L342 607L342 715L450 715L450 607Z"  horiz-adv-x="528" vert-adv-y="1000"  />

      
      <glyph glyph-name="uni0134" unicode="&#x0134;" d="M423 225Q423 118 355.50 56Q288-6 186-6Q82-6 13 63L85 134Q107 112 128.50 101.50Q150 91 186 91Q247 91 281 127.50Q315 164 315 233L315 712L423 712L423 225M540 781L455 781L368 878L281 781L196 781L325 942L411 942L540 781Z"  horiz-adv-x="506" vert-adv-y="1000"  />

      
      <glyph glyph-name="uni0135" unicode="&#x0135;" d="M183-67Q183-128 148-167.50Q113-207 44-207L-19-207L-19-120L26-120Q56-120 68.50-105.50Q81-91 81-61L81 507L183 507L183-67M304 599L219 599L132 696L45 599L-40 599L89 760L175 760L304 599Z"  horiz-adv-x="264" vert-adv-y="1000"  />

      
      <glyph glyph-name="uni0136" unicode="&#x0136;" d="M648 0L521 0L321 351L201 207L201 0L93 0L93 712L201 712L201 354L492 712L624 712L393 433L648 0M400-64L349-211L248-211L318-64L400-64Z"  horiz-adv-x="658" vert-adv-y="1000"  />

      
      <glyph glyph-name="uni0137" unicode="&#x0137;" d="M526 0L400 0L258 234L183 149L183 0L81 0L81 712L183 712L183 273L380 507L504 507L328 308L526 0M344-64L293-211L192-211L262-64L344-64Z"  horiz-adv-x="548" vert-adv-y="1000"  />

      
      <glyph glyph-name="uni0138" unicode="&#x0138;" d="M526 0L400 0L258 234L183 149L183 0L81 0L81 507L183 507L183 273L380 507L504 507L328 308L526 0Z"  horiz-adv-x="548" vert-adv-y="1000"  />

      
      <glyph glyph-name="uni0139" unicode="&#x0139;" d="M544 0L93 0L93 712L201 712L201 97L544 97L544 0M286 943L175 781L98 781L173 943L286 943Z"  horiz-adv-x="574" vert-adv-y="1000"  />

      
      <glyph glyph-name="uni013A" unicode="&#x013A;" d="M280 0L217 0Q148 0 113 39.50Q78 79 78 140L78 712L180 712L180 146Q180 116 192.50 101.50Q205 87 235 87L280 87L280 0M274 943L163 781L86 781L161 943L274 943Z"  horiz-adv-x="311" vert-adv-y="1000"  />

      
      <glyph glyph-name="uni013B" unicode="&#x013B;" d="M544 0L93 0L93 712L201 712L201 97L544 97L544 0M356-64L305-211L204-211L274-64L356-64Z"  horiz-adv-x="574" vert-adv-y="1000"  />

      
      <glyph glyph-name="uni013C" unicode="&#x013C;" d="M280 0L217 0Q148 0 113 39.50Q78 79 78 140L78 712L180 712L180 146Q180 116 192.50 101.50Q205 87 235 87L280 87L280 0M226-64L175-211L74-211L144-64L226-64Z"  horiz-adv-x="311" vert-adv-y="1000"  />

      
      <glyph glyph-name="uni013D" unicode="&#x013D;" d="M544 0L93 0L93 712L201 712L201 97L544 97L544 0M437 712L381 553L306 553L343 712L437 712Z"  horiz-adv-x="574" vert-adv-y="1000"  />

      
      <glyph glyph-name="uni013E" unicode="&#x013E;" d="M280 0L217 0Q148 0 113 39.50Q78 79 78 140L78 712L180 712L180 146Q180 116 192.50 101.50Q205 87 235 87L280 87L280 0M371 730L315 571L240 571L277 730L371 730Z"  horiz-adv-x="311" vert-adv-y="1000"  />

      
      <glyph glyph-name="uni013F" unicode="&#x013F;" d="M544 0L93 0L93 712L201 712L201 97L544 97L544 0M380 309L380 406L477 406L477 309L380 309Z"  horiz-adv-x="574" vert-adv-y="1000"  />

      
      <glyph glyph-name="uni0140" unicode="&#x0140;" d="M280 0L217 0Q148 0 113 39.50Q78 79 78 140L78 712L180 712L180 146Q180 116 192.50 101.50Q205 87 235 87L280 87L280 0M252 228L252 325L349 325L349 228L252 228Z"  horiz-adv-x="340" vert-adv-y="1000"  />

      
      <glyph glyph-name="uni0141" unicode="&#x0141;" d="M557 0L107 0L107 266L38 222L38 315L107 358L107 712L215 712L215 426L356 515L356 424L215 335L215 97L557 97L557 0Z"  horiz-adv-x="587" vert-adv-y="1000"  />

      
      <glyph glyph-name="uni0142" unicode="&#x0142;" d="M294 0L231 0Q162 0 127 39.50Q92 79 92 140L92 321L33 285L33 372L92 408L92 712L194 712L194 470L264 513L264 427L194 383L194 146Q194 116 206.50 101.50Q219 87 249 87L294 87L294 0Z"  horiz-adv-x="326" vert-adv-y="1000"  />

      
      <glyph glyph-name="uni0143" unicode="&#x0143;" d="M629 0L530 0L201 501L201 0L93 0L93 712L192 712L521 212L521 712L629 712L629 0M497 943L386 781L309 781L384 943L497 943Z"  horiz-adv-x="722" vert-adv-y="1000"  />

      
      <glyph glyph-name="uni0144" unicode="&#x0144;" d="M492 0L390 0L390 309Q390 366 362 394Q334 422 288 422Q242 422 212.50 393.50Q183 365 183 309L183 0L81 0L81 507L181 507L181 456Q234 513 316 513Q393 513 441 467Q492 417 492 324L492 0M420 761L309 599L232 599L307 761L420 761Z"  horiz-adv-x="568" vert-adv-y="1000"  />

      
      <glyph glyph-name="uni0145" unicode="&#x0145;" d="M629 0L530 0L201 501L201 0L93 0L93 712L192 712L521 212L521 712L629 712L629 0M421-64L370-211L269-211L339-64L421-64Z"  horiz-adv-x="722" vert-adv-y="1000"  />

      
      <glyph glyph-name="uni0146" unicode="&#x0146;" d="M492 0L390 0L390 309Q390 366 362 394Q334 422 288 422Q242 422 212.50 393.50Q183 365 183 309L183 0L81 0L81 507L181 507L181 456Q234 513 316 513Q393 513 441 467Q492 417 492 324L492 0M353-64L302-211L201-211L271-64L353-64Z"  horiz-adv-x="568" vert-adv-y="1000"  />

      
      <glyph glyph-name="uni0147" unicode="&#x0147;" d="M629 0L530 0L201 501L201 0L93 0L93 712L192 712L521 212L521 712L629 712L629 0M533 942L404 781L318 781L189 942L274 942L361 845L448 942L533 942Z"  horiz-adv-x="722" vert-adv-y="1000"  />

      
      <glyph glyph-name="uni0148" unicode="&#x0148;" d="M492 0L390 0L390 309Q390 366 362 394Q334 422 288 422Q242 422 212.50 393.50Q183 365 183 309L183 0L81 0L81 507L181 507L181 456Q234 513 316 513Q393 513 441 467Q492 417 492 324L492 0M456 760L327 599L241 599L112 760L197 760L284 663L371 760L456 760Z"  horiz-adv-x="568" vert-adv-y="1000"  />

      
      <glyph glyph-name="uni0149" unicode="&#x0149;" d="M492 0L390 0L390 309Q390 366 362 394Q334 422 288 422Q242 422 212.50 393.50Q183 365 183 309L183 0L81 0L81 507L181 507L181 456Q234 513 316 513Q393 513 441 467Q492 417 492 324L492 0M81 612L-10 536L-10 734L81 734L81 612Z"  horiz-adv-x="568" vert-adv-y="1000"  />

      
      <glyph glyph-name="uni014A" unicode="&#x014A;" d="M629-71Q629-132 594-171.50Q559-211 490-211L427-211L427-124L475-124Q505-124 517.50-109.50Q530-95 530-65L530 0L201 501L201 0L93 0L93 712L192 712L521 212L521 712L629 712L629-71Z"  horiz-adv-x="722" vert-adv-y="1000"  />

      
      <glyph glyph-name="uni014B" unicode="&#x014B;" d="M492-71Q492-132 457-171.50Q422-211 353-211L290-211L290-124L335-124Q365-124 377.50-109.50Q390-95 390-65L390 309Q390 366 362 394Q334 422 288 422Q242 422 212.50 393.50Q183 365 183 309L183 0L81 0L81 507L181 507L181 456Q234 513 316 513Q393 513 441 467Q492 417 492 324L492-71Z"  horiz-adv-x="568" vert-adv-y="1000"  />

      
      <glyph glyph-name="uni014C" unicode="&#x014C;" d="M567.50 540Q567.50 540 573.25 511.50Q579 483 579 356Q579 229 567.50 172Q556 115 507 66Q435-6 323-6Q211-6 139 66Q90 115 78.50 172Q67 229 67 356Q67 483 78.50 540Q90 597 139 646Q211 718 323 718Q435 718 507 646Q556 597 567.50 540M463 205Q463 205 467 226.50Q471 248 471 356Q471 464 463 507.50Q455 551 429 578Q387 622 323 622Q259 622 217 578Q191 550 183 506.50Q175 463 175 356Q175 249 183 206Q191 163 217 135Q260 90 323 90Q386 90 429 135Q455 162 463 205M168 795L168 868L477 868L477 795L168 795Z"  horiz-adv-x="646" vert-adv-y="1000"  />

      
      <glyph glyph-name="uni014D" unicode="&#x014D;" d="M480 254Q480 184 467 137Q454 90 420 54Q362-6 268-6Q175-6 117 54Q83 90 70 137Q57 184 57 254Q57 323 70 370.50Q83 418 117 453Q175 513 268 513Q362 513 420 453Q454 418 467 370.50Q480 323 480 254M343 115Q378 150 378 254Q378 358 343 393Q314 422 268 422Q223 422 194 393Q159 358 159 254Q159 150 194 115Q224 85 268 85Q313 85 343 115M113 618L113 691L422 691L422 618L113 618Z"  horiz-adv-x="537" vert-adv-y="1000"  />

      
      <glyph glyph-name="uni014E" unicode="&#x014E;" d="M567.50 540Q567.50 540 573.25 511.50Q579 483 579 356Q579 229 567.50 172Q556 115 507 66Q435-6 323-6Q211-6 139 66Q90 115 78.50 172Q67 229 67 356Q67 483 78.50 540Q90 597 139 646Q211 718 323 718Q435 718 507 646Q556 597 567.50 540M463 205Q463 205 467 226.50Q471 248 471 356Q471 464 463 507.50Q455 551 429 578Q387 622 323 622Q259 622 217 578Q191 550 183 506.50Q175 463 175 356Q175 249 183 206Q191 163 217 135Q260 90 323 90Q386 90 429 135Q455 162 463 205M488 937Q484 864 440 828Q396 792 323 792Q250 792 206 828Q162 864 158 937L230 937Q234 903 259.50 884.50Q285 866 323 866Q361 866 386.50 884.50Q412 903 416 937L488 937Z"  horiz-adv-x="646" vert-adv-y="1000"  />

      
      <glyph glyph-name="uni014F" unicode="&#x014F;" d="M480 254Q480 184 467 137Q454 90 420 54Q362-6 268-6Q175-6 117 54Q83 90 70 137Q57 184 57 254Q57 323 70 370.50Q83 418 117 453Q175 513 268 513Q362 513 420 453Q454 418 467 370.50Q480 323 480 254M343 115Q378 150 378 254Q378 358 343 393Q314 422 268 422Q223 422 194 393Q159 358 159 254Q159 150 194 115Q224 85 268 85Q313 85 343 115M433 738Q429 665 385.50 629Q342 593 269 593Q195 593 151.50 629Q108 665 104 738L176 738Q180 704 205 686Q230 668 269 668Q302 668 329.50 685.50Q357 703 361 738L433 738Z"  horiz-adv-x="537" vert-adv-y="1000"  />

      
      <glyph glyph-name="uni0150" unicode="&#x0150;" d="M567.50 540Q567.50 540 573.25 511.50Q579 483 579 356Q579 229 567.50 172Q556 115 507 66Q435-6 323-6Q211-6 139 66Q90 115 78.50 172Q67 229 67 356Q67 483 78.50 540Q90 597 139 646Q211 718 323 718Q435 718 507 646Q556 597 567.50 540M463 205Q463 205 467 226.50Q471 248 471 356Q471 464 463 507.50Q455 551 429 578Q387 622 323 622Q259 622 217 578Q191 550 183 506.50Q175 463 175 356Q175 249 183 206Q191 163 217 135Q260 90 323 90Q386 90 429 135Q455 162 463 205M438 781L361 781L437 942L549 942L438 781M253 781L176 781L252 942L364 942L253 781Z"  horiz-adv-x="646" vert-adv-y="1000"  />

      
      <glyph glyph-name="uni0151" unicode="&#x0151;" d="M480 254Q480 184 467 137Q454 90 420 54Q362-6 268-6Q175-6 117 54Q83 90 70 137Q57 184 57 254Q57 323 70 370.50Q83 418 117 453Q175 513 268 513Q362 513 420 453Q454 418 467 370.50Q480 323 480 254M343 115Q378 150 378 254Q378 358 343 393Q314 422 268 422Q223 422 194 393Q159 358 159 254Q159 150 194 115Q224 85 268 85Q313 85 343 115M383 599L306 599L382 760L494 760L383 599M198 599L121 599L197 760L309 760L198 599Z"  horiz-adv-x="537" vert-adv-y="1000"  />

      
      <glyph glyph-name="uni0152" unicode="&#x0152;" d="M321-6Q211-6 139 66Q91 115 79 172.50Q67 230 67 356Q67 482 79 539.50Q91 597 139 646Q211 718 321 718Q416 718 471 654L471 712L921 712L921 616L579 616L579 406L870 406L870 312L579 312L579 96L922 96L922 0L471 0L471 58Q416-6 321-6M322 90Q387 90 429 135Q455 163 463 205.50Q471 248 471 356Q471 464 463 506.50Q455 549 429 577Q388 621 321 621Q258 621 217 578Q191 550 183 506.50Q175 463 175 356Q175 249 183 206Q191 163 217 135Q260 90 322 90Z"  horiz-adv-x="977" vert-adv-y="1000"  />

      
      <glyph glyph-name="uni0153" unicode="&#x0153;" d="M807 224L478 224Q478 157 511.50 119.50Q545 82 607 82Q648 82 675.50 94Q703 106 730 134L795 73Q754 32 712 13Q670-6 606-6Q488-6 431 74Q379-6 268-6Q174-6 117 54Q83 90 70 137Q57 184 57 254Q57 323 70 370.50Q83 418 117 453Q174 513 268 513Q380 513 432 432Q485 513 592 513Q693 513 750 446.50Q807 380 807 269L807 224M343 115Q378 150 378 254Q378 358 343 393Q314 422 268 422Q223 422 194 393Q159 358 159 254Q159 150 194 115Q224 85 268 85Q313 85 343 115M707 295Q704 340 693 364Q664 428 593 428Q521 428 492 364Q480 338 479 295L707 295Z"  horiz-adv-x="862" vert-adv-y="1000"  />

      
      <glyph glyph-name="uni0154" unicode="&#x0154;" d="M612 0L486 0L336 300L201 300L201 0L93 0L93 712L369 712Q469 712 529.50 654Q590 596 590 504Q590 431 550.50 381.50Q511 332 448 315L612 0M449 421.50Q449 421.50 465.50 436.25Q482 451 482 503Q482 555 449 585Q416 615 361 615L201 615L201 392L361 392Q416 392 449 421.50M463 943L352 781L275 781L350 943L463 943Z"  horiz-adv-x="655" vert-adv-y="1000"  />

      
      <glyph glyph-name="uni0155" unicode="&#x0155;" d="M437 465L360 388Q326 422 284 422Q241 422 212 390.50Q183 359 183 308L183 0L81 0L81 507L181 507L181 452Q201 479 237.50 496Q274 513 316 513Q389 513 437 465M356 761L245 599L168 599L243 761L356 761Z"  horiz-adv-x="439" vert-adv-y="1000"  />

      
      <glyph glyph-name="uni0156" unicode="&#x0156;" d="M612 0L486 0L336 300L201 300L201 0L93 0L93 712L369 712Q469 712 529.50 654Q590 596 590 504Q590 431 550.50 381.50Q511 332 448 315L612 0M449 421.50Q449 421.50 465.50 436.25Q482 451 482 503Q482 555 449 585Q416 615 361 615L201 615L201 392L361 392Q416 392 449 421.50M387-64L336-211L235-211L305-64L387-64Z"  horiz-adv-x="655" vert-adv-y="1000"  />

      
      <glyph glyph-name="uni0157" unicode="&#x0157;" d="M437 465L360 388Q326 422 284 422Q241 422 212 390.50Q183 359 183 308L183 0L81 0L81 507L181 507L181 452Q201 479 237.50 496Q274 513 316 513Q389 513 437 465M174-64L123-211L22-211L92-64L174-64Z"  horiz-adv-x="439" vert-adv-y="1000"  />

      
      <glyph glyph-name="uni0158" unicode="&#x0158;" d="M612 0L486 0L336 300L201 300L201 0L93 0L93 712L369 712Q469 712 529.50 654Q590 596 590 504Q590 431 550.50 381.50Q511 332 448 315L612 0M449 421.50Q449 421.50 465.50 436.25Q482 451 482 503Q482 555 449 585Q416 615 361 615L201 615L201 392L361 392Q416 392 449 421.50M499 942L370 781L284 781L155 942L240 942L327 845L414 942L499 942Z"  horiz-adv-x="655" vert-adv-y="1000"  />

      
      </font>
</defs>
</svg>
